#TITLE:Motivation;
#SUBTITLE:;
#ARTIST:Normani;
#TITLETRANSLIT:;
#SUBTITLETRANSLIT:;
#ARTISTTRANSLIT:;
#CREDIT:;
#BANNER:Motivation banner.png;
#BACKGROUND:Motivation bg.png;
#LYRICSPATH:;
#CDTITLE:;
#MUSIC:Motivation.mp3;
#OFFSET:2.280;
#SAMPLESTART:45.580;
#SAMPLELENGTH:15.000;
#SELECTABLE:YES;
#BPMS:0.000=83.000,4.000=82.100,8.000=85.240,16.000=86.520,20.000=171.200,180.000=84.800,184.000=85.200,192.000=86.000,196.000=171.200;
#STOPS:260.000=1.800
;
#BGCHANGES:4.000=Motivation.avi=1.000=0=0=1,
99999=-nosongbg-=1.000=0=0=0 // don't automatically add -songbackground-
;

//---------------dance-single - ----------------
#NOTES:
     dance-single:
     :
     Hard:
     9:
     0.627,0.837,0.542,0.095,0.084:
0000
0000
0000
0000
,
0000
0000
0000
0000
,
0000
0000
0000
0000
,
0000
0000
0000
0000
,
0000
0000
0000
0000
,
1001
0100
0110
0010
,
0101
0000
0110
0000
0001
0010
0100
1000
,
0100
0000
0010
0000
0101
0000
0010
0100
,
1000
0000
1000
0000
0010
0100
0001
0100
,
0010
0000
0100
0000
0110
0000
1000
0010
,
0200
0302
0023
0130
,
0010
0000
1000
0000
0001
0010
0100
0000
,
0110
0000
1000
0000
0100
0010
0001
0000
,
1100
0100
0110
0010
,
0110
0000
1001
0000
0010
0100
0001
0100
,
1000
0000
1000
0000
0110
0000
0001
1000
,
0001
0000
0001
0000
0010
0100
0010
1000
,
0010
0000
0010
0000
0110
0000
1000
0010
,
0001
0010
0100
0100
,
0110
0000
1000
0000
0010
0100
1000
0000
,
0011
0000
0100
0000
0010
0100
1000
0000
,
0110
0000
2000
0000
3100
0000
0010
0100
,
0010
0000
0000
0001
0000
0000
0010
0000
0110
0000
0000
0000
1000
0000
0100
0000
,
0010
0000
0000
0100
0000
0000
0001
0000
0100
0000
0000
0010
0000
0000
1000
0000
,
0010
0000
0000
0100
0000
0000
1000
0000
0001
0000
1000
0000
1001
0000
0010
0000
,
0110
0000
0002
0000
0013
0000
0100
0010
,
1000
0000
0000
0100
0000
0000
0010
0000
0001
0000
0000
0000
0100
0000
0000
0000
,
0120
0000
0000
0030
,
1000
0001
1000
0010
0100
0001
0100
1000
,
0110
0010
0001
0100
1001
0000
0010
0100
,
1000
0010
0001
0100
0010
0000
0010
0000
,
0101
0000
0110
0000
1010
0100
0000
0100
,
0010
1000
0001
0100
0010
0000
0010
0000
,
1001
1000
0100
0010
0101
0000
0100
0010
,
1000
0001
0010
0001
0010
0000
1000
0000
,
0110
0000
0101
0000
0010
0100
0000
0100
,
1000
0010
0100
0001
0100
0000
0010
0000
,
1001
0001
0010
0110
0000
0010
0200
0000
,
0010
0010
0010
0310
0001
0010
1000
0010
,
0100
0010
1000
0110
0000
0100
0020
0000
,
0100
0100
0100
0130
0001
0100
0010
0000
,
0110
1001
0110
1001
,
0010
0100
1000
0000
1000
0100
0010
0000
,
0001
0100
0010
1000
0010
0000
0010
0000
,
0100
0000
0001
0010
1001
0000
0010
0000
,
1001
0000
0100
0000
0010
0001
0010
0100
0000
0100
1000
0000
0100
0010
0100
0000
,
1001
0000
0100
0000
1000
0010
0100
0001
0000
0001
0010
0100
1000
0100
0010
0001
,
0101
0000
0010
0000
0100
0000
1000
0000
0010
0000
0100
0000
1000
0100
0010
0001
,
0010
0100
0010
1000
0010
0000
0010
0000
0100
0001
0010
1000
0010
0100
0010
0100
,
1001
0000
0110
0000
0001
0010
0100
0010
,
1000
0010
0010
0000
0100
0010
0001
0100
,
0110
0000
1001
0000
0010
0100
0010
1000
,
0110
0001
0010
0100
1000
0100
0010
0100
,
0110
0000
1100
0000
0100
0010
0100
0001
,
0100
0010
0100
0000
0010
0001
0100
0010
,
1000
1000
0100
0010
,
0100
0010
0010
0100
0001
0001
0010
0100
,
1001
0010
0001
0100
0020
0000
0130
0001
,
0010
0010
1000
0010
0100
0000
0100
0000
,
1010
0000
1001
0000
0010
0100
0000
0100
,
1000
0100
0010
0100
0110
0000
1001
0000
,
0010
0100
1000
0100
0020
0000
1030
0100
,
1000
0010
0100
0010
0001
0000
0001
0000
,
1100
0000
0011
0000
0100
0010
0000
0010
,
1000
1000
0010
0010
0100
0000
0010
0000
,
1001
0000
1000
0010
0010
0100
1001
0100
,
0010
1000
0000
1000
0010
0010
0100
0001
,
0100
0010
1000
0010
0100
0000
0101
0000
,
1001
0000
1001
0000
0110
0000
0001
0010
,
0100
0000
0010
0100
1000
0000
0010
0100
,
0001
0100
0010
0000
0010
0000
1000
0010
,
0100
0001
0200
0000
0310
0000
1001
0000
,
1100
0000
0010
0100
0010
0001
0010
0100
,
0020
0000
1030
0100
0100
1000
0101
0000
,
0110
0000
0100
0010
1000
0001
0010
0001
,
0001
0010
0100
0010
1000
0100
1010
0000
,
1100
0000
0010
0010
0100
0010
1000
0010
,
0001
0100
0010
1000
0010
0100
0110
0000
,
0100
0000
0101
0000
0010
0000
1000
0001
,
0001
1000
0001
0001
0010
0100
0110
0000
,
1100
0000
0010
0100
0100
0001
0010
0001
,
0100
0010
0100
0010
1000
1000
1010
0000
,
1010
0000
0100
0100
0001
0100
0010
1000
,
1000
0001
0100
0010
0001
0100
0010
0000
,
0001
0000
0010
0100
0100
0000
0010
1000
,
1000
0000
0100
0010
0100
0001
0110
0000
,
1001
0000
0010
0100
0100
0000
0010
1000
,
0010
0000
0100
0001
1000
0020
0000
0000
,
0030
0000
0000
0000
;

//---------------dance-single - ----------------
#NOTES:
     dance-single:
     :
     Medium:
     5:
     0.412,0.483,0.205,0.066,0.000:
0000
0000
0000
0000
,
0000
0000
0000
0000
,
0000
0000
0000
0000
,
0000
0000
0000
0000
,
0000
0000
0000
0000
,
1001
0010
0100
0001
,
0100
0000
0100
0000
0010
1000
0010
0000
,
0100
0100
0010
0100
,
0001
0000
0001
0000
0010
0100
1000
0000
,
0100
0100
1000
0010
,
0100
0001
0100
0010
,
1000
0100
0010
0010
,
0100
0000
0001
0000
0100
0010
0100
0000
,
0010
0001
0010
0100
,
1000
0000
1000
0000
0010
0100
0010
0000
,
0001
0000
0001
0000
0110
0000
1000
0100
,
0010
0000
0010
0000
0100
0010
0100
0000
,
1000
1000
0010
0001
,
0100
0010
0001
1000
,
0010
0000
0010
0000
0100
0001
0100
0000
,
0010
0000
1000
0000
0010
0100
0010
0000
,
1000
0020
0000
0000
,
0130
0100
0100
0000
,
0101
0010
1000
0010
,
0100
0000
0001
0010
0100
0000
0010
0000
,
1000
0002
0000
0000
,
0013
0010
0010
0100
,
0020
0000
0000
0000
0000
0000
0000
0030
,
0100
0001
1000
0010
,
1001
0000
0010
0100
0010
0000
1000
0000
,
0100
0010
0100
0001
,
0010
0000
1000
0000
0000
0010
0000
1000
,
0100
0010
0100
0000
,
1001
0000
1000
0001
1000
0000
0100
0000
,
0010
0001
0100
0010
,
1000
0000
0010
0000
0000
0100
0000
0010
,
0100
0001
1000
0010
,
0001
0010
0100
2000
,
3100
0010
0100
0100
,
0010
1000
0100
0020
,
0031
0000
0100
0000
0010
1000
0010
0000
,
0100
0100
0110
0001
,
0010
0100
0010
1000
,
0010
1000
0010
0000
0100
0000
0200
0000
,
0000
0310
0010
0000
,
1000
0100
0010
0001
0000
0001
0000
0010
,
0100
0010
1000
0010
0000
0010
0000
0100
,
0010
0001
0010
0000
0010
0100
0010
0000
,
1000
0100
0010
0001
0000
0010
0100
0100
,
0110
0001
0010
0100
,
0010
1000
0100
1000
,
0110
1000
0100
0001
,
0100
1000
0010
0010
,
0101
0020
0130
0001
,
0010
0100
1000
1000
,
0110
0000
0120
0000
0000
0000
0000
0030
,
0100
0001
1000
0010
,
1001
0000
1000
0100
0010
0000
0100
0000
,
0010
0000
0001
0100
0001
0000
0010
0000
,
0100
0000
0010
0000
0000
1000
0000
0001
,
1000
0100
0100
0010
,
1001
0000
0010
0100
0010
0000
1000
0000
,
0100
0000
0010
0100
0010
0000
0001
0000
,
1000
0000
0010
0000
0000
0010
0000
0100
,
0010
0000
0001
1000
0001
0000
0010
0000
,
1001
0000
1000
1000
1000
0000
0110
0000
,
1000
0100
0001
0100
,
0010
1000
0010
0100
,
0100
0101
0010
1000
,
0010
0000
0100
0000
0001
0000
0100
0010
,
0100
0010
0100
0000
0001
0000
1000
0000
,
0010
0010
0100
0110
,
1001
0000
0010
0100
1000
0000
0100
0000
,
0010
0001
0100
0101
,
1010
0000
0100
0001
0100
0000
0010
0000
,
1000
0000
0010
0010
0010
0000
0100
0000
,
1000
0100
0001
0100
,
0010
1000
0010
0110
,
0011
0110
1100
0010
,
0100
0000
0001
0100
0001
0000
1010
0000
,
1010
0000
0100
0001
0100
0000
0010
0000
,
0100
0010
1000
0101
,
0101
0000
0010
1000
0010
0000
0100
0000
,
1000
0000
0010
0100
0010
0000
0001
0000
,
1000
0010
0100
1000
,
1000
0010
0100
0001
,
1000
0010
1000
0010
,
0100
0000
0001
1000
0001
2000
0000
0000
,
3000
0000
0000
0000
;

//---------------dance-single - ----------------
#NOTES:
     dance-single:
     :
     Easy:
     3:
     0.355,0.354,0.081,0.073,0.000: // measure 1
0000
0000
0000
0000
,  // measure 2
0000
0000
0000
0000
,  // measure 3
0000
0000
0000
0000
,  // measure 4
0000
0000
0000
0000
,  // measure 5
0000
0000
0000
0000
,  // measure 6
1000
0100
0100
0010
,  // measure 7
0100
0001
0100
0100
,  // measure 8
0010
1000
0010
0100
,  // measure 9
0001
0001
0010
0100
,  // measure 10
0010
1000
0001
0100
,  // measure 11
0010
1000
0100
0100
,  // measure 12
0010
1000
0001
0001
,  // measure 13
0100
0010
1000
1000
,  // measure 14
0010
0100
0001
0100
,  // measure 15
1000
0010
0001
0001
,  // measure 16
0100
0010
1000
0010
,  // measure 17
1000
1000
0010
0010
,  // measure 18
0100
0001
0100
0010
,  // measure 19
1000
0010
0100
0001
,  // measure 20
0100
0100
0010
0001
,  // measure 21
1000
1000
0010
0100
,  // measure 22
1000
0020
0000
0000
,  // measure 23
0130
0001
0100
0000
,  // measure 24
0010
1000
0010
0010
,  // measure 25
0100
0001
0100
0100
,  // measure 26
0010
2000
0000
0000
,  // measure 27
3100
0001
0100
0010
,  // measure 28
0220
0000
0000
0330
,  // measure 29
0010
0010
0010
0010
,  // measure 30
1001
0010
0001
0100
,  // measure 31
0010
1000
0010
0100
,  // measure 32
0001
0100
0010
1000
,  // measure 33
0010
0100
1001
0100
,  // measure 34
1001
0010
0100
0001
,  // measure 35
0100
0010
1000
0010
,  // measure 36
1000
0100
0010
0001
,  // measure 37
1000
0100
0001
0100
,  // measure 38
0010
0010
0010
0200
,  // measure 39
0301
0010
1000
0010
,  // measure 40
1000
1000
1000
0020
,  // measure 41
0130
0001
0100
0010
,  // measure 42
1000
0001
1000
0001
,  // measure 43
1000
0010
0010
0010
,  // measure 44
0100
0001
0100
0010
,  // measure 45
1000
0010
0010
0000
,  // measure 46
1000
0010
0100
0001
,  // measure 47
0100
0010
0001
0010
,  // measure 48
0100
0010
1000
0010
,  // measure 49
0100
0100
0100
0010
,  // measure 50
0110
1000
0100
0010
,  // measure 51
0001
0010
0100
1000
,  // measure 52
0010
0010
0100
0100
,  // measure 53
0001
0100
0010
1000
,  // measure 54
0010
0010
1000
1000
,  // measure 55
0100
0100
0001
0001
,  // measure 56
0010
0200
0000
0000
,  // measure 57
1300
1000
1000
1000
,  // measure 58
1001
0010
0100
0001
,  // measure 59
0100
0010
1000
0010
,  // measure 60
0100
0001
0100
0010
,  // measure 61
1000
0100
0110
0100
,  // measure 62
1001
0010
0001
0100
,  // measure 63
0010
0001
1000
0100
,  // measure 64
1000
0100
0100
0010
,  // measure 65
0010
0100
0001
0100
,  // measure 66
1001
1000
1000
0010
,  // measure 67
0010
0100
0001
0100
,  // measure 68
0100
0010
1000
0010
,  // measure 69
0010
0010
0010
0100
,  // measure 70
0100
0100
0100
0001
,  // measure 71
1000
0001
2000
0000
,  // measure 72
3010
0010
0000
0110
,  // measure 73
0001
0010
0001
0100
,  // measure 74
0010
0100
1000
0010
,  // measure 75
0100
0010
1000
0100
,  // measure 76
0100
0001
0001
0100
,  // measure 77
0010
1000
0100
0001
,  // measure 78
0100
1000
0010
0100
,  // measure 79
0100
0100
0100
0001
,  // measure 80
0010
0001
0010
0100
,  // measure 81
0100
0010
1000
0100
,  // measure 82
1000
0100
0001
0100
,  // measure 83
0010
0001
0010
0100
,  // measure 84
0010
1000
0010
1000
,  // measure 85
1000
0001
0001
0100
,  // measure 86
0010
1000
0010
0100
,  // measure 87
0100
0001
0001
0010
,  // measure 88
0100
0010
2002
0000
,  // measure 89
3003
0000
0000
0000
;
