#TITLE:Miniskirt;
#SUBTITLE:;
#ARTIST:AOA;
#TITLETRANSLIT:;
#SUBTITLETRANSLIT:;
#ARTISTTRANSLIT:;
#CREDIT:;
#BANNER:Miniskirt banner.png;
#BACKGROUND:Miniskirt bg.png;
#LYRICSPATH:;
#CDTITLE:;
#MUSIC:Miniskirt.mp3;
#OFFSET:-8.060;
#SAMPLESTART:47.720;
#SAMPLELENGTH:15.000;
#SELECTABLE:YES;
#BPMS:0.000=120.060;
#STOPS:;
#BGCHANGES:;

//---------------dance-single - ----------------
#NOTES:
     dance-single:
     :
     Hard:
     8:
     0.470,0.446,0.193,0.253,0.181:
1010
0000
0100
0002
0003
0000
0010
0000
,
0101
0000
0010
2000
3000
0000
0100
0000
,
0011
0000
1000
0200
0300
0000
0001
0000
,
0110
0000
0001
1000
0001
0000
0100
0010
,
0100
0000
0001
0000
1000
0100
0010
0001
0010
0000
0100
0000
0002
0000
0000
0000
,
0013
0000
1000
0100
0000
0100
0010
0002
,
0000
0000
0013
0000
0010
0000
0100
1000
0000
0000
1000
0000
0100
0000
0000
0010
,
0000
0000
0100
0000
0001
0000
0000
0010
0000
0000
0100
0000
0100
0000
0000
0000
,
1001
0000
0010
0000
1000
0000
0100
0000
0001
0000
0010
0000
0100
0000
0010
2000
,
0000
0000
0100
0000
3100
0000
0000
0010
0000
0000
0001
0000
1000
0000
0001
0000
,
0000
0100
0010
0100
0000
0001
0010
0100
,
0000
0000
1000
0000
0100
0000
0000
0000
0110
0000
0110
0000
0110
0000
1000
0001
,
1000
0000
0010
0000
0001
0200
0000
0000
0310
0000
0100
1000
0100
0000
0001
0010
,
0000
0100
0000
1000
0000
0000
1100
0000
0000
0000
0010
0000
0001
0000
1000
0000
,
0001
0000
0100
0010
0000
0020
0000
0000
0130
0000
0001
1000
0001
0000
0100
0010
,
0000
0010
0100
0000
0000
0000
1000
0000
0100
0000
0010
0000
0001
0000
0100
0000
,
0011
0000
0012
0000
0010
0010
0100
0100
,
0103
0000
2000
0000
0000
0100
0100
0010
,
3010
0001
1000
0010
0100
0001
1000
0100
,
0010
0000
0100
0001
0100
0000
1010
0010
,
0110
0000
0000
0000
1001
0000
0000
0000
0010
0000
0000
0100
0000
0000
0010
0000
,
0000
0000
1000
0000
0100
0000
0010
0000
0000
0000
0001
0000
0010
0100
0000
0100
,
0000
0000
1000
0000
0001
0000
0100
0010
0000
0000
1000
0000
1000
0001
0000
0010
,
0000
0000
1000
0000
0001
0000
0100
0010
0000
0000
0000
0000
0110
0000
1000
0000
,
1000
0000
0000
0000
0001
0000
0000
0000
0100
0000
0000
0010
0000
0000
0100
0000
,
0000
0000
0001
0000
1000
0000
0001
0000
0000
0000
0100
0000
0010
1000
0000
1000
,
0000
0000
0001
0000
0100
0000
0010
0002
0000
0000
0000
0000
0100
0000
0103
0000
,
0000
0000
0010
0000
1000
0000
0100
0000
0001
0000
0000
0001
0000
0000
0001
0000
,
0010
0100
0010
2000
3000
0100
0010
0002
,
0003
1000
0010
0100
1000
0010
0100
0000
,
0010
1000
0010
0002
0003
0100
0010
0200
,
0300
0001
0010
1000
0001
0010
0100
1000
,
0001
1000
0100
0020
0030
0100
1000
0020
,
0030
0100
0001
0010
1000
0100
0001
0000
,
0010
1000
0100
0002
0003
0010
1000
0200
,
0300
0001
1000
0010
0100
0001
0010
1000
,
0000
2002
0000
0000
0000
0000
0000
0000
,
3003
0000
0000
0000
;

//---------------dance-single - ----------------
#NOTES:
     dance-single:
     :
     Medium:
     7:
     0.364,0.327,0.072,0.000,0.000:
1001
0000
0010
0100
0000
0100
1000
0000
,
0110
0000
1000
0010
0000
0010
0001
0000
,
1100
0000
0010
0100
0000
0100
0010
0000
,
0001
0000
0010
0100
1000
0000
0010
0000
,
0100
0000
0001
0000
0010
0100
1000
0000
,
0010
0000
0100
0001
0000
0010
0100
0010
,
0000
1000
0001
1000
0000
0010
0010
0000
,
0100
0000
0001
0100
0000
0100
0010
0000
,
1000
0100
0010
0000
0100
0010
0001
0000
,
0010
0000
0100
0010
0000
0010
0100
0010
,
0000
0001
1000
0001
0000
0010
0100
1000
,
0000
0010
0010
0000
0100
0001
0100
0000
,
0010
0010
0010
0000
1000
0100
0010
0001
,
0010
0000
0010
0100
0000
0100
1000
0100
,
0010
0000
0100
0000
0010
0000
1000
1000
,
1000
0000
0001
0010
0100
0000
0010
0000
,
0100
0000
0010
1000
0000
1000
0010
0000
,
0100
0000
0001
0100
0000
0100
1000
0000
,
0010
0000
0100
0000
0001
0010
0001
0000
,
0110
0000
0010
1000
0010
0000
0100
0000
,
1001
0000
0010
0000
0001
0000
0100
0010
,
0100
0000
1000
0010
0000
0010
0100
0010
,
0001
0000
0010
0100
0010
0000
0100
1000
,
0100
0000
0010
0100
0010
0000
1000
0100
,
0010
0000
0010
0000
0100
0000
0001
0010
,
0100
0000
0010
0100
0000
0100
1000
0100
,
0010
0100
1000
0001
,
0010
0100
0010
0000
0001
1000
0001
0000
,
0001
0010
0100
1000
0000
0001
0010
0100
,
0000
0010
1000
0010
1000
0010
0010
0000
,
1000
0100
0010
0001
0000
1000
0100
0010
,
0000
0010
0001
0100
0001
0100
0001
0001
,
0010
0100
0010
0100
0000
0100
0010
0100
,
0000
0010
1000
0001
1000
0001
1000
0000
,
0010
0100
1000
0100
0000
0100
0010
0001
,
0000
0010
0010
0000
0100
0001
0100
0001
,
0000
1001
0000
0000
0000
0000
0000
0000
;

//---------------dance-single - ----------------
#NOTES:
     dance-single:
     :
     Easy:
     3:
     0.260,0.261,0.072,0.084,0.000: // measure 1
0010
0100
0100
0001
,  // measure 2
1000
0010
0010
0100
,  // measure 3
1000
0001
0001
0010
,  // measure 4
0100
0001
1000
0010
,  // measure 5
1001
1000
1000
1000
,  // measure 6
0010
0100
0001
0100
,  // measure 7
0010
0001
1000
0010
,  // measure 8
0100
0100
0010
0010
,  // measure 9
1001
0001
0001
0001
,  // measure 10
0010
0100
0010
1000
,  // measure 11
0010
0100
0001
1000
,  // measure 12
0010
0010
0100
0100
,  // measure 13
0001
0020
0030
0100
,  // measure 14
1000
1000
0010
0100
,  // measure 15
0010
2000
3000
0010
,  // measure 16
0010
0100
0001
0100
,  // measure 17
0010
0020
0000
0130
,  // measure 18
1000
2000
0000
0100
,  // measure 19
3100
0010
0100
0001
,  // measure 20
0220
0000
0330
1001
,  // measure 21
1001
0010
0100
0010
,  // measure 22
1000
0100
0010
0001
,  // measure 23
0100
0010
0010
0100
,  // measure 24
0001
0100
0100
0010
,  // measure 25
1000
0001
0010
1000
,  // measure 26
0001
0010
0100
1000
,  // measure 27
0010
0010
0200
0300
,  // measure 28
0001
0010
0100
0010
,  // measure 29
1000
0100
0010
0001
,  // measure 30
0100
0010
0100
0100
,  // measure 31
0001
0010
0100
1000
,  // measure 32
0010
0100
0010
0010
,  // measure 33
1000
0001
1000
0001
,  // measure 34
0010
0010
0001
0100
,  // measure 35
0010
1000
0010
1000
,  // measure 36
0100
0001
0100
0010
,  // measure 37
0000
1001
0000
0000
0000
0000
0000
0000
;
