#TITLE:MEMORIES;
#SUBTITLE:;
#ARTIST:GIRL CRUSH;
#TITLETRANSLIT:;
#SUBTITLETRANSLIT:;
#ARTISTTRANSLIT:;
#CREDIT:;
#BANNER:MEMORIES banner.png;
#BACKGROUND:MEMORIES bg.png;
#LYRICSPATH:;
#CDTITLE:;
#MUSIC:MEMORIES.mp3;
#OFFSET:-10.520;
#SAMPLESTART:66.460;
#SAMPLELENGTH:15.000;
#SELECTABLE:YES;
#BPMS:0.000=102.980;
#STOPS:92.000=1.740
,153.000=1.740
;
#BGCHANGES:;

//---------------dance-single - ----------------
#NOTES:
     dance-single:
     :
     Hard:
     9:
     0.551,0.465,0.152,0.040,0.584:
1001
0000
0000
0010
0100
0000
0001
0000
0100
0000
0000
0010
1000
0000
0100
0010
,
0100
0000
0000
0001
1000
0000
0100
0000
1000
0000
0000
0010
0100
0000
0001
0100
,
0001
0000
0000
0010
0100
0000
0010
0000
1000
0000
0000
0010
0100
0000
0001
1000
,
0001
0000
0000
1000
0010
0000
0100
0000
1000
0000
0000
0010
1000
0000
0010
0100
,
0010
0000
0000
0001
0010
0000
0100
0010
0000
0010
1000
0000
0100
0010
0001
0010
,
0100
0000
0000
0010
1000
0000
0100
0001
0000
0001
0100
0000
0010
1000
0100
0010
,
0001
0000
0000
0010
1000
0000
0100
1000
0000
1000
0100
0000
0010
0100
1000
0010
,
0100
0000
0000
0001
0100
0000
0010
1000
0000
1000
0010
0000
0100
0001
0100
0010
,
0100
0000
0001
0000
0101
0000
0010
1000
0010
0000
0100
0000
1000
0000
0010
0000
,
0101
0000
0000
0110
0000
0000
0100
1000
0000
1000
0100
0000
0010
0000
0100
0010
,
0100
0001
0100
0010
1000
0010
0000
0010
,
0100
0000
1000
0000
1100
0000
0010
0000
0100
0000
0001
0100
0001
0000
0010
0000
,
0100
0000
0010
1000
0000
1000
0010
0000
0200
0000
0000
0000
0310
0000
0001
0000
,
0100
0010
0000
0010
0000
0000
0001
0000
0010
0000
0100
0010
0100
0000
1000
0001
,
1000
0010
0001
0100
0010
1000
0000
0010
,
0010
0100
0101
0010
0100
0001
1000
0010
,
0100
0000
0001
0100
0000
0100
0010
0000
0010
0000
1000
0100
0000
0100
0010
0000
,
1000
0000
0001
1000
0000
1000
0001
0000
0110
0000
0000
0000
0002
0000
0013
0000
,
0100
0000
0010
1000
0000
0000
1000
0000
0010
0000
0100
1000
0000
0000
0001
0000
,
0100
0000
0010
1000
0000
1000
0010
0000
0101
0000
0010
0000
1000
0000
0001
0100
,
0010
1000
0100
0010
0200
0000
1300
0000
0001
0000
0100
0010
0100
0000
0000
0000
,
0001
0010
0100
1000
0100
0000
0010
0000
0100
0010
0001
0010
0100
0000
1000
1000
,
0100
0000
0010
0100
0000
0000
0100
0000
0001
0000
1000
0000
0010
0000
0100
0000
,
1001
0000
0000
0000
0110
0000
1000
0001
0000
0001
0010
0000
0100
0000
0010
0100
,
1000
0100
0010
0001
0010
0000
0100
0010
0000
0010
0001
0000
0110
0000
0100
0000
,
1100
0000
0010
0000
0100
0000
0001
0010
0000
0010
0100
0000
0010
0000
0100
1000
,
0000
1000
0100
0000
0010
0000
0100
0001
0000
0001
0100
0000
0010
0000
1000
0100
,
0010
0001
0010
0000
0110
0000
1000
0010
0000
0010
1000
0000
0100
0000
0001
0010
,
0100
1000
0100
0010
0100
0000
0001
0100
0000
0100
0010
1000
0010
0000
0100
0000
,
0001
0000
0100
0000
0010
0000
1000
0001
0000
0001
1000
0000
0010
0000
0100
0010
,
0000
0010
0100
0000
0001
0000
1000
0010
0000
0010
1000
0000
0100
0000
0001
0000
,
0010
0100
1000
0100
0010
0000
0001
0010
0000
0100
1000
0000
0010
0000
0001
0100
,
0001
0000
1000
0000
0010
0000
1000
0100
0000
0010
0001
0000
0010
0000
0100
1000
,
0010
0000
0001
0000
0110
0000
0000
1001
0000
0000
0010
0000
0100
0000
1000
0000
,
0010
0100
0002
0000
0013
0100
1000
0200
,
0000
0000
1000
0000
0310
0000
0100
0001
0000
0001
0100
0000
0010
0000
1000
0000
,
0100
0000
0010
0000
1000
0000
0010
0100
0000
0100
0010
0000
0001
0000
0010
0000
,
0100
0000
0010
0000
1010
0000
0100
0001
0000
0001
0100
0000
0010
0000
1000
0100
,
0001
0100
1000
0000
0010
0000
0000
0000
1001
0000
0010
0100
0000
0100
1000
0000
,
0100
0000
0010
0100
0010
0001
0010
1000
0010
0000
0100
0001
0000
0001
0100
0000
,
0010
0000
1000
0100
0010
0001
0010
0100
1000
0000
0010
0100
0000
1000
0100
0000
,
0010
0000
0100
0001
0100
0010
0100
0000
1000
0100
0010
0001
0010
0000
0010
0000
,
0100
0001
0010
0100
0010
0000
0010
0000
1001
0000
0001
0010
0000
0010
0100
0000
,
0010
0000
1000
0100
0010
0001
0010
0100
1000
0000
0100
0001
0000
0001
0100
0000
,
0010
0000
0100
0010
0001
0010
1000
0010
0100
0000
1000
0010
0000
0010
1000
0000
,
0100
0000
0001
0100
0010
1000
0100
0000
0001
0100
0010
1000
0100
0000
0100
0000
,
0001
0010
1000
0010
0001
0000
0010
0000
1001
0000
0000
0000
0000
0000
0000
0000
;

//---------------dance-single - ----------------
#NOTES:
     dance-single:
     :
     Medium:
     5:
     0.271,0.260,0.080,0.000,0.000:
1000
0100
0001
0100
,
0010
0001
1000
0010
,
0100
0001
1000
0010
,
0100
0000
1000
0000
0010
0000
0100
0100
,
0100
0001
0010
0100
,
0010
1000
0010
0100
,
0001
0100
0010
1000
,
0010
0100
0010
1000
,
0100
0000
0010
0000
1000
0001
1000
0000
,
0010
0000
0100
0001
0000
0001
0000
0010
,
0010
0000
0001
0000
0100
0000
0010
1000
,
0010
0100
1000
0010
,
0100
0100
0001
0100
,
0010
0000
1000
0001
1000
0000
0010
0000
,
0100
0000
1000
0000
0010
0010
0000
0100
,
0100
0001
0100
0010
,
0001
0010
0001
0000
0010
0100
0010
0000
,
0100
1000
0100
0000
0110
0000
0100
0000
,
1000
0100
1000
0000
0100
0010
0100
0000
,
0010
0001
0010
0000
0110
0000
0010
0000
,
0101
0000
0000
0010
0000
0010
0000
0000
,
0110
0000
0000
1000
0000
1000
0000
0000
,
0010
0000
0100
0000
0001
0100
0000
0100
,
0001
0000
1010
0000
0100
0010
0000
0010
,
0100
0000
0010
0000
0100
0001
0100
0000
,
0010
0000
1000
0000
0010
0100
0000
0100
,
1000
0000
0100
0000
0010
0001
0000
0010
,
0100
0010
0100
0000
0010
1000
0000
1000
,
0010
0000
0100
0000
0001
0100
0001
0000
,
0010
0000
0100
0000
0010
1000
0000
1000
,
0010
0000
1000
0001
1000
0001
0000
0010
,
0010
0010
0010
0000
0100
0000
0001
0000
,
1000
0010
1000
0000
0100
0000
1000
0000
,
0010
0100
0010
0000
0001
0000
0100
0000
,
0010
0001
0010
0000
0100
0010
0000
0010
,
0000
0010
0100
0000
0010
0000
1000
0100
,
0010
0001
0010
0000
0100
0000
0010
0000
,
1000
0100
0010
0000
0100
0010
0000
0010
,
0100
0000
1001
0000
0110
0000
0001
0010
,
0000
0010
0100
0000
0010
0000
1000
0010
,
0000
0010
0100
0000
0010
0000
1000
0100
,
0000
0100
0001
0000
0010
0100
0010
0100
,
0000
0100
0010
0000
1001
0000
0010
0100
,
0000
0100
0010
0000
1000
0000
0100
0001
,
0100
0000
0010
0000
0110
0000
0010
0100
,
0000
0100
1000
0000
0010
0100
1000
0100
,
0000
0010
0100
0110
0000
0000
0000
0000
;

//---------------dance-single - ----------------
#NOTES:
     dance-single:
     :
     Easy:
     3:
     0.244,0.242,0.104,0.184,0.000: // measure 1
0020
0000
0130
0100
,  // measure 2
0002
0000
0013
0010
,  // measure 3
2000
0000
3100
0100
,  // measure 4
0020
0000
0130
0100
,  // measure 5
0020
0100
1000
0100
,  // measure 6
2030
0100
0010
0100
,  // measure 7
3002
0010
0100
0010
,  // measure 8
0103
0010
1000
0001
,  // measure 9
0010
0110
0100
0100
,  // measure 10
0001
0100
0010
0000
,  // measure 11
1100
0100
0010
0100
,  // measure 12
0010
0010
0001
0010
,  // measure 13
0100
0010
0110
0001
,  // measure 14
1000
0100
0020
0130
,  // measure 15
0001
0001
0010
0010
,  // measure 16
0110
1000
0010
0100
,  // measure 17
2000
3100
0020
0130
,  // measure 18
0002
0013
0110
0010
,  // measure 19
2000
3001
0020
0031
,  // measure 20
0200
0310
1001
0010
,  // measure 21
1000
0000
1000
0000
,  // measure 22
0010
0000
0010
0000
,  // measure 23
0100
0100
0100
0100
,  // measure 24
0110
1001
0010
0001
,  // measure 25
0100
0010
1000
0010
,  // measure 26
0100
0020
0130
0001
,  // measure 27
0010
2000
3100
0010
,  // measure 28
0010
1001
0010
0001
,  // measure 29
0010
0100
0010
1000
,  // measure 30
0010
0200
0301
0010
,  // measure 31
0100
0002
0013
0100
,  // measure 32
1000
0010
0010
0100
,  // measure 33
0100
0001
1000
0010
,  // measure 34
0100
1000
2000
0000
,  // measure 35
3100
0010
0010
0001
,  // measure 36
0001
0100
0020
0130
,  // measure 37
0001
0100
0020
1030
,  // measure 38
0100
1000
1000
0010
,  // measure 39
0100
0110
1001
0010
,  // measure 40
0001
0100
0010
1000
,  // measure 41
0010
0100
0010
0100
,  // measure 42
1000
0010
0200
0001
,  // measure 43
1000
0301
1001
0100
,  // measure 44
1000
0010
0100
1000
,  // measure 45
0001
0100
0010
0100
,  // measure 46
0001
1000
0020
1000
,  // measure 47
0001
1030
1001
0000
;
