#TITLE:LUV;
#SUBTITLE:;
#ARTIST:Apink;
#TITLETRANSLIT:;
#SUBTITLETRANSLIT:;
#ARTISTTRANSLIT:;
#CREDIT:;
#BANNER:LUV banner.png;
#BACKGROUND:LUV bg.png;
#LYRICSPATH:;
#CDTITLE:;
#MUSIC:LUV.mp3;
#OFFSET:-10.580;
#SAMPLESTART:76.920;
#SAMPLELENGTH:15.000;
#SELECTABLE:YES;
#BPMS:0.000=103.980;
#STOPS:;
#BGCHANGES:;

//---------------dance-single - ----------------
#NOTES:
     dance-single:
     :
     Hard:
     7:
     0.431,0.413,0.157,0.150,0.094:
1001
0000
0100
0001
0010
0001
0100
1000
,
0001
0010
0100
1000
0100
0000
0010
0100
,
1000
0000
0100
0001
1000
0001
0100
0010
,
1000
0100
0010
0001
0010
0000
1000
0010
,
0200
0000
0310
0001
1000
0010
0010
1000
,
0100
0010
0001
0010
0100
0000
0001
0010
,
2000
0000
3000
0100
0010
0100
0001
0010
,
0000
1000
0001
2000
0000
3001
0000
0100
,
0010
1000
0001
0100
0020
0000
1030
0100
,
0011
0000
1001
0000
0010
1000
0010
0001
,
0100
0001
1000
0010
,
0100
0000
0100
0000
0000
0000
0010
0000
0000
0100
0000
0000
0010
0000
0001
0000
,
0001
1000
0100
0010
0001
0100
0010
1000
,
1000
0000
0010
0000
0100
0000
0001
2000
0000
0000
0000
0000
3100
0000
0100
0000
,
0001
1000
0001
0100
0010
0100
0001
1000
,
0000
0002
0000
0003
0010
0100
1000
0100
,
0010
1000
0001
0100
1000
0010
0100
0002
,
0000
0013
0100
2000
0000
3010
0010
0100
,
0010
0000
0000
0000
1000
0000
0000
0001
0010
0000
0100
0000
0010
0000
1000
0000
,
0010
0000
0100
0001
0100
0000
0010
0010
,
1000
0000
1001
0000
0010
0100
0001
0100
,
0000
0100
0001
2000
3100
0000
0010
0000
,
0100
1000
0100
0010
0001
0010
1000
0010
,
0010
0000
0100
0001
0001
0000
0010
1000
,
0010
0000
1001
0000
0010
1000
0010
0100
,
0000
0001
1000
0010
0001
0000
0100
0200
,
0000
0310
0001
0010
0100
1000
0100
0010
,
0110
0000
1100
0000
0011
0100
0010
1000
,
0002
0000
0000
0000
0010
0000
0000
0000
0013
0000
0000
0000
0010
0100
0001
1000
,
0010
0000
0000
0000
0100
0000
0001
1000
0000
1000
0010
0100
0010
0000
0001
0000
,
1000
0000
0100
0000
0010
0000
0001
0000
0010
0000
0000
0000
0001
0100
0010
1000
,
0010
0000
0000
0000
0100
0000
0010
0001
0000
0001
0010
0000
1000
0000
0100
0000
,
0001
0010
0100
1000
0100
0000
0010
1000
,
0002
0000
0000
0000
0013
0000
1000
0100
0000
0100
0010
0001
0010
0000
0100
0000
,
0010
0100
1000
0100
0010
0000
1000
0001
,
2000
0000
3010
0100
0001
0010
1000
0010
,
0000
0000
0100
0000
0001
0000
0100
0000
0000
0010
2000
0000
0000
0000
0100
0000
,
3100
0000
0001
0000
0010
0000
1000
0100
0000
0100
0000
0000
0010
0000
0001
0000
,
0110
0000
0000
0000
1001
0000
0000
0000
0010
1000
0100
0001
0100
0010
1000
0000
,
0010
1000
0001
0100
,
0001
0000
0110
0000
1000
0000
0110
0000
0000
0110
0000
0000
1001
0000
0000
0000
,
0020
0000
0130
1000
0200
0000
0301
0010
,
1000
0001
0100
0010
1000
0100
0001
0100
,
0002
0000
0013
0100
2000
0000
3010
0100
,
0011
0010
0110
0100
1100
0100
1001
0000
,
0200
0310
0001
1000
0010
1000
0100
0001
,
0010
0000
1000
0000
1000
0000
0010
0001
0000
0000
0100
0000
0110
0000
1000
0000
,
0100
0001
0100
0010
0100
1000
0100
0010
,
0000
1000
0001
0000
0000
0000
0100
0000
0001
0000
0010
0000
0100
0000
1000
0000
,
0100
0001
0010
1000
0010
0100
0001
1000
,
0110
0000
0000
0000
;

//---------------dance-single - ----------------
#NOTES:
     dance-single:
     :
     Medium:
     6:
     0.294,0.276,0.134,0.016,0.000:
0110
0000
0010
0000
0100
0000
0001
0010
,
0100
0100
0100
0100
0010
0000
1000
0000
,
1100
0000
0010
0000
0100
0000
0001
1000
,
0001
0001
0001
0001
0100
0000
0010
0000
,
0100
0000
0010
0000
1000
0000
0010
0100
,
1000
1000
1000
1000
0010
0000
0100
0001
,
0100
0010
1000
0010
,
0100
0100
0001
0100
,
0010
1000
0010
0000
0100
0000
0001
1000
,
1000
0000
0110
0000
1000
0010
0100
0000
,
0010
0100
0001
1000
,
0010
0100
0000
1000
0000
0001
0100
0000
,
0010
1000
0010
0100
,
0001
0000
0100
0010
0100
0000
0001
0000
,
0110
0001
0010
1000
,
0010
0000
0010
0000
0100
1000
0100
1000
,
0100
0010
0100
1000
,
0010
0000
0010
0000
0100
0000
0001
0100
,
0100
0000
0010
0000
1000
0000
0010
0100
,
0010
1000
0100
0001
,
0100
0000
0110
0000
0010
0001
0100
0000
,
0010
1000
0010
0100
,
1000
0010
0001
0000
0001
0010
1000
0000
,
0010
1000
0001
0100
,
0010
0000
0011
0000
0100
0010
0100
0000
,
0010
0000
1000
0100
0100
0000
0010
0000
,
0100
0001
1000
1000
,
0100
0010
0001
0100
,
0020
0000
0000
0000
0000
0030
0100
0000
,
0110
0000
1000
0000
0100
0000
0010
1000
,
0010
0010
0010
0010
0100
0000
0001
0100
,
0001
0000
0100
0000
0010
0000
1000
0001
,
0100
0100
0100
0100
0010
0000
1000
0100
,
0010
0000
1000
0000
0001
0000
0100
0010
,
1000
1000
1000
1000
0001
0000
0100
0010
,
0200
0000
0300
0000
0001
0010
0100
0000
,
0010
0000
1000
0010
0000
0010
0000
0000
,
0110
0000
1000
0001
0001
0000
0100
0010
,
0100
0000
1100
0000
0010
0100
0010
0000
,
1000
0100
0010
0001
,
0010
0100
0000
0001
0000
1000
0010
0000
,
1100
0100
0010
0100
,
0101
0010
0001
0100
,
0110
0010
1000
0001
,
1100
0110
0101
1001
,
0110
0100
0001
0100
,
0010
0000
1000
0010
0010
0000
0100
0000
,
0001
0000
1000
0000
0010
0100
0010
0000
,
1000
0000
0100
0000
0001
0100
0001
0000
,
0010
0100
0010
1000
,
0010
0000
0000
0000
;

//---------------dance-single - ----------------
#NOTES:
     dance-single:
     :
     Easy:
     3:
     0.236,0.256,0.110,0.079,0.000: // measure 1
1001
0010
0100
0001
,  // measure 2
0100
0100
0100
0010
,  // measure 3
1001
0100
0010
1000
,  // measure 4
0001
0001
0001
0010
,  // measure 5
0100
0010
1000
0010
,  // measure 6
1000
1000
1000
0010
,  // measure 7
0200
0300
0010
0010
,  // measure 8
0100
0001
1000
0010
,  // measure 9
1000
0100
0010
0001
,  // measure 10
0200
0300
0010
0010
,  // measure 11
0100
0001
1000
0010
,  // measure 12
0100
0100
0100
0110
,  // measure 13
1000
0100
1000
1000
,  // measure 14
0001
0100
0020
0030
,  // measure 15
1000
1000
0001
0100
,  // measure 16
0010
0010
0100
0001
,  // measure 17
1000
0010
0100
0010
,  // measure 18
2000
3000
0002
0003
,  // measure 19
0100
0100
0010
0010
,  // measure 20
1000
0001
0100
0000
,  // measure 21
0100
0110
0001
1000
,  // measure 22
1000
0010
0100
1000
,  // measure 23
0010
0010
0100
0100
,  // measure 24
0001
0000
0010
0000
,  // measure 25
0100
0011
0100
0100
,  // measure 26
0010
1000
0100
0001
,  // measure 27
0100
0100
0010
0010
,  // measure 28
1000
0100
0010
0001
,  // measure 29
0200
0000
0000
0310
,  // measure 30
1001
0010
0100
0001
,  // measure 31
1000
1000
1000
0010
,  // measure 32
0110
0001
0100
0010
,  // measure 33
0001
0001
0001
0010
,  // measure 34
0100
0010
1000
0010
,  // measure 35
0100
0100
0100
1000
,  // measure 36
0200
0300
0010
0010
,  // measure 37
0100
0001
1000
1000
,  // measure 38
0010
0100
0001
1000
,  // measure 39
0020
0030
0100
0100
,  // measure 40
0002
0003
0010
0100
,  // measure 41
1000
1000
1000
1001
,  // measure 42
0110
1000
0100
0001
,  // measure 43
0100
0001
0100
0010
,  // measure 44
1001
0010
0001
0100
,  // measure 45
1001
1001
1001
1001
,  // measure 46
0010
0100
0010
0001
,  // measure 47
0010
0010
0200
0300
,  // measure 48
0010
0010
0100
0001
,  // measure 49
1000
0000
0100
0010
,  // measure 50
0100
0010
0001
0100
,  // measure 51
0010
0000
0000
0000
;
