#TITLE:I Need You;
#SUBTITLE:;
#ARTIST:BESTie;
#TITLETRANSLIT:;
#SUBTITLETRANSLIT:;
#ARTISTTRANSLIT:;
#CREDIT:;
#BANNER:I Need You banner.png;
#BACKGROUND:I Need You bg.png;
#LYRICSPATH:;
#CDTITLE:;
#MUSIC:I Need You.mp3;
#OFFSET:-3.500;
#SAMPLESTART:45.340;
#SAMPLELENGTH:15.000;
#SELECTABLE:YES;
#BPMS:0.000=134.060;
#STOPS:;
#BGCHANGES:;

//---------------dance-single - ----------------
#NOTES:
     dance-single:
     :
     Hard:
     7:
     0.488,0.446,0.123,0.188,0.020:
0100
0010
0001
1000
0010
0000
0010
0100
,
1000
0100
0100
0002
0000
0000
0010
0000
,
0013
0100
1000
0100
0010
0000
0100
0001
,
0010
1000
0010
0100
0000
0100
0001
0100
,
0010
0000
0000
1000
0001
0000
0000
0100
,
0100
0000
0000
0010
1000
0100
0001
0100
,
0010
0000
0000
0001
1000
0000
0000
0010
,
0010
0000
0000
0100
0001
0000
0010
1000
,
0010
0100
1000
0010
0000
0010
0001
0010
,
0100
1000
0001
0001
0000
0010
1000
0100
,
1000
0010
0100
0001
0100
1000
0010
0100
,
0001
1000
0100
0010
0000
0010
0100
1000
,
0200
0000
0300
0001
0100
0000
0010
1000
,
0020
0000
0030
0100
1000
0100
0001
0010
,
0002
0000
0003
0100
0010
0000
1000
0001
,
2000
0000
3000
0010
0100
0000
1001
0000
,
0110
0001
1000
0001
0010
0100
1000
0010
,
0000
0100
1000
0100
0001
0010
0010
0010
,
0100
0000
0010
1000
0010
0000
0001
0100
,
0000
0100
1000
0010
0100
0010
0001
0010
,
0100
0000
0000
1000
0001
0000
0000
0000
0010
0000
0100
0000
0010
0000
0000
0000
,
0100
0000
0000
0001
1000
0000
0000
0000
0010
0000
0001
0000
0010
0000
0000
0000
,
0100
0000
0010
1000
0100
0010
0001
0010
,
0100
1000
0010
0100
0001
0100
0010
0100
,
1001
0010
0100
1000
0000
0100
0010
0100
,
0000
0010
0000
0100
0001
0010
1000
0010
,
0000
0100
0001
0100
0000
0010
1000
0010
,
0000
0101
0000
0010
0000
1000
0000
0010
,
0000
0100
1000
0100
0010
0000
0010
0100
,
0000
0001
0000
0100
0000
0010
0000
1000
,
0000
0010
0100
0001
0100
0000
0010
1000
,
0000
1000
0001
0010
0100
1000
0010
0001
,
0110
1000
0001
0010
0000
0100
1000
0100
,
0000
0010
0000
0100
0001
0010
1000
0010
,
0000
0100
0001
0100
0000
0010
1000
0010
,
0000
1010
0000
0100
0000
0010
0000
0001
,
0000
0010
0100
1000
0100
0010
0000
0010
,
0000
0100
0001
0010
1000
0010
0000
0100
,
1000
0101
0010
0110
,
1000
0000
0001
0000
0010
0000
0100
0000
0010
0000
0000
1000
0000
0000
0001
0000
,
2100
0000
0000
0010
0010
0000
0000
0100
,
3100
0000
0010
0010
,
0102
0000
0000
0010
0010
0000
0000
0100
,
0103
0000
0000
0000
1001
0000
0000
0010
,
0100
0000
1000
0100
0010
0000
0100
0010
,
0002
0000
0000
0000
0013
0000
0000
0100
,
1000
0000
0100
1000
0100
0000
0010
0100
,
0001
0000
1000
0000
0010
0000
0100
0000
0001
1000
0001
1000
0001
0000
0000
0000
,
1001
0000
0010
0100
1000
0000
0010
0001
,
0000
0001
0010
0100
0020
0000
0130
0000
,
1010
0000
0100
0000
1000
0000
0010
0100
,
0000
0100
1000
0100
0020
0000
0130
0000
,
0101
0010
1000
0010
0200
0300
0001
0100
,
0020
0030
0100
1000
0002
0003
0010
0000
,
0100
0010
0001
0010
0200
0300
1000
0100
,
2000
3000
0010
0100
0020
0030
0001
0000
,
1001
0010
0001
0010
0100
1000
0100
0010
,
0100
0001
0010
0100
0010
1000
0010
0000
,
1000
0001
0010
0100
0010
1000
0010
0100
,
1000
0010
0001
0010
0100
0010
0001
0000
,
0010
0100
1000
0100
0020
0030
0001
0100
,
2000
3000
0010
0100
0020
0030
0100
0000
,
0001
1000
0100
0010
0002
0003
0100
1000
,
0200
0300
0010
1000
0020
0030
0200
0000
,
0310
0000
0000
0000
;

//---------------dance-single - ----------------
#NOTES:
     dance-single:
     :
     Medium:
     5:
     0.399,0.393,0.229,0.107,0.000:
1000
0010
0100
0001
,
0100
0200
0300
0010
,
1001
0100
0100
0001
,
0100
0020
0030
0001
,
0110
0000
0000
1000
1000
0000
0000
0010
,
0010
0000
0000
0100
0100
0000
0001
0000
,
0110
0000
0000
0001
0001
0000
0000
0010
,
0010
0000
0000
0100
0100
0000
1001
0000
,
0010
0000
1000
0010
0000
0010
0100
0000
,
0001
0000
0100
0010
0000
0010
0001
0000
,
0010
0000
0100
0000
1000
0000
0010
0100
,
1000
0000
0010
0100
0000
0000
0001
0000
,
0110
0000
0000
0001
0001
0000
0010
0000
,
1100
0000
0000
0100
0100
0000
0010
0000
,
0110
0000
0000
1000
1000
0000
0001
0000
,
0110
0000
0000
0001
0100
0000
0010
0000
,
0001
0000
1000
0000
0010
0000
0100
0001
,
0000
0001
0100
0000
0010
0000
1000
0000
,
0010
0000
0100
0000
0001
0000
1000
0010
,
0000
0010
1000
0000
0010
0000
0100
0000
,
0011
0000
0011
0000
0100
1000
0100
0000
,
0110
0000
0110
0000
1000
0001
1000
0000
,
0010
0000
0001
0000
0100
0000
0010
1000
,
0000
0001
0000
0100
0010
0100
0010
0000
,
1001
0000
0100
1000
0000
1000
0100
0000
,
0011
0000
0100
0010
0000
0010
0100
0000
,
0011
0000
0010
0100
0000
0100
0010
0000
,
1001
0000
0100
1000
0000
1000
0100
0000
,
0010
0000
0100
0001
0100
0000
0010
0000
,
1000
0000
0001
0100
0001
0000
0010
0000
,
1000
0000
0100
1000
0100
0000
0010
0000
,
0100
0000
0010
0000
0100
0100
0100
0000
,
0010
1001
0010
0100
,
0001
0010
0100
0000
0010
0000
1000
0000
,
0010
1100
0010
0001
,
0100
0010
0100
0000
0001
0100
0001
0000
,
0010
0000
1000
0000
0010
0100
0000
0100
,
1000
0000
0100
0000
0001
0100
0000
0100
,
0001
0010
0100
1000
,
0010
0100
0010
0100
0010
0000
0010
0000
,
0012
0000
0003
0010
0020
0000
0030
0100
,
0200
0300
0001
0010
,
2000
0000
3000
0100
0200
0000
0300
0010
,
0020
0000
0030
0000
1001
0000
0000
0010
,
0020
0000
0030
0100
0200
0000
0300
0001
,
0002
0000
0003
0010
0110
0000
0000
1000
,
2000
0000
3000
0010
0020
0000
0030
0100
,
0100
0001
1000
0000
,
0110
0000
1000
0000
1000
0000
0001
0100
,
0000
0100
0010
0100
0010
0000
0001
0000
,
1001
0000
0010
0000
1000
0000
0010
0100
,
0000
0100
1000
0100
1000
0000
0001
0000
,
0010
0100
1000
0100
0010
0000
0001
0100
,
0001
0000
0010
1000
0010
0000
0100
0000
,
0010
0001
0010
0100
1000
0000
0010
0100
,
0010
0000
1000
0001
1000
0000
0010
0000
,
0100
0000
0101
0000
1010
0000
0001
0100
,
0000
0100
0010
0100
0010
0000
0001
0000
,
1000
0000
0011
0000
1100
0000
0010
0100
,
0000
0100
1000
0010
1000
0000
0010
0000
,
0100
0001
0100
0001
0100
0000
0010
1000
,
0010
0000
0100
0001
0100
0000
0010
0000
,
1000
0100
1000
0100
1000
0000
0010
0100
,
0010
0000
0001
1000
0001
0000
1000
0000
,
1001
0000
0000
0000
;

//---------------dance-single - ----------------
#NOTES:
     dance-single:
     :
     Easy:
     3:
     0.295,0.288,0.090,0.148,0.000: // measure 1
0010
0010
0100
0001
,  // measure 2
0100
0020
0030
1000
,  // measure 3
1000
0100
0001
0100
,  // measure 4
0010
2000
3000
0001
,  // measure 5
0001
0000
0010
0000
,  // measure 6
1000
0000
0010
0010
,  // measure 7
0100
0000
0001
0000
,  // measure 8
0100
0000
0010
1000
,  // measure 9
0010
0200
0300
0001
,  // measure 10
0100
0020
0030
0001
,  // measure 11
0010
0100
1000
0100
,  // measure 12
0010
0200
0300
0001
,  // measure 13
0010
0000
1000
0000
,  // measure 14
0010
0000
0100
0001
,  // measure 15
0100
0000
0010
0000
,  // measure 16
1000
0000
0010
0100
,  // measure 17
1000
0001
0010
0100
,  // measure 18
1000
0010
0100
0010
,  // measure 19
1000
0100
0010
0001
,  // measure 20
1000
0100
0010
0001
,  // measure 21
0010
0001
0100
0100
,  // measure 22
0010
1000
0010
0010
,  // measure 23
0100
0001
0100
0010
,  // measure 24
1000
1000
1000
0010
,  // measure 25
1001
0010
0001
0010
,  // measure 26
0100
0001
1000
0010
,  // measure 27
1001
0010
0100
1000
,  // measure 28
0010
0001
0100
0010
,  // measure 29
1000
0001
1000
0010
,  // measure 30
0100
0100
0010
0010
,  // measure 31
0001
0100
0010
1000
,  // measure 32
0010
0010
0100
0001
,  // measure 33
1010
0100
0001
0100
,  // measure 34
0010
1000
0001
0100
,  // measure 35
0011
0100
1000
0100
,  // measure 36
0010
0100
0001
0100
,  // measure 37
0010
0010
0100
0100
,  // measure 38
0001
0001
1000
1000
,  // measure 39
0020
0030
0200
0300
,  // measure 40
0001
0010
0100
1000
,  // measure 41
0020
0030
2000
3000
,  // measure 42
0002
0003
0000
0000
,  // measure 43
0020
0030
0002
0003
,  // measure 44
0200
0300
0010
0000
,  // measure 45
2000
3000
0020
0030
,  // measure 46
0200
0300
0001
0000
,  // measure 47
0020
0030
0002
0003
,  // measure 48
0100
0010
1000
0010
,  // measure 49
1001
0010
0010
0100
,  // measure 50
1000
0010
0100
0100
,  // measure 51
1001
0010
0010
0100
,  // measure 52
0001
1000
0010
0010
,  // measure 53
0001
0010
0100
1000
,  // measure 54
0001
0010
0100
1000
,  // measure 55
1000
0100
0010
0001
,  // measure 56
1000
0100
0010
0001
,  // measure 57
1000
0110
1001
0010
,  // measure 58
1000
0010
0001
0001
,  // measure 59
0010
0011
1100
0010
,  // measure 60
0001
0100
0010
0010
,  // measure 61
1000
0100
0010
0001
,  // measure 62
1000
0100
0010
0001
,  // measure 63
0001
0010
0100
1000
,  // measure 64
0001
0010
0100
1000
,  // measure 65
0110
0000
0000
0000
;
