#TITLE:I Am A Woman Too;
#SUBTITLE:;
#ARTIST:MINAH;
#TITLETRANSLIT:;
#SUBTITLETRANSLIT:;
#ARTISTTRANSLIT:;
#CREDIT:;
#BANNER:I Am A Woman Too banner.png;
#BACKGROUND:I Am A Woman Too bg.png;
#LYRICSPATH:;
#CDTITLE:;
#MUSIC:I Am A Woman Too.mp3;
#OFFSET:-3.240;
#SAMPLESTART:43.400;
#SAMPLELENGTH:15.000;
#SELECTABLE:YES;
#BPMS:0.000=94.000;
#STOPS:;
#BGCHANGES:;

//---------------dance-single - ----------------
#NOTES:
     dance-single:
     :
     Hard:
     7:
     0.394,0.342,0.182,0.077,0.045:
0010
0100
1000
0100
0001
0100
0010
1000
,
0100
0010
1000
0010
0200
0000
0310
0001
,
0010
0100
0010
0001
0010
1000
0100
1000
,
0100
0010
0100
0010
2000
0000
3100
0100
,
1000
0100
0010
0100
0010
0010
0001
0010
,
0100
0010
1000
0010
0100
0100
0010
0000
,
0100
0010
1100
0000
0010
0001
0110
0000
,
0001
0010
0100
1000
0100
0000
0010
0000
,
0200
0000
0001
0001
1000
0001
0301
0010
,
0010
0000
1000
0100
0010
0100
0010
0001
,
0020
0000
1000
1000
0001
1000
1030
0100
,
0010
0000
0100
0100
1000
0100
0010
0100
,
0011
0000
0110
0000
1100
0000
0010
0010
,
0100
0010
0000
0001
0000
0010
0100
1000
,
0110
0000
1001
0000
0110
0000
0010
0100
,
1000
0000
0100
0100
0100
0000
0010
0100
,
1001
0000
0010
0100
0010
0000
1000
0020
,
0000
0130
0000
0001
0001
0000
0010
0100
,
1001
0000
0100
0001
0100
0000
0001
2000
,
0000
3010
0000
0100
0000
0010
0100
1000
,
0100
0010
0100
0001
0100
0010
1000
0100
,
1000
0010
0100
0001
0100
0100
0010
1000
,
0110
0000
1000
0100
0010
0000
0001
0200
,
0000
0310
0000
0010
0000
1000
0100
0010
,
0001
0000
0010
0000
1000
0000
0010
0001
0000
0000
0010
0000
0100
0000
0100
0000
,
0010
0000
1000
0000
0010
0000
1000
0100
0000
0000
0010
0000
0110
0000
0000
0000
,
1000
0000
0010
0000
0100
0000
1000
0010
0000
0000
0100
0000
0010
0000
0100
0000
,
0001
0010
0100
1000
0100
0010
0001
0000
,
1010
0000
0100
0000
0010
0000
0100
1000
0000
0000
0010
0000
0001
0000
0010
0000
,
0100
0000
0001
0000
0100
0000
0010
1000
0000
0000
0010
0000
0110
0000
0000
0000
,
0010
0000
0100
0000
0001
0000
0100
0010
0000
0000
1000
0000
0100
0000
1000
0000
,
0010
0100
1000
0100
0010
0001
0100
0010
,
0200
0000
0000
0300
0001
0000
0000
0000
,
0010
0000
0000
0000
0100
1000
0100
0010
,
0002
0000
0000
0003
1000
0000
0000
0000
,
0001
0100
0010
0010
,
0100
0001
0100
0000
0010
1000
0010
0010
,
0100
0001
0100
0000
0010
1000
0100
0010
,
1001
0000
0010
0000
0100
0000
0001
0100
0000
0000
0010
0000
1000
0000
0010
0000
,
0100
0000
1000
0000
0010
0000
0100
0001
0000
0000
0010
0000
1001
0000
0000
0000
,
0010
0000
0100
0000
1000
0000
0100
0010
0000
0000
0100
0000
1000
0000
0100
0000
,
0010
0001
0100
0010
1000
0100
0010
0000
,
0110
0000
0001
0000
1000
0000
0010
0100
0000
0000
0001
0000
0100
0000
0010
0000
,
0100
0000
1000
0000
0010
0000
0100
0001
0000
0000
0010
0000
1001
0000
0000
0000
,
0100
0000
0001
0000
0100
0000
0010
1000
0000
0000
0100
0000
1000
0000
0100
0000
,
0010
0100
1000
0010
0100
0001
0200
0300
,
0011
0001
0011
0000
0010
0010
0010
0100
,
1000
0010
0100
0010
0001
0000
0100
0000
,
1010
1000
1010
0000
0100
0100
0100
0010
,
1000
0100
0001
0100
1000
0000
0010
0000
,
0110
0100
0110
0000
0001
0001
0001
0010
,
1000
0010
0100
0010
0100
0000
0010
0000
,
1001
1000
1001
0000
0010
0010
0010
0100
,
0100
0000
0001
0000
0010
0000
1000
0010
0000
0000
0100
0000
0010
0000
0200
0000
,
0000
0000
0000
0300
0000
0000
0000
0000
;

//---------------dance-single - ----------------
#NOTES:
     dance-single:
     :
     Medium:
     5:
     0.268,0.286,0.056,0.098,0.000:
0010
0000
0100
0000
0001
0010
0100
0000
,
0010
1000
0010
0010
,
0100
0001
0100
0000
0010
0000
0010
0000
,
1000
0000
0100
0000
0010
0000
1000
0100
,
1000
0000
0010
0000
0100
0000
0001
0010
,
0001
0100
1000
0010
,
0100
0001
0100
0000
0010
1000
0010
0000
,
0100
0000
0001
0010
0200
0000
0000
0300
,
0010
0000
1000
0000
0100
0000
0001
0010
,
0002
0000
0103
0100
,
0010
0000
1000
0000
0001
0010
0100
0010
,
0001
0100
0010
1000
,
0011
0110
1100
0010
,
0100
0200
0000
0300
0010
0000
0100
0000
,
1100
0000
0110
0000
0011
0000
0100
0100
,
0100
0010
2000
3010
,
1001
0000
0100
0001
0001
0000
0100
0100
,
0100
0010
0100
0001
,
0110
0000
0001
1000
1000
0000
0010
0010
,
0010
0100
0001
1000
,
0010
0000
0100
0000
1000
0000
0100
0010
,
0100
0000
0001
0000
1000
0000
0010
0001
,
0020
0000
0000
1030
1000
0000
0100
0000
,
1000
0100
0010
0001
,
1000
0000
0100
0000
0010
0001
0010
0000
,
0100
0000
0001
0000
0100
0010
0200
0000
,
0301
0000
0010
0000
1000
0010
1000
0000
,
0010
0010
0100
0001
,
0010
0000
0100
0000
1000
0100
1000
0000
,
0010
0000
0100
0000
0001
0010
0002
0000
,
0103
0000
0010
0000
1000
0001
1000
0000
,
0010
1000
0010
0100
,
0002
0000
0013
0000
,
2000
0000
3000
0000
,
0200
0000
0310
0000
,
1000
0000
0001
0001
,
0100
0000
0010
0000
1000
0000
0010
0010
,
0100
0001
1000
0001
,
0020
0000
0100
0000
0100
0100
0100
0000
,
1030
0000
0100
0000
0001
0010
0002
0000
,
0103
0000
0010
0000
1000
0100
1000
0000
,
0010
0100
0001
0100
,
0010
0000
0001
0000
1000
0001
1000
0000
,
0010
0000
0100
0000
1000
0010
2000
0000
,
3001
0000
0100
0000
0010
1000
0010
0000
,
0100
0001
0100
0010
,
1000
1000
1000
0000
0010
0010
0010
0000
,
0100
0000
0001
0100
0001
0000
0010
0000
,
1000
0001
1000
0000
0001
1000
0001
0000
,
0100
0010
1000
0001
,
0100
0100
0100
0000
0010
0010
0010
0000
,
0001
0100
0010
1000
,
0010
0100
1000
0000
0010
0100
1000
0000
,
0010
0000
0100
0000
0001
0000
1000
2000
,
0000
0000
3000
0000
;

//---------------dance-single - ----------------
#NOTES:
     dance-single:
     :
     Easy:
     2:
     0.205,0.208,0.028,0.000,0.000: // measure 1
0100
1000
0100
0010
,  // measure 2
0100
0001
0100
0000
,  // measure 3
0010
0010
0100
0100
,  // measure 4
0001
0010
0100
1000
,  // measure 5
1000
0100
0010
0100
,  // measure 6
0010
0001
0100
0010
,  // measure 7
0100
0100
0001
0001
,  // measure 8
0010
1000
0010
0000
,  // measure 9
0100
0100
1000
0100
,  // measure 10
0010
0000
0001
0010
,  // measure 11
0100
0010
0001
0100
,  // measure 12
0010
0000
1000
1000
,  // measure 13
0010
0100
0010
0100
,  // measure 14
0001
0001
0000
0010
,  // measure 15
0100
0100
0001
0001
,  // measure 16
0100
0000
0010
1000
,  // measure 17
1001
0010
0100
0001
,  // measure 18
0100
0100
0001
0001
,  // measure 19
1010
0100
0001
0100
,  // measure 20
0010
0010
1000
1000
,  // measure 21
0010
0100
0001
0010
,  // measure 22
1000
0010
0100
1000
,  // measure 23
0110
0001
0010
0100
,  // measure 24
0010
0010
1000
1000
,  // measure 25
0010
0100
0001
0100
,  // measure 26
0001
1000
0010
0100
,  // measure 27
1000
0010
0100
0010
,  // measure 28
1000
1000
1000
1000
,  // measure 29
0010
0100
0001
0100
,  // measure 30
0010
1000
0010
0100
,  // measure 31
0001
0100
0001
0010
,  // measure 32
0100
0100
0100
0100
,  // measure 33
0010
0000
0010
0000
,  // measure 34
1000
0000
0001
0000
,  // measure 35
0100
0000
0100
0000
,  // measure 36
0001
0001
0001
0010
,  // measure 37
0100
0100
0010
0010
,  // measure 38
1000
1000
0000
0010
,  // measure 39
0110
0001
0010
0010
,  // measure 40
1000
0010
0100
0100
,  // measure 41
0001
0100
0001
0001
,  // measure 42
0010
1000
0010
1000
,  // measure 43
0010
1000
0100
0100
,  // measure 44
1000
0010
0001
0001
,  // measure 45
0100
0010
1000
1000
,  // measure 46
0010
0010
0100
0100
,  // measure 47
0001
0001
0010
0010
,  // measure 48
0100
1000
0100
0000
,  // measure 49
0010
0010
1000
1000
,  // measure 50
0010
0100
0001
0000
,  // measure 51
1000
1000
0100
0100
,  // measure 52
0001
0100
0010
0000
,  // measure 53
0100
0100
0010
0010
,  // measure 54
0100
1000
0100
0010
,  // measure 55
0010
0000
0000
0000
;
