#TITLE:Hot Baby;
#SUBTITLE:;
#ARTIST:BESTie;
#TITLETRANSLIT:;
#SUBTITLETRANSLIT:;
#ARTISTTRANSLIT:;
#CREDIT:;
#BANNER:Hot Baby banner.png;
#BACKGROUND:Hot Baby bg.png;
#LYRICSPATH:;
#CDTITLE:;
#MUSIC:Hot Baby.mp3;
#OFFSET:-8.880;
#SAMPLESTART:63.220;
#SAMPLELENGTH:15.000;
#SELECTABLE:YES;
#BPMS:0.000=64.000,24.000=128.060;
#STOPS:;
#BGCHANGES:;

//---------------dance-single - ----------------
#NOTES:
     dance-single:
     :
     Hard:
     7:
     0.494,0.676,0.242,0.149,0.163:
0110
0000
0000
0001
0001
0000
0010
0100
,
2000
0000
3000
0001
0120
0000
0130
0100
,
1001
0000
0100
0010
0100
0000
0001
0010
0100
1000
0100
0010
0100
0000
0101
0000
,
1010
0000
0100
1000
0100
0000
0010
0100
0010
0001
0010
0100
0020
0000
1000
1000
,
1030
0100
0010
0001
0010
0000
0100
0010
0010
0100
1000
0100
0010
0001
0010
0200
,
0000
2300
0000
3000
0010
0100
0010
0000
0011
0000
1100
0000
0001
0000
0100
0010
,
1000
0000
0100
0001
0010
0000
0001
0010
,
1000
0000
0010
0000
0001
0000
0100
0001
0000
0000
0010
0000
1000
0000
0000
0000
,
0110
0000
1000
0001
1001
0000
0010
0100
,
0010
0000
1000
0000
0001
0000
0010
0100
0000
0000
0000
0000
0010
0000
1000
0000
,
0100
0010
0010
0001
2000
0000
3100
0100
,
0001
0100
1000
0010
1000
0002
0000
0010
,
0013
0000
1000
0000
0001
0000
0100
1000
,
0100
0010
0001
0010
0000
0020
0000
0030
,
0100
0001
1000
0010
0010
0100
0000
0100
,
1000
0001
0100
0020
0000
0100
0130
0000
,
0011
0100
0110
0010
1000
2000
0000
0100
,
3100
0010
0001
0020
0000
0031
1000
0001
,
0100
0010
0100
0000
0010
1000
1000
0010
,
0100
0000
0001
1000
0001
0000
0010
1000
,
0000
1000
0100
0010
0000
0010
0100
0000
,
1001
0000
0000
0000
0010
0000
0001
0000
1001
0000
0000
0000
0010
0100
0010
0000
,
0000
1000
0100
0010
0001
0000
1001
0000
,
0110
0020
0000
0130
1000
0100
0010
0000
,
0001
0201
0000
0310
1000
0010
0100
0000
,
1000
0010
0000
0010
0010
0100
0001
0000
,
0010
0100
1000
0100
0002
0000
0023
0000
,
0130
0000
0000
0001
0000
0000
0010
0000
1010
0000
0000
0100
0000
0000
0010
0000
,
1001
0000
0010
0100
0010
0000
1000
0100
,
0010
0001
0100
0001
0010
0100
0010
1000
,
0001
0010
1000
0010
0100
0000
0010
0000
,
1000
0100
0000
0000
0001
0010
0000
0000
0100
0010
0000
0000
0001
0000
1000
0000
,
0001
0010
0100
1000
0200
0000
0310
0000
,
0001
0010
0000
0000
0100
0010
0000
0000
1000
0100
0000
0000
0010
0000
0010
0000
,
1000
0100
0010
0001
0020
0000
0130
1000
,
0100
0000
0000
0010
0000
0000
0101
0000
0010
0000
0000
1000
0000
0000
0010
0000
,
0110
0000
0010
1000
1000
0000
0010
0100
,
1000
0001
0100
0010
1000
0010
0100
0010
,
0010
0000
0001
0010
0100
1000
0000
0010
,
0110
0000
0001
0010
1000
0010
0100
0001
,
0010
0100
1000
0010
0010
0000
0100
0001
,
0100
0000
1000
0010
0100
0001
0100
1000
,
0010
0100
0010
1000
0010
0000
0001
0000
,
0100
0000
0101
0000
0010
0000
0100
0000
0100
0000
0000
0000
0010
1000
0010
0000
,
0100
0000
1000
0000
0001
0000
1000
0000
0010
0000
0100
0020
0000
0000
0030
0000
,
0001
0101
0010
1001
,
0010
0110
1000
0110
1001
0000
0110
0000
,
1000
0001
0100
0010
1000
0100
0001
0100
,
1000
0100
0010
0001
0100
0010
0100
1000
,
0010
0100
0001
0010
0001
0100
0010
0000
,
1000
0100
0010
0001
0020
0000
0130
0000
,
0001
0000
0000
0010
0000
0000
1000
0000
0110
0000
0000
1000
0000
0000
0010
0000
,
0011
0000
0010
0100
0010
0000
1000
0010
,
0100
0001
0010
1000
0001
0010
0100
0010
,
1000
0010
0100
1000
0010
0000
0100
0000
,
0001
0100
0000
0000
0010
1000
0000
0000
0010
0100
0000
0000
0010
0000
1000
0000
,
0010
0001
0000
0000
0100
0010
0000
0000
1000
0000
0000
0000
0110
0000
0000
0000
,
1000
0001
0000
0000
0010
0100
0000
0000
0001
1000
0000
0000
0010
0000
0010
0000
,
0001
0010
0100
1000
0200
0000
0310
0010
,
1000
0000
0000
0101
0000
0000
0010
0000
0010
0000
0000
0101
0000
0000
0010
0000
,
1000
0000
0010
0100
0010
0000
0100
0001
,
0101
0000
0010
0000
1000
0000
0010
0100
,
1000
0000
0010
0100
1000
0100
0010
0001
,
0020
0000
0000
0030
0000
0000
0000
0000
;

//---------------dance-single - ----------------
#NOTES:
     dance-single:
     :
     Medium:
     5:
     0.343,0.358,0.142,0.114,0.000:
1000
0100
0001
0100
,
0010
0000
1000
0000
0020
0000
0130
0100
,
0001
0010
0100
0000
0010
0010
0100
0000
,
1000
0100
0010
0000
0100
0100
0001
0000
,
0010
0100
0020
0000
1030
0000
0010
0000
,
1000
0000
0001
0000
0100
0010
1000
0010
,
0100
0000
0001
0010
0100
0000
0010
0000
,
1000
0000
0010
0100
0000
0100
0010
0000
,
1000
0000
0001
1000
0001
0000
0100
0000
,
0010
0000
1000
0010
0000
0010
0100
0000
,
0100
0000
1000
0010
1000
0000
0100
0000
,
0001
0000
0010
0100
0010
0000
1000
0000
,
0001
0100
0010
1000
,
0010
0100
0010
0100
0000
0200
0000
0300
,
0001
1000
0010
0000
1000
0010
0100
0000
,
1000
0100
0010
0001
0000
0001
0010
0000
,
0100
0010
0100
0000
0001
1000
0010
0000
,
0100
0010
1000
0010
0000
0010
0100
0000
,
1100
0100
0110
0010
,
0100
0000
0001
0100
0010
0000
0100
0010
,
0000
1000
0000
0100
0000
0010
0100
0000
,
1001
0000
0010
0100
0100
0000
0010
0100
,
0000
1000
0100
0010
0001
0000
0110
0000
,
1001
0000
0010
0000
0001
0100
0010
0000
,
1000
0000
0100
0000
0010
1000
0010
0000
,
0100
0000
0001
0000
0010
0100
0100
0000
,
0010
1000
0010
1000
0010
0000
0010
0000
,
0100
0001
0100
0010
,
2000
3000
0010
0010
,
0100
0001
0100
0010
,
1000
0001
1000
0000
0010
0000
0010
0000
,
0101
0000
1001
0000
0101
0000
0010
0100
,
2000
3200
0320
0130
,
1010
0000
1100
0000
1010
0000
0100
0001
,
0200
0320
0032
1003
,
0010
0100
0001
1000
,
0020
0030
0100
0100
,
0010
0000
1000
0000
0100
0000
0001
0100
,
0001
0000
0000
0010
0000
0010
0000
0100
,
0010
0000
0001
0010
,
0100
0000
0010
1000
0010
0000
0100
0000
,
1000
0000
0100
1000
,
0010
0010
0001
0100
,
0010
0000
1000
0001
1000
0000
0010
0010
,
0100
0000
1000
0000
0010
0100
1000
0000
,
0001
0100
0010
1000
,
0001
1000
0001
1000
0001
0000
1001
0000
,
0110
0100
0000
0100
0001
0100
0010
0000
,
1000
0100
0000
0010
0100
0001
0100
0000
,
0010
1000
0000
0010
0100
0010
0001
0000
,
1000
0010
0100
0001
0100
0000
0100
0000
,
0010
1000
0001
0100
,
0020
0030
1000
0010
,
0100
0100
0001
1000
,
0010
1000
0100
0000
0010
0000
0010
0000
,
1100
0000
0011
0000
1100
0000
0010
0100
,
0001
0010
0100
1000
,
0011
0000
0110
0000
1100
0000
0010
0100
,
2000
3002
2003
3010
,
0100
0001
0100
0010
,
2000
3000
0010
0010
,
0100
0001
0100
0010
,
1000
0001
0000
0001
0000
0010
0000
0100
,
0110
0000
0000
0000
;

//---------------dance-single - ----------------
#NOTES:
     dance-single:
     :
     Easy:
     3:
     0.266,0.269,0.064,0.057,0.000: // measure 1
0010
0100
0010
1000
,  // measure 2
0010
0100
0002
0103
,  // measure 3
0110
0100
0010
1000
,  // measure 4
1001
0100
1000
0200
,  // measure 5
0310
0010
0100
0100
,  // measure 6
0001
0010
1000
0010
,  // measure 7
0100
0010
0010
1000
,  // measure 8
0100
0001
0100
1000
,  // measure 9
0010
0001
0001
0010
,  // measure 10
0100
0010
1000
0100
,  // measure 11
1000
1000
0010
0100
,  // measure 12
0001
0001
0100
0010
,  // measure 13
2000
3000
0100
0100
,  // measure 14
0010
1000
0001
0100
,  // measure 15
0010
0010
0100
0010
,  // measure 16
1000
0001
0200
0300
,  // measure 17
1000
1000
0010
0100
,  // measure 18
0001
0100
0010
0010
,  // measure 19
0100
0001
1000
0010
,  // measure 20
0100
1000
0001
0010
,  // measure 21
0100
0100
0001
0001
,  // measure 22
0110
0000
1010
0000
,  // measure 23
0100
0010
0010
0110
,  // measure 24
1001
0010
0100
1000
,  // measure 25
0010
0001
0100
0010
,  // measure 26
1000
0010
0100
0001
,  // measure 27
1000
1000
1000
0010
,  // measure 28
0100
1000
0100
0010
,  // measure 29
0001
0100
0010
0001
,  // measure 30
0100
0100
1000
1000
,  // measure 31
0010
0100
1000
0010
,  // measure 32
0100
0100
0100
0010
,  // measure 33
1000
0001
0100
0010
,  // measure 34
0001
0001
0001
0100
,  // measure 35
0010
0100
0010
1000
,  // measure 36
0010
0100
0001
0100
,  // measure 37
0020
0030
0100
0100
,  // measure 38
0010
1000
0100
0001
,  // measure 39
0100
0100
0010
1000
,  // measure 40
0020
0030
0100
0100
,  // measure 41
0010
1000
0010
1000
,  // measure 42
0002
0003
0100
0100
,  // measure 43
0010
1000
0100
1000
,  // measure 44
0010
0010
0010
0100
,  // measure 45
1000
1000
1000
0010
,  // measure 46
0100
1000
0001
0010
,  // measure 47
0100
0100
0100
1001
,  // measure 48
0110
0001
0100
0010
,  // measure 49
1000
0010
0100
1000
,  // measure 50
0010
0100
0001
0100
,  // measure 51
0010
0010
0010
0100
,  // measure 52
0010
1000
0100
0001
,  // measure 53
0100
0100
0010
0010
,  // measure 54
1000
0100
0001
0100
,  // measure 55
1000
1000
0001
0010
,  // measure 56
0100
0100
0100
0010
,  // measure 57
0001
0001
0001
0010
,  // measure 58
0100
0100
0100
0010
,  // measure 59
1000
0001
0100
0010
,  // measure 60
1000
1000
0001
0001
,  // measure 61
0100
0010
0100
1000
,  // measure 62
0010
0100
1000
0100
,  // measure 63
0020
0030
0100
0100
,  // measure 64
0110
0000
0000
0000
;
