#TITLE:HOBGOBLIN;
#SUBTITLE:;
#ARTIST:CLC;
#TITLETRANSLIT:;
#SUBTITLETRANSLIT:;
#ARTISTTRANSLIT:;
#CREDIT:;
#BANNER:HOBGOBLIN banner.png;
#BACKGROUND:HOBGOBLIN banner.png;
#LYRICSPATH:;
#CDTITLE:cdtitle.png;
#MUSIC:HOBGOBLIN.mp3;
#OFFSET:-12.000;
#SAMPLESTART:79.760;
#SAMPLELENGTH:15.000;
#SELECTABLE:YES;
#BPMS:0.000=170.020;
#STOPS:;
#BGCHANGES:;

//---------------dance-single - ----------------
#NOTES:
     dance-single:
     :
     Hard:
     9:
     0.681,0.700,0.526,0.235,0.025:
1001
2000
3000
0010
0100
0010
1000
1000
,
0101
0020
0030
0100
0001
1000
0010
0010
,
1100
0002
0003
0100
0010
1000
0100
0001
,
1100
0000
0110
0000
0011
0000
2002
3003
,
0110
2000
3000
0010
0100
0001
1000
1000
,
0011
0002
0003
1000
0010
1000
0100
0100
,
1001
2000
3000
0010
0100
1000
1000
0001
,
0110
0000
1100
0000
0110
0000
0001
0010
,
0110
0000
1000
0100
0100
0000
0001
0010
,
0100
0000
0010
0100
1000
0000
1001
0000
,
0100
0010
0010
0001
0010
0000
0010
0100
,
1000
1000
0100
0010
0001
0000
0010
0100
,
0110
0000
1000
0100
0011
0010
0100
1000
,
0010
0100
0010
0001
1000
0000
0110
0000
,
1000
0001
1000
1000
0001
0000
0010
0100
,
0010
0001
0010
1000
0010
0000
0110
0000
,
2000
3100
0000
0010
0000
0100
0000
0001
,
0110
1100
0110
1100
,
0001
0020
0000
0130
0000
0100
0000
0010
,
2000
3100
0001
0010
,
1100
0100
0000
0010
0000
0100
0000
0010
,
0011
0001
0000
0100
0000
0010
0000
0100
,
0001
0010
0100
0000
0010
0100
1000
0100
,
0010
0100
0010
0001
0100
0000
0010
0000
,
1000
0100
1000
0010
0001
0010
1000
0010
,
1000
0000
0010
0010
0110
0000
0001
0010
,
1100
0000
1100
0000
0010
0100
0001
0010
,
1000
0000
1000
0000
0002
0003
0200
0000
,
0310
0000
0100
0001
0010
0001
0100
0001
,
0100
0000
0010
1000
0001
0000
0110
0000
,
1000
0000
1000
0000
0200
0000
0310
0010
,
0000
0100
0100
0000
0001
0010
0100
1000
,
1002
0013
0010
1000
,
0100
0000
0001
0000
0100
0000
0010
0010
,
1000
0000
0100
0001
0100
0000
0010
1000
,
0010
0000
0100
0000
1000
0000
0010
0100
,
0010
0001
0010
0000
0100
0000
1000
0010
,
0100
0000
0100
0001
0100
0010
0100
0100
,
0000
1000
0001
1000
0010
1000
0100
2000
,
3000
0000
0110
0000
0010
0100
0001
0010
,
1100
0000
0110
0000
0011
0000
0010
0100
,
0001
0010
1000
0010
0100
0000
1000
0001
,
0011
0000
0110
0000
1100
0000
0010
1000
,
1000
0010
0001
0001
0100
0000
0010
0100
,
1000
0100
0010
0001
0100
0010
1000
0001
,
0100
1000
0100
1000
0010
0001
0100
0010
,
0001
1000
0001
1000
0001
1000
0001
1000
0001
1000
0100
0010
0001
0010
0100
0000
,
0000
0000
1000
0001
0100
0010
0100
0000
,
1001
0002
0003
0010
0100
0010
0010
1000
,
0101
2000
3000
0010
0100
1000
1000
0010
,
0110
0002
0003
0100
0010
1000
1000
0010
,
0101
0000
1010
0000
1001
0000
0020
0030
,
1100
0020
0030
0100
1000
0001
0001
0100
,
0011
0200
0300
0010
1000
0010
0010
0100
,
1001
0200
0300
0001
0100
0001
0001
1000
,
1100
0110
0011
0110
,
1001
0010
0100
0010
1000
0010
1000
0001
,
0100
0010
1000
0100
0010
0001
1000
0010
,
0100
0100
0001
0100
0010
0000
1000
0001
,
0010
0001
1000
0010
0100
0000
1001
0000
,
0110
0100
1000
0001
0100
0010
1000
0001
,
0010
0100
0001
0010
0100
1000
0010
0100
,
0001
0010
0001
1000
1000
0000
0010
0100
,
1000
0100
0010
0100
0100
0000
0011
0000
,
2000
0000
0100
0000
3100
0000
0010
0100
,
0000
0100
0000
0100
0001
0010
0100
0000
,
0002
0000
0010
0000
0013
0000
1000
0010
,
0000
0010
0000
0100
0001
0100
1000
0000
,
0110
0000
0010
0000
0100
0000
0001
1000
,
0000
1000
0010
1000
0010
0100
0001
0000
,
0010
0100
1000
0100
0010
0001
0010
0100
,
0000
0100
0000
0010
1000
0010
0100
0000
,
0000
0110
0000
1001
,
0101
0020
0130
1000
0100
0001
0001
0100
,
0110
2000
3100
0010
0100
0001
0001
1000
,
0011
0200
1300
0100
1000
0010
0010
0100
,
0011
1010
0011
1001
,
0110
2000
3100
0010
0001
0100
0100
0010
,
0101
0020
1030
0100
1000
0001
0001
0100
,
1001
2000
3100
0010
0100
0001
0001
0100
,
1010
1100
1010
1001
,
0010
0100
0001
0010
0001
0100
1000
0010
,
0100
0001
0100
1000
0100
0010
0100
0001
,
1100
0010
0100
0001
0100
0000
0010
1000
,
1000
0010
0100
0001
0100
0000
0100
0000
,
0001
0100
0010
1000
0010
0100
1000
0010
,
0001
0100
0010
1000
0100
1000
0010
0100
,
0011
0010
0100
1000
0100
0000
0010
0010
,
1000
0010
0100
0001
0100
0000
2002
0000
,
0000
0000
3003
0000
;

//---------------dance-single - ----------------
#NOTES:
     dance-single:
     :
     Medium:
     7:
     0.468,0.536,0.064,0.064,0.000:
0010
0010
0000
0100
0001
0010
1000
0100
,
0001
0001
0000
0010
0100
1000
0100
0010
,
1000
1000
0000
0010
0100
0001
0100
0010
,
0100
0001
0100
0010
,
0001
0001
0000
1000
0100
0010
0100
0010
,
1000
1000
0000
0100
0001
0100
0010
0100
,
0010
0010
0000
1000
0100
1000
0010
0100
,
0010
0000
0001
0000
0100
0000
0010
0100
,
0010
1000
0100
1000
,
0010
0000
0100
0100
0100
0000
0001
0000
,
0010
0100
0001
0100
,
0010
0000
1000
1000
1000
0000
0010
0100
,
0010
0001
0010
0100
,
0001
0100
0010
1000
,
0010
0100
0001
0100
0010
0000
0100
0000
,
1000
0000
0010
0100
1000
0000
0010
0000
,
0100
0001
0100
0001
,
1000
1000
0010
0100
,
0001
0100
0010
0001
,
0010
0010
0100
0000
,
0001
0100
0010
0010
,
1000
0010
0100
0100
,
0001
0010
1000
0100
,
0010
0000
0100
0000
0002
0000
0000
0003
,
0010
0000
0100
0000
1000
0000
0010
0100
,
0010
0000
1000
2000
0000
0000
0000
3000
,
0100
0000
0001
0000
0100
0000
0001
0010
,
0100
0100
0001
0001
,
0100
0010
1000
0010
,
0100
0000
0001
0010
0100
0000
0010
0000
,
1000
0000
0100
0000
0001
0000
0100
0010
,
0000
0010
0100
0000
0001
0010
0100
1000
,
0010
0100
0001
0100
,
0010
0000
1000
0000
0010
0000
0100
0010
,
0100
1000
0001
0010
,
0001
0100
0010
0001
,
0100
0010
0200
0000
0000
0000
0310
0000
,
0000
0000
0001
0000
0010
0000
0100
1000
,
0000
0000
0100
0000
1000
0000
0010
0100
,
0000
0000
0001
0000
0010
0100
0010
0100
,
0010
0010
0001
0010
,
0100
1000
0010
0100
,
0010
0010
1000
1000
,
0010
0100
0001
0100
,
0010
1000
0010
0100
,
0010
1000
0010
0010
,
0100
0001
0100
0100
,
0000
0000
0000
0000
,
0010
0020
0030
0100
0001
0100
1000
0010
,
0100
0200
0300
0010
0001
0100
0010
1000
,
0001
0002
0003
0010
0100
1000
0100
0010
,
1100
0110
0011
0110
,
1000
2000
3000
0100
0010
0100
0001
0010
,
0001
0002
0003
0010
0100
0010
1000
0010
,
0100
0200
0300
0001
0010
1000
0010
0100
,
0110
1001
0110
0011
,
0010
0000
0100
0000
1000
0000
0010
0100
,
0010
0001
0100
0010
,
1000
0100
1000
0100
0010
0000
0100
0000
,
0010
0000
0100
0010
0100
0000
0001
0000
,
0010
0000
1000
0000
0010
0000
0001
0010
,
0001
0000
0100
0000
0010
0000
1000
0100
,
1000
0100
0010
0100
0010
0000
0100
0000
,
0001
0010
0100
1000
0100
0000
0010
0000
,
1000
0000
1000
0000
0100
0000
0010
0100
,
0000
0100
0000
0100
0001
0100
0001
0000
,
0010
0000
0100
0000
0001
0000
1000
0010
,
0000
0010
0000
0010
0100
0010
0100
0000
,
0001
0000
0100
0000
0010
0000
1000
0010
,
0000
0100
0000
1000
0100
0010
0001
0000
,
0010
0000
0010
0000
0100
0000
0100
0001
,
0000
0001
0000
0010
0100
0010
0100
0000
,
0000
0000
0000
0010
,
1000
0100
0010
0100
0001
0100
0010
0100
,
0001
0010
1000
0010
0100
0010
0001
0100
,
0010
1000
0010
0100
0010
0001
0100
0010
,
0100
0001
0100
0010
,
1000
0100
0010
0001
0100
0010
1000
0100
,
1000
0010
0100
0001
0100
0010
0100
0001
,
0100
1000
0010
0100
0010
1000
0001
0100
,
0010
0100
0001
0100
,
0010
1000
0010
0100
,
1000
0010
0001
0100
,
1000
0100
1000
0100
0010
0000
0001
0000
,
0100
0001
0100
0010
,
0010
0100
0001
0100
,
0010
1000
0100
0010
,
0001
0010
0001
0010
0100
0000
0010
0000
,
1000
0010
0100
0110
;

//---------------dance-single - ----------------
#NOTES:
     dance-single:
     :
     Easy:
     5:
     0.359,0.347,0.071,0.036,0.000: // measure 1
1000
0100
0010
0010
,  // measure 2
0100
0001
0010
0010
,  // measure 3
0001
0010
0100
0010
,  // measure 4
1000
0001
1000
1001
,  // measure 5
0010
0100
0010
0010
,  // measure 6
1000
0001
0100
0100
,  // measure 7
0001
0010
0100
0100
,  // measure 8
0010
1000
0010
0010
,  // measure 9
1000
0001
1000
0001
,  // measure 10
0100
0010
0200
0300
,  // measure 11
0001
0010
0001
0010
,  // measure 12
0100
0010
0100
0001
,  // measure 13
0001
0010
0100
0010
,  // measure 14
1000
0100
1000
0010
,  // measure 15
0100
1000
0100
0010
,  // measure 16
0001
0100
0020
0130
,  // measure 17
1000
1000
0100
0010
,  // measure 18
0100
0002
0000
0003
,  // measure 19
0010
0010
0001
0010
,  // measure 20
0100
1000
0100
0000
,  // measure 21
0010
0010
0100
0100
,  // measure 22
0010
1000
0010
1000
,  // measure 23
0001
0010
0100
1000
,  // measure 24
0100
0010
0200
0300
,  // measure 25
0010
1000
0100
1000
,  // measure 26
0100
0010
0001
0000
,  // measure 27
0010
0100
0010
1000
,  // measure 28
0010
0010
0100
0100
,  // measure 29
0001
0010
0001
0100
,  // measure 30
0010
1000
0010
0100
,  // measure 31
1000
0000
0010
0000
0100
0000
0010
0010
,  // measure 32
0000
0010
0010
0000
0001
0000
1000
0000
,  // measure 33
0010
0010
0100
0001
,  // measure 34
0100
0010
1000
0010
,  // measure 35
0100
0001
0010
0001
,  // measure 36
0010
0100
1000
0010
,  // measure 37
0200
0000
0000
0310
,  // measure 38
0000
0010
0100
0010
,  // measure 39
1000
0100
0001
0100
,  // measure 40
0000
0010
0001
0010
,  // measure 41
0100
0100
0010
0010
,  // measure 42
1000
0100
0010
0001
,  // measure 43
0001
0001
1000
1000
,  // measure 44
0001
0010
0100
1000
,  // measure 45
0010
0100
0010
0100
,  // measure 46
1000
0100
0010
0001
,  // measure 47
0000
0001
0010
0100
,  // measure 48
0000
0100
0100
0100
,  // measure 49
0010
0100
1000
1000
,  // measure 50
0100
0010
0001
0001
,  // measure 51
0010
0100
0010
0010
,  // measure 52
1000
0001
1000
1001
,  // measure 53
0010
0100
0001
0001
,  // measure 54
0010
1000
0100
0100
,  // measure 55
0001
1000
0100
0100
,  // measure 56
0010
1000
0010
0110
,  // measure 57
1000
1000
0100
0010
,  // measure 58
0100
0010
0100
0001
,  // measure 59
0010
0010
0010
0100
,  // measure 60
1000
0100
0010
0000
,  // measure 61
0010
0100
1000
0100
,  // measure 62
0010
0100
0001
0100
,  // measure 63
0001
0001
0001
0100
,  // measure 64
1000
0010
0100
0000
,  // measure 65
0010
0010
0100
0001
,  // measure 66
0100
0010
0100
0100
,  // measure 67
0010
1000
0010
0100
,  // measure 68
0001
1000
0100
0100
,  // measure 69
0010
0100
0001
0100
,  // measure 70
0010
0100
0001
0100
,  // measure 71
0010
0010
0100
0010
,  // measure 72
0100
0010
0100
0100
,  // measure 73
0000
0000
0000
0000
,  // measure 74
0110
1000
0010
0100
,  // measure 75
0011
0100
1000
0100
,  // measure 76
1010
0100
1000
0010
,  // measure 77
0100
0100
0010
0100
,  // measure 78
0011
0100
0010
1000
,  // measure 79
0101
0010
1000
0100
,  // measure 80
1100
0010
0100
0001
,  // measure 81
1000
0100
0010
0001
,  // measure 82
0100
0100
0010
1000
,  // measure 83
0010
0100
0001
0001
,  // measure 84
0010
0100
0010
1000
,  // measure 85
0010
0010
0100
0000
,  // measure 86
0010
0001
0100
0010
,  // measure 87
1000
0100
1000
0010
,  // measure 88
0100
0100
1000
0100
,  // measure 89
0010
0100
0001
0110
;
