#TITLE:Gotta Go;
#SUBTITLE:;
#ARTIST:CHUNG HA;
#TITLETRANSLIT:;
#SUBTITLETRANSLIT:;
#ARTISTTRANSLIT:;
#CREDIT:;
#BANNER:gogotta banner.png;
#BACKGROUND:gogotta bg.png;
#LYRICSPATH:;
#CDTITLE:;
#MUSIC:gogotta.mp3;
#OFFSET:-6.860;
#SAMPLESTART:44.780;
#SAMPLELENGTH:15.000;
#SELECTABLE:YES;
#BPMS:0.000=102.000;
#STOPS:63.750=1.760
,160.500=1.760
;
#BGCHANGES:0.000=gogotta.avi=1.000=0=0=1,
99999=-nosongbg-=1.000=0=0=0 // don't automatically add -songbackground-
;

//---------------dance-single - ----------------
#NOTES:
     dance-single:
     :
     Hard:
     9:
     0.546,0.487,0.297,0.187,0.467:
0000
0000
0000
0000
,
1000
0000
0010
0100
0000
0100
0001
0100
0010
0000
1000
0000
0010
0000
0001
0000
,
0100
0000
0010
1000
0000
0100
1000
0100
0010
0000
0001
0000
0110
0000
0000
0000
,
1000
0100
0010
0001
0000
0001
0010
0000
0110
0000
0000
0000
0010
0000
1000
0000
,
0020
0230
0302
2003
,
3100
0000
0010
0200
0000
0000
0301
0010
0001
0000
0010
0000
1000
0000
0010
0000
,
0100
0000
0001
2000
0000
0000
3010
0100
0010
0000
0100
0000
0100
0000
0000
0000
,
0001
0010
0100
1000
0000
1000
0100
0000
0010
0000
0000
0000
0011
0000
0110
0000
,
0100
1100
0100
0110
1001
0000
0010
0100
,
0011
0000
1000
0010
0000
0010
0000
0100
0000
0010
0000
0200
0000
0000
0301
0000
,
0010
0100
1000
0100
0000
0001
0000
0100
0000
0001
0000
0020
0000
0000
0130
0000
,
1000
0000
0010
0100
1000
0010
0000
0010
0000
0000
0100
0000
0001
0000
0100
0000
,
0000
0000
1000
0000
0010
0000
0001
0000
0010
0000
0100
0010
0100
0000
0010
0000
,
0011
0000
0010
0100
0000
0100
0000
0100
1000
0000
0100
0010
0000
0010
0000
0010
,
0100
0000
0001
1000
0000
1000
0001
1000
0000
0000
0010
0000
0010
0000
0100
0000
,
0001
0000
1000
0010
1000
0000
0100
0010
0100
0000
0001
1000
0000
1000
0100
0010
,
1000
0000
0000
0000
1001
0000
0000
0000
0010
0000
0001
0100
0001
0000
0010
0100
,
0010
0000
1000
0100
0010
0000
0000
0000
1010
0000
0100
0001
0100
0000
0010
1000
,
0010
0000
0100
0001
0100
0000
0000
0000
0011
0000
0010
1000
0100
0000
0001
0100
,
0010
0000
0100
1000
0010
0000
0100
0001
0010
0000
0100
0000
1000
0000
0000
0010
,
0000
0000
1000
0000
0110
0000
0000
0000
0001
0000
0010
0100
1000
0000
0010
0100
,
0001
0000
0010
1000
0001
0000
0010
0100
0010
0000
1000
0000
0001
0000
0000
0100
,
0000
0010
0010
0100
1000
0001
0010
0100
,
1000
0000
0000
0010
0000
0000
1100
0000
0000
0100
0000
0000
0110
0000
0000
0010
0000
0000
0001
0000
0010
0000
0100
0000
,
1001
0000
0000
0000
0120
0000
0000
0000
1030
0000
0010
0000
0000
0000
0010
0100
,
0010
0000
0001
0000
0010
0000
1000
0001
0000
0001
0000
0020
0000
0000
0130
0000
,
0001
0000
1000
0000
0010
0000
0100
1000
0000
1000
0000
0010
0100
0000
0010
0000
,
0120
0000
0030
0000
1000
0001
0100
0000
0010
0001
1000
0000
0110
0000
0010
0000
,
1001
0000
1001
0000
0110
0000
0000
0000
1000
0000
0001
0000
0000
0000
0010
1000
,
0010
0000
0100
0000
0001
0000
0100
0010
0000
0001
0000
0020
0000
0000
0130
0000
,
1000
0000
0001
0000
1000
0000
0010
0100
0000
1000
0000
0200
0000
0000
0310
0000
,
0001
0000
0001
0000
1000
0010
1000
0000
0100
0001
0100
0000
0010
0000
0000
0000
,
1001
0000
1001
0000
0010
0000
0001
0010
0200
0000
0000
0000
1300
0000
0010
1000
,
0010
0000
0000
0100
0000
0000
0001
0000
1000
0000
0010
0000
0200
0000
0000
0000
0000
0000
0301
0000
0010
0000
0100
0000
,
1000
0000
0100
0000
0001
0000
0000
0001
0020
0000
0000
0000
0100
0000
0000
0000
,
1000
0000
1000
0000
0030
0000
0100
0000
0001
0000
1000
0000
0010
0000
0000
0010
,
0000
0000
0100
0000
0011
0000
1000
0100
2000
0000
0000
0000
3100
0000
0010
0100
,
0010
0000
1000
0000
0001
0000
0100
0010
0002
0000
0000
0000
0013
0000
0100
1000
,
0100
0000
0010
0100
0010
0000
0100
0000
0001
0010
0200
0000
0000
0000
0310
0000
,
0000
1000
0011
0010
0110
1000
0110
1100
,
0110
0000
2001
0000
3100
0000
0000
0000
1100
0000
0000
0000
0010
0000
0100
0001
,
0100
0000
0010
1000
0010
0000
0100
0001
0200
0000
0300
0000
1010
0000
0100
0001
,
0100
0000
0010
0001
0010
0000
0001
0100
0002
0000
0003
0000
0110
0000
0010
1000
,
0100
0000
0001
0010
0001
0000
0100
0010
1000
0000
0010
0000
0100
0000
0001
0010
,
0100
0000
1000
0000
0010
0000
0100
0000
0102
0000
0003
0000
0010
0000
1000
0100
,
1000
0000
0010
0100
1000
0000
0010
0001
0200
0000
0300
0000
0011
0000
0100
0001
,
1000
0000
0010
0100
1000
0000
0010
0001
0200
0000
0300
0000
1010
0000
0100
0001
,
0100
0000
0010
1000
0010
0000
0100
0001
0010
0000
1000
0100
0010
0000
0100
0010
,
0001
0000
0000
0001
0000
0000
0010
0000
0110
0000
0000
0000
1001
0000
0010
0100
,
1000
0000
0100
0010
0001
0000
0010
0100
0010
0000
1000
0100
0001
0000
0001
0100
,
1000
0000
0000
1000
0000
0000
0010
0000
0120
0000
0030
0000
1000
0000
0100
0010
,
0001
0000
0010
0100
1000
0000
0010
0001
0100
0000
0010
0001
0010
0000
0100
0000
,
0010
0000
0000
1000
0000
0000
0010
0000
1002
0000
0003
0000
0100
0000
0010
0100
,
1000
0000
0010
0001
0010
0000
0100
0010
0100
0000
0001
0010
0100
0000
0010
0000
,
1000
0000
0000
0001
0000
0000
1000
0000
0010
0000
0100
0000
0001
0000
0100
0000
,
0010
0000
1000
0000
0010
0000
0001
0000
0010
1000
0010
0000
0100
0010
0100
0000
,
0010
0000
1001
1001
0000
0000
0000
0000
;

//---------------dance-single - ----------------
#NOTES:
     dance-single:
     :
     Medium:
     7:
     0.346,0.312,0.131,0.055,0.000:
0000
0000
0000
0000
,
1000
0100
0010
0000
0010
0100
0001
0100
,
0010
0001
0010
0000
0100
0010
0100
0000
,
0010
0000
1000
0010
0000
0010
0001
0010
,
0200
2300
3020
0032
,
0013
0010
0000
0100
0100
0001
1000
0010
,
0100
0100
0000
1000
1000
0001
0100
0000
,
0010
0001
0100
0010
0100
0000
0010
1000
,
0010
0010
0001
0010
0100
0000
0100
0000
,
1001
0000
0010
0000
0100
1000
0100
0000
,
0010
0100
0100
0000
0001
0100
0010
0000
,
0001
0000
1000
0000
0010
0100
1000
0100
,
0000
0100
0001
0100
0010
0100
0010
0000
,
0001
0001
0010
0010
0100
0100
1000
1000
,
0010
0100
0010
0100
0010
0000
1000
0000
,
0100
0001
0100
0010
1000
0010
0100
0001
,
0000
0000
0110
0000
1000
0000
0100
0010
,
0001
0010
0100
0000
0001
0000
0010
1000
,
0100
0010
0001
0000
0100
0000
0010
0100
,
0010
1000
0010
0000
0100
0000
0010
0000
,
0110
0000
1001
0000
0010
0000
0001
0100
,
1000
0100
0010
0000
0100
0000
0010
1000
,
0100
0010
0001
0000
0010
0000
0001
0010
,
0100
0001
0100
0000
0010
0000
0100
0100
,
0010
0000
1001
0000
1000
0100
0000
0100
,
0010
0000
0001
0000
0100
0001
0000
0001
,
0100
0000
0010
0000
0100
0001
0000
0001
,
0010
0000
1000
1000
0100
0100
0010
0000
,
0110
0110
0001
0000
0010
0100
0000
0100
,
0010
0000
1000
0000
0010
0100
0000
0100
,
1000
0000
0010
0000
0100
0001
0000
0100
,
0001
0000
0010
0010
0100
0100
0010
0000
,
1001
1001
0010
0000
0200
0000
0310
0001
,
0010
0000
1000
0000
0020
0000
0130
1000
,
0100
0010
0100
0001
,
0100
0100
0010
0000
0001
0000
1000
0000
,
0010
0000
0100
0000
2100
0000
3010
0001
,
0010
0000
0100
0000
0012
0000
0013
0100
,
0010
0000
0010
0000
1000
0001
0000
0001
,
0000
0010
0100
0010
1000
0100
0010
0100
,
0010
0100
0000
0000
0110
0000
1000
0000
,
0001
1000
0100
0010
0001
0000
0100
0000
,
0010
0100
1000
0100
0010
0000
0001
0000
,
0100
0010
0001
0010
0100
0000
0010
0000
,
1000
0100
0010
0100
0010
0000
1000
0000
,
0001
0100
0001
0100
0010
0000
0001
0000
,
0100
0010
1000
0100
0010
0000
0100
0000
,
0001
1000
0100
0010
0100
0000
0001
0000
,
0100
0000
0100
0100
0010
0000
1001
0000
,
0010
0100
0001
0100
0010
0000
0100
0000
,
1000
0010
1000
0100
0001
0000
0110
0000
,
0001
0010
0100
0001
0100
0010
1000
0010
,
0100
0100
1000
0100
0010
0000
0101
0000
,
0010
1000
0010
1000
0010
0000
1100
0000
,
0010
0001
0010
0001
0010
0000
1001
0000
,
0010
0100
0010
0100
0001
0001
0010
0010
,
0100
0000
1001
1001
0000
0000
0000
0000
;

//---------------dance-single - ----------------
#NOTES:
     dance-single:
     :
     Easy:
     4:
     0.260,0.272,0.208,0.104,0.000: // measure 1
0000
0000
0000
0000
,  // measure 2
0010
0100
0001
0001
,  // measure 3
0010
1000
0100
0100
,  // measure 4
0010
0100
0020
0031
,  // measure 5
0020
0230
2300
3002
,  // measure 6
0103
0200
0310
1000
,  // measure 7
0001
0002
0013
0100
,  // measure 8
1000
0100
0010
0001
,  // measure 9
0100
0010
0100
0100
,  // measure 10
0011
0010
0100
1000
,  // measure 11
1100
0010
0100
0010
,  // measure 12
1001
0010
0001
0100
,  // measure 13
0010
0010
0010
0010
,  // measure 14
0001
0001
0010
0010
,  // measure 15
0100
0100
0010
0000
,  // measure 16
0010
1000
0010
0100
,  // measure 17
0000
0110
1000
0001
,  // measure 18
0001
0110
0001
1000
,  // measure 19
1000
0011
0100
1000
,  // measure 20
1000
0110
1000
0100
,  // measure 21
0100
0011
0100
0001
,  // measure 22
0001
1001
0010
0100
,  // measure 23
0100
1010
0100
0001
,  // measure 24
0001
0010
0100
1000
,  // measure 25
0100
0000
1001
0000
0010
0010
0000
0000
,  // measure 26
1100
0000
0010
0000
1000
1000
0000
0000
,  // measure 27
0011
0100
0010
1000
,  // measure 28
1000
0001
0010
0100
,  // measure 29
1000
0000
0110
0000
0001
0001
0000
0000
,  // measure 30
1010
0000
0100
0000
1000
1000
0000
0000
,  // measure 31
0110
0000
0100
0000
0001
0001
0000
0010
,  // measure 32
0010
1000
0100
0010
,  // measure 33
0001
0110
2000
3100
,  // measure 34
0010
0001
0200
0310
,  // measure 35
0001
0020
0000
0030
,  // measure 36
0100
0001
0010
0001
,  // measure 37
0001
0010
0200
0310
,  // measure 38
0001
1000
0020
0130
,  // measure 39
1000
0002
0023
0230
,  // measure 40
0310
1000
0001
1000
,  // measure 41
0001
0000
0110
1000
,  // measure 42
0100
0100
0011
0010
,  // measure 43
0100
0100
1010
0100
,  // measure 44
0001
0001
0010
1000
,  // measure 45
0010
0100
0101
0010
,  // measure 46
1000
1000
1100
0010
,  // measure 47
0100
0100
1001
0010
,  // measure 48
0001
0001
0010
0100
,  // measure 49
0001
0100
1010
0001
,  // measure 50
0010
0100
0011
1000
,  // measure 51
0010
0100
1001
0010
,  // measure 52
0001
0100
0001
0010
,  // measure 53
1000
1000
0101
0010
,  // measure 54
1000
0010
1100
0010
,  // measure 55
0100
0001
0110
0001
,  // measure 56
1000
0010
1000
0100
,  // measure 57
0010
1001
0000
0000
;
