#TITLE:Girls Need Love;
#SUBTITLE:;
#ARTIST:Summer Walker;
#TITLETRANSLIT:;
#SUBTITLETRANSLIT:;
#ARTISTTRANSLIT:;
#CREDIT:;
#BANNER:Girls Need Love banner.png;
#BACKGROUND:Girls Need Love bg.png;
#LYRICSPATH:;
#CDTITLE:;
#MUSIC:Girls Need Love.mp3;
#OFFSET:-20.440;
#SAMPLESTART:58.740;
#SAMPLELENGTH:15.000;
#SELECTABLE:YES;
#BPMS:0.000=96.980;
#STOPS:;
#BGCHANGES:;

//---------------dance-single - ----------------
#NOTES:
     dance-single:
     :
     Hard:
     7:
     0.310,0.283,0.182,0.210,0.095:
1000
0000
0010
0000
0100
1000
0100
0000
,
0010
0000
0000
0100
0000
0000
0010
0000
0001
0000
0000
1000
0000
0000
0010
0000
,
0100
0000
0010
0010
0100
1000
0100
0010
,
0110
0000
0011
0000
0110
1000
0200
0000
,
0310
0000
0001
0000
0010
0100
1000
0100
,
0020
0000
0130
0000
0001
1000
0100
1000
,
0002
0000
0013
0000
0001
0010
0100
1000
,
0200
0000
0310
0000
0010
0100
0010
0000
,
2002
0000
3003
0000
0010
0100
1000
0000
,
0022
0000
0033
0000
1000
0100
1000
0000
,
0010
0000
0000
1000
0000
0000
0100
0000
1000
0000
0100
0000
0010
0000
0000
0000
,
2020
0000
3030
0000
0100
0010
0100
0001
,
2000
0000
3100
0000
0100
0010
1000
0100
,
0002
0000
0013
0000
0100
0010
0100
0001
,
1000
0000
0000
1000
0000
0000
0100
0000
1000
0000
0100
0000
0010
0000
0100
0000
,
0002
0000
0003
0000
0010
0100
1000
0100
,
0020
0000
0030
0000
0001
0010
0100
0010
,
2000
0000
3000
0000
0010
0100
0001
0100
,
0020
0000
0030
0000
1000
0100
1000
0010
,
0200
0000
0310
0000
0001
0010
0100
1000
,
0020
0000
0030
0000
0100
0010
0100
0001
,
0200
0000
0300
0000
0001
1000
0100
0010
,
2000
0000
3000
0000
0001
0100
0010
1000
,
0020
0000
0030
0100
0100
0000
1001
0000
,
0001
0010
0100
0010
1000
0000
0100
0000
,
1000
0000
0010
1000
0010
1000
0100
0010
,
0010
0100
0001
0010
0100
0000
0100
0000
,
0011
0000
1100
0000
0010
0010
0200
0000
,
0310
0000
0000
0000
0001
0000
0000
0000
1000
0000
0000
0010
0000
0000
0010
0000
,
0100
0000
1000
0100
0010
0001
0010
0100
,
1000
0000
0010
0100
0010
0000
2002
0000
,
3003
0000
0010
0010
0100
0001
0100
0010
,
1000
0000
0200
0000
0300
0001
0010
0001
,
0100
0000
0000
0010
0000
0000
1000
0000
0000
0010
0000
0000
1200
0000
0000
0000
,
0000
0000
0310
0000
0000
0001
0010
0100
,
0010
0000
0000
1000
0000
0000
0001
0000
0000
0100
0000
0000
1020
0000
0000
0000
,
0000
0000
1030
0000
0000
0001
1000
0100
,
1000
0000
0000
0010
0000
0000
0100
0000
0000
0001
0000
0000
0201
0000
0000
0000
,
0000
0000
0310
0000
0000
0001
0010
0100
,
0020
0000
0000
0000
1000
1000
1030
0000
,
0011
0000
0000
0100
0000
0100
0000
0000
1001
0000
0000
0000
0010
0000
0000
0000
,
1100
0000
0000
0100
0000
0010
0000
0000
1001
0000
0000
0000
0010
0000
0020
0000
,
0130
0000
0000
0001
0000
0010
0000
0000
0100
0000
0000
0000
0100
0000
0000
0000
,
0010
0000
0000
1000
0000
0100
0000
0000
0010
0000
0000
0000
0100
0000
0000
0000
,
1010
0000
0000
0100
0000
0001
0000
0000
0110
0000
0000
0000
0001
0000
0000
0000
,
0011
0000
0000
0100
0000
1000
0000
0000
0110
0000
0000
0000
1001
0000
0000
0000
,
0110
0000
0000
1000
0000
0100
0000
0000
0011
0000
0000
0000
0010
0000
0100
0000
,
1010
0000
0000
0100
0000
0001
0000
0000
1001
0000
0000
0000
0000
0000
0000
0000
;

//---------------dance-single - ----------------
#NOTES:
     dance-single:
     :
     Medium:
     4:
     0.213,0.250,0.021,0.140,0.000:
0010
0000
0100
0000
0010
0010
0010
0000
,
0100
1000
0100
0010
,
0100
0000
0001
0000
1000
1000
1000
0000
,
0010
0100
0001
0100
,
0010
0000
0010
0000
0100
1000
0100
0000
,
0010
0000
0100
0000
0001
0010
0001
0000
,
0100
0000
0010
0000
0100
0010
0100
0000
,
0010
0000
1000
0000
0001
0100
0001
0000
,
0220
0000
0330
0000
1000
0100
1000
0000
,
0220
0000
0330
0000
0001
0010
0100
0000
,
0010
0000
0010
0000
1000
0100
0010
0000
,
0220
0000
0330
0000
1000
0001
1000
0000
,
0010
0000
0100
0000
0001
1000
0001
0000
,
0100
0010
1000
0100
,
1000
0000
1000
0000
0010
0100
0010
0000
,
0200
0000
0301
0001
,
0020
0000
1030
1000
,
0200
0000
0310
0010
,
0200
0000
0301
0001
,
2000
0000
3100
0100
,
0020
0000
1030
1000
,
0002
0000
0013
0010
,
0200
0000
0310
0010
,
2000
0000
0000
0100
3100
0000
0010
0000
,
1000
0100
0010
0100
,
0001
0000
0010
0000
0001
0000
0010
0010
,
0010
0100
1000
0010
,
0100
0000
0010
0000
1000
0001
1000
0000
,
0010
0100
0001
0100
,
0010
1000
0100
0010
,
0100
0000
0001
1000
0001
0000
0010
0000
,
0100
0000
1000
0000
0100
0010
0100
0000
,
0010
0000
2000
0000
3000
0100
0100
0000
,
0010
0100
0010
0200
,
0000
0310
0000
1000
,
0100
0001
0100
0002
,
0000
1003
0000
0010
,
0100
0001
0100
2000
,
0000
3100
0000
0010
,
0020
0000
0000
0000
,
0130
0001
0100
0010
,
1000
0010
0100
0001
,
0100
0010
1000
0010
,
0100
0001
0100
0000
0010
1000
0010
0000
,
0100
0001
0100
0010
,
1000
0100
1000
0010
,
0100
0001
0010
0100
,
0010
0000
1000
1000
0010
0000
0000
0000
;

//---------------dance-single - ----------------
#NOTES:
     dance-single:
     :
     Easy:
     2:
     0.189,0.200,0.098,0.056,0.000: // measure 1
0010
0100
0010
0010
,  // measure 2
0100
0001
0100
0100
,  // measure 3
0010
1000
0010
0010
,  // measure 4
0100
0001
1000
1000
,  // measure 5
0010
0000
0100
1000
,  // measure 6
0100
0000
0001
0100
,  // measure 7
0001
0000
0010
0100
,  // measure 8
0010
0000
0100
0100
,  // measure 9
0110
0000
0001
0001
,  // measure 10
0011
0000
0100
1000
,  // measure 11
0100
0100
0010
0010
,  // measure 12
0110
0000
1000
1000
,  // measure 13
1100
0010
0100
0100
,  // measure 14
0101
0010
0000
0010
,  // measure 15
0100
0100
0001
0100
,  // measure 16
0010
0000
0100
1000
,  // measure 17
0200
0300
0010
0001
,  // measure 18
0020
0030
0001
1000
,  // measure 19
0002
0003
0100
0010
,  // measure 20
2000
3000
0100
1000
,  // measure 21
0020
0030
0100
0001
,  // measure 22
0200
0300
0010
0001
,  // measure 23
0020
0030
0100
0010
,  // measure 24
2000
3000
0010
0010
,  // measure 25
0100
0001
0100
0100
,  // measure 26
0010
1000
0001
0001
,  // measure 27
0010
0100
0010
0010
,  // measure 28
0100
1000
0010
0010
,  // measure 29
0100
1000
0100
1000
,  // measure 30
0100
0010
0100
0001
,  // measure 31
0100
0010
0100
0100
,  // measure 32
0010
0001
0010
0010
,  // measure 33
1000
0010
0000
0100
,  // measure 34
0100
0001
0100
0010
,  // measure 35
0000
0100
0000
0010
,  // measure 36
0100
0001
1000
0010
,  // measure 37
0000
1000
0000
0001
,  // measure 38
0100
0010
1000
0010
,  // measure 39
0000
1000
0000
0010
,  // measure 40
0100
0001
0100
0010
,  // measure 41
1001
0010
0100
0010
,  // measure 42
0011
0010
0100
0010
,  // measure 43
1100
0010
0100
0010
,  // measure 44
0101
0010
1000
0010
,  // measure 45
1010
0100
1000
0010
,  // measure 46
0110
1000
0001
0100
,  // measure 47
0101
0010
1000
0010
,  // measure 48
0110
1000
0110
0000
;
