#TITLE:GET IT;
#SUBTITLE:;
#ARTIST:PRISTIN V;
#TITLETRANSLIT:;
#SUBTITLETRANSLIT:;
#ARTISTTRANSLIT:;
#CREDIT:;
#BANNER:GET IT banner.png;
#BACKGROUND:GET IT bg.png;
#LYRICSPATH:;
#CDTITLE:;
#MUSIC:GET IT.mp3;
#OFFSET:-11.320;
#SAMPLESTART:107.380;
#SAMPLELENGTH:15.000;
#SELECTABLE:YES;
#BPMS:0.000=99.960;
#STOPS:;
#BGCHANGES:;

//---------------dance-single - ----------------
#NOTES:
     dance-single:
     :
     Hard:
     9:
     0.578,0.566,0.209,0.067,0.661:
1010
0000
0100
0000
0001
0000
0100
0000
1000
0010
1000
0000
0010
0000
0100
0000
,
0001
0100
0000
0000
0010
1000
0000
0000
0100
1000
0000
0000
0010
0100
0000
0000
,
0110
1000
0001
0100
0010
1000
0100
0010
,
0001
1000
0000
0000
1000
0001
0000
0000
0010
0100
0010
0000
1000
0100
0010
0000
,
0001
0000
0100
0000
0010
0000
1000
0000
0000
0000
0110
0000
0100
0000
0000
0001
,
0100
0000
0010
1000
0000
1000
0010
0000
0100
0000
1000
0000
0001
1000
0001
0000
,
0100
0000
1000
0000
0010
0000
0100
0000
0000
0000
0001
0000
0011
0000
0000
1000
,
0100
0000
0010
0100
0000
0100
0010
0000
1000
0001
0000
0000
0001
0010
0100
1000
,
0100
0000
0010
1000
0100
0001
0100
0000
0110
0000
0010
0000
1000
0001
0010
1000
,
0100
0000
0010
0100
0001
0010
0100
0000
1000
0000
0100
1000
0100
0010
0100
0000
,
0001
0011
0010
0110
0110
0100
1001
0000
,
0010
0000
1000
0100
0000
0100
1000
0000
0010
0000
0100
0000
0001
0000
0100
0000
,
0020
0000
1030
0100
0001
0100
1000
0010
,
0100
0000
0001
1000
0000
1000
0010
0000
0100
0000
0000
0000
0010
0001
1000
0010
,
0100
1000
0100
0010
0000
0010
0100
0000
0011
0000
0000
0000
1000
0010
1000
0100
,
0001
0100
1000
0010
0000
0010
0100
0000
0101
0000
0000
0000
0010
0000
1000
0000
,
0001
0000
0010
0100
1000
0010
0100
1000
,
0010
0000
0001
1000
0000
1000
0001
0000
0010
0100
0010
0000
0100
0000
0000
0000
,
1000
0000
0000
0000
0100
0000
0010
0000
0000
0000
0010
0000
0100
0000
0000
0000
0010
0000
0001
0000
0000
0000
0001
0000
0010
0000
0100
0000
1000
0001
1000
0001
,
0000
0000
0000
0000
0000
0000
0000
0000
0000
0000
0100
0010
0001
0010
0100
0001
,
1000
0010
1000
0000
0010
0000
0100
0000
0001
0000
1010
0000
1010
0000
0100
0000
,
0001
1000
0100
0010
0100
0000
0010
0000
0010
0000
0001
0100
0010
1000
0100
1000
,
0100
0010
0100
0000
0001
0000
0100
0000
0010
0000
1001
0000
1001
0000
0000
0000
,
0010
0100
0001
0010
0100
0000
0010
0000
1000
0010
0000
0000
0110
0000
1000
0100
,
0010
0001
0010
0100
0000
0100
0000
1000
0000
0010
0100
0000
0010
0000
0100
0000
,
0001
1000
0001
1000
0000
0010
0100
0000
0100
0000
0010
0100
1000
0100
0010
0001
,
0010
0100
0000
0000
1100
0000
0010
0100
0000
0000
0101
0000
0010
0100
0000
0000
,
0010
1000
0001
0010
0001
0010
0100
0000
0010
0000
0100
0000
0210
0000
0000
0000
,
0301
0000
1000
0010
0000
0010
1000
0001
0100
0000
0001
0000
0200
0000
0000
0000
,
0310
0000
1000
0001
0000
0001
1000
0000
0010
0000
0100
0000
0002
0000
0000
0000
,
0013
0000
0100
0001
0000
0001
0100
0000
0010
0000
0010
0000
1100
0000
0010
0000
,
0100
0000
0000
0100
0000
0000
0010
0000
0100
0000
0001
0100
0000
0000
0000
0010
,
1000
0000
1000
0010
0000
0010
0001
0000
0010
0000
0100
0000
0010
0000
1000
0000
,
0100
0000
0001
1000
0000
1000
0010
0000
0100
0000
0001
0000
0100
0000
0010
0000
,
1100
0000
0000
0000
0100
0000
0000
0000
0110
0000
0000
0000
0010
0000
0000
0000
0011
0000
0000
0000
0010
0000
0000
0000
0100
0000
0010
0000
0100
0001
0100
0000
,
1000
1000
0000
0000
0010
0010
0000
0000
0000
0000
0001
0010
1000
0010
0001
0010
,
0100
0002
0000
0013
0100
0110
1001
0000
,
0100
1000
0010
0100
0001
0000
0010
0000
1000
0000
0010
0100
0001
0010
1000
0010
,
0100
0020
0000
0000
0130
0000
0001
0010
0100
1000
0100
0000
1001
0000
0000
0000
,
0010
1000
0100
0001
0100
0000
0010
0000
0010
0000
0100
0001
0010
1000
0100
1000
,
0010
0100
1000
0010
0001
0010
0100
0010
0100
1000
0100
0010
0001
0010
0100
0010
,
1000
0001
0010
0100
0001
0000
1000
0000
0010
0000
0100
0001
0010
1000
0010
0100
,
0001
0010
1000
0010
0001
0010
0100
1000
0100
0010
0100
1000
0100
0001
0010
0100
,
1000
0100
0010
0100
0001
0000
0010
0000
1000
0020
0000
0000
0130
0000
0001
0010
,
0100
1000
0100
0010
0000
0100
0000
0001
0000
0010
1000
0000
1000
0000
0010
0000
,
0100
1000
0100
0010
0000
0010
0100
0000
0011
0000
0010
0100
0010
1000
0001
1000
,
0100
0010
0000
0000
0011
0000
0100
1000
0000
0000
1000
0000
1000
0002
0000
0000
,
0013
0000
0100
0000
1000
0000
0100
0000
0010
0000
0001
0000
0010
0000
0000
0000
0110
0000
0000
0000
0100
0000
0000
0000
1000
0000
0100
0000
0001
0010
0001
0000
,
0010
0000
1000
0100
0000
0100
0010
0000
0010
0100
0000
0100
0010
0000
0001
0000
,
0010
0000
0100
0001
0000
0001
0010
0000
1000
0100
0000
0100
1000
0010
0100
0001
,
0100
0000
0010
1000
0000
1000
0010
0000
0100
1000
0000
1000
0100
0000
0010
0000
,
0100
0001
0000
0000
0100
0010
0000
0000
1000
1000
0000
0000
0001
0001
0000
0000
,
0010
0000
0100
0010
0000
1000
0001
0000
0010
0100
0000
1000
0010
0000
0001
0000
,
0100
0000
0010
1000
0000
0100
1000
0000
0010
0001
0000
0100
0010
0000
0010
0000
,
0001
0000
0100
0010
0000
1000
0001
0000
0010
0100
0000
0001
0100
0000
0010
0000
,
1000
0001
0100
1000
0100
0010
0100
0000
0110
0000
0010
0000
2002
0000
0000
0000
,
3003
0000
0000
0000
;

//---------------dance-single - ----------------
#NOTES:
     dance-single:
     :
     Medium:
     5:
     0.280,0.263,0.081,0.027,0.000:
1000
0000
0100
0000
0010
0010
0010
0000
,
0100
0100
0000
0001
0001
0000
0110
0000
,
1000
0000
0001
0000
0100
0100
0100
0000
,
1000
0000
0010
0000
0100
0000
0001
0010
,
0001
0000
0010
0000
0100
0100
1000
0000
,
0100
0000
1000
0100
1000
0000
0010
0000
,
0100
0000
0001
0000
1000
0010
1000
0000
,
0100
0000
0100
0000
0010
0000
0100
0001
,
0100
0000
0010
1000
0010
0000
0001
0010
,
0001
0000
1000
0100
1000
0000
0010
0100
,
1000
0010
0100
0100
,
0010
0000
0001
0000
0100
0000
0010
0010
,
0010
0000
0100
0000
1000
0000
0100
0010
,
0001
0000
0010
0000
0001
0000
0100
0010
,
1000
0000
0100
0000
1000
0000
0100
1000
,
0100
0000
0010
0000
0100
0000
0001
0010
,
0100
0000
0010
0100
1000
0000
0010
0000
,
0100
0000
0010
0001
0010
0000
0100
0000
,
0010
0000
1000
0010
0000
0010
1000
0000
,
0000
0000
0000
0110
,
1001
0100
0010
0010
,
0001
0000
0010
0100
0010
0000
1000
0000
,
1001
0010
0001
0010
,
0100
0000
0010
1000
0020
0000
0130
0000
,
0010
0000
0001
0000
0100
0010
0100
0000
,
1000
0000
0100
1000
0100
0000
0010
0100
,
0010
0000
0001
0010
0000
0010
0100
0000
,
0010
0000
1000
0001
1000
0000
0110
0000
,
0020
0000
0000
0000
0100
0100
0130
0000
,
2000
0000
0000
0000
0010
0010
3010
0000
,
0200
0000
0000
0000
0001
0001
0301
0000
,
0010
1000
0010
0100
,
1001
0000
0010
0000
0100
0010
0100
0000
,
0001
0000
1000
0000
0100
1000
0100
0000
,
0011
0000
0110
0000
0100
0100
0100
0100
,
0010
0010
0010
1000
,
0001
0000
0010
0100
0000
0100
1000
0000
,
0100
0000
1000
0010
1000
0000
0100
0001
,
0100
0000
0010
1000
0000
1000
0010
0000
,
0100
0001
0100
0000
0010
0000
0010
0100
,
1001
0010
1000
0010
,
0100
1000
0100
0000
0010
0000
0100
0001
,
1001
0010
0001
0100
,
0010
0001
0010
0000
0100
0000
0010
0000
,
1000
0100
1000
0000
0010
0100
0010
0000
,
0001
0000
0100
0010
0100
0000
0010
0000
,
0001
0010
0000
0010
0100
1000
0100
0000
,
0010
0100
0010
0100
0010
0000
1001
0000
,
0010
0000
0100
1000
0000
1000
0100
0000
,
0010
0000
0100
0001
0000
0001
0100
0000
,
0010
0000
0001
0100
0000
0100
0001
0000
,
0010
1000
0010
0100
,
0010
0000
0100
0010
0000
0010
0100
0000
,
0010
0000
1000
0100
0000
0100
1000
0000
,
0010
0000
0100
0001
0000
0001
0100
0000
,
0010
0000
1000
0001
1000
0000
0110
0000
;

//---------------dance-single - ----------------
#NOTES:
     dance-single:
     :
     Easy:
     3:
     0.226,0.207,0.108,0.034,0.000: // measure 1
0010
0010
0100
0100
,  // measure 2
0001
1000
0010
0100
,  // measure 3
1000
1000
0100
0100
,  // measure 4
0010
0100
0010
0001
,  // measure 5
0100
0001
0100
0100
,  // measure 6
0010
1000
0100
0001
,  // measure 7
0100
0010
1000
1000
,  // measure 8
0100
0010
0001
0010
,  // measure 9
0100
0010
0110
0010
,  // measure 10
1000
0100
0101
0010
,  // measure 11
2000
0000
3002
0000
,  // measure 12
0103
0100
0010
0100
,  // measure 13
1000
0100
0010
0001
,  // measure 14
0010
0100
1000
0100
,  // measure 15
0100
0010
1000
0010
,  // measure 16
0010
0001
0100
0010
,  // measure 17
0110
0010
1000
0010
,  // measure 18
0001
0010
0100
0010
,  // measure 19
1000
1000
0010
0010
,  // measure 20
0000
0000
0000
0100
,  // measure 21
1001
0010
0100
1000
,  // measure 22
0100
0010
0100
0010
,  // measure 23
1001
0010
0001
0010
,  // measure 24
0100
0010
1000
0010
,  // measure 25
0100
0001
0010
0010
,  // measure 26
0001
0100
0100
1000
,  // measure 27
0100
1000
0010
0100
,  // measure 28
0001
0001
0001
0110
,  // measure 29
0020
0000
0100
0130
,  // measure 30
2000
0000
0100
3100
,  // measure 31
0020
0000
0001
0031
,  // measure 32
0010
0100
1000
0100
,  // measure 33
0010
1000
0010
0010
,  // measure 34
0100
0001
0100
0100
,  // measure 35
0010
0001
0010
1000
,  // measure 36
0100
0000
0000
0100
,  // measure 37
0110
0010
1000
1001
,  // measure 38
0010
0100
1000
0100
,  // measure 39
0010
0001
0010
0110
,  // measure 40
0010
0001
0010
0100
,  // measure 41
1001
0010
0100
1000
,  // measure 42
0100
0010
0100
0001
,  // measure 43
1001
0010
1000
0100
,  // measure 44
1000
0100
0010
0100
,  // measure 45
0010
0001
0010
0010
,  // measure 46
0100
1000
1000
0100
,  // measure 47
0010
0100
1000
0100
,  // measure 48
0001
0100
0010
1000
,  // measure 49
0101
0100
0010
0010
,  // measure 50
0100
1000
0100
0100
,  // measure 51
1010
1000
0100
0100
,  // measure 52
0010
0100
0001
0100
,  // measure 53
0110
0001
0001
0010
,  // measure 54
0100
1000
0010
0100
,  // measure 55
1001
1000
1000
0100
,  // measure 56
0010
0100
0010
0110
;
