#TITLE:Freedom;
#SUBTITLE:;
#ARTIST:LAYSHA;
#TITLETRANSLIT:;
#SUBTITLETRANSLIT:;
#ARTISTTRANSLIT:;
#CREDIT:;
#BANNER:Freedom banner.png;
#BACKGROUND:Freedom bg.png;
#LYRICSPATH:;
#CDTITLE:;
#MUSIC:Freedom.mp3;
#OFFSET:-7.940;
#SAMPLESTART:52.940;
#SAMPLELENGTH:15.000;
#SELECTABLE:YES;
#BPMS:0.000=128.000;
#STOPS:;
#BGCHANGES:;

//---------------dance-single - ----------------
#NOTES:
     dance-single:
     :
     Hard:
     8:
     0.630,0.589,0.370,0.115,0.279:
1000
1010
0100
0010
0011
0010
0100
0110
,
0010
1000
0100
0001
0100
2000
0000
3000
,
0101
1000
0010
0100
0110
0010
0001
0010
,
0110
0000
0000
1000
0001
0000
0010
0000
0100
0000
0100
0000
1001
0000
0000
0000
,
0010
0110
0100
1001
0010
0010
0100
0001
,
0010
0100
1000
0010
0100
2000
0000
3000
,
0110
0100
0001
0010
0001
0100
0110
0010
,
1000
0000
0000
0100
0000
0000
0001
0000
0010
0000
0010
0000
0100
0000
0110
0000
,
0010
0000
0000
2000
0000
0000
3100
0000
0001
0000
0000
0200
0000
0000
0310
0000
,
0101
0000
0000
0010
0000
0000
0100
0000
1000
0000
0010
0000
0010
0000
0100
0000
,
0010
0000
0000
2000
0000
0000
3001
0000
0100
0000
0000
0002
0000
0000
0013
0000
,
0110
0000
0000
1000
0000
0000
0001
0000
1000
0000
0001
0000
0010
0000
0010
0000
,
1001
0010
0010
0100
1000
0010
0100
0010
,
1010
0010
0001
0011
0010
0100
0010
0000
,
0110
0100
0001
0010
0001
1000
0100
1000
,
0100
0001
0000
0001
0010
0000
0100
0000
0010
0000
1000
0000
0010
0100
0010
0001
,
0010
0000
0000
0010
0000
0000
0100
0000
0001
0000
0000
0001
0000
0000
0010
0000
,
0100
0000
0010
0000
1000
0000
0010
2000
0000
0000
0100
0000
3100
0000
0010
0000
,
0100
0000
0010
0000
0011
0000
0010
0000
0100
0000
0000
0010
0000
0000
0100
0000
,
1010
0000
0001
0000
1100
0000
0100
0010
0000
0000
0000
0000
0010
0000
0010
0000
,
0001
0000
0000
0010
0000
0000
0100
0000
1000
0000
0000
0100
0000
0000
0010
0000
,
0001
0000
0100
0000
0010
0000
1000
0020
0000
0000
0100
0000
0100
0000
1000
0000
,
0130
0000
0001
0000
1000
0000
0010
0000
0001
0000
0000
1000
0000
0000
0010
0000
,
0100
0010
0000
0010
0000
0000
1000
0000
0100
0000
0010
0000
1001
0000
1001
0000
,
0110
0000
0110
0000
1000
0000
0100
0000
0010
0000
0001
0000
0010
0000
0100
1000
,
0100
0000
0010
0000
0100
0000
0010
0000
1000
0100
0010
0000
0110
0000
0000
0000
,
0001
0000
0110
0000
0001
0000
0010
0000
0010
0000
0100
0000
0010
0000
0001
0010
,
0100
0000
0000
0100
0000
0000
0010
0000
0100
0000
0001
0000
1000
0000
0010
0000
,
0110
0000
1000
0000
0100
0000
0100
0000
1100
0000
0010
0000
0100
0000
0001
0010
,
0100
0000
0010
0000
0001
0000
0100
0010
0100
0000
0010
0000
0010
0000
0000
0000
,
1000
0110
0010
0001
0110
0010
0001
0010
,
1000
0000
0000
0010
0000
0000
0100
0000
0100
0000
0010
0000
1000
0000
0001
0000
,
0110
0000
1000
0000
0100
0000
0010
0000
0001
0010
0000
0010
0000
0000
0100
0000
,
0110
0000
0010
0000
1000
0000
0010
0000
0001
0100
0000
0100
0000
0000
0010
0000
,
0110
0000
1000
0000
0100
0000
1000
0000
0001
0000
1000
0001
0000
0001
0000
0000
,
0100
0010
0001
0010
0100
0010
1000
0010
,
0110
0000
0001
0000
0010
0000
0100
0000
0010
1000
0000
1000
0000
0000
0000
0000
,
1100
0000
0010
0000
0001
0000
0010
0000
0100
0010
0000
0010
0000
0000
0001
0000
,
0010
0000
0100
0000
0010
0000
1000
0000
0010
0000
0100
0001
0000
0001
0000
0000
,
1000
0010
0000
0010
1000
0000
0100
0001
0100
0000
0010
0000
1000
0100
0010
0001
,
0010
0000
0100
0000
1000
0000
0010
0000
0100
0000
0001
0010
0001
0000
0100
0000
,
0010
0000
0100
0000
1000
0000
0010
0000
0010
0000
0100
0000
1000
0000
0010
0100
,
1000
0100
0110
0010
0110
0001
0001
0010
,
1100
0000
0000
0110
0000
0000
0001
0000
1000
0000
0010
0000
0010
0000
0100
0000
,
0001
0000
1000
0000
0010
0000
0100
0010
0100
0000
0001
0000
1000
0000
0010
0000
,
0010
0000
1000
0000
0100
0000
0010
0000
0001
0000
0010
0100
1000
0000
0010
0000
,
0110
0000
0001
0000
0001
0000
0010
0000
0100
0000
0010
0000
1000
0000
1000
0100
,
0010
0000
0000
0010
0000
0000
0100
0001
0100
0000
0010
0000
0110
0000
0100
0000
,
0001
0010
0010
0100
0020
0100
0130
1000
,
0100
1000
1000
0010
0200
0001
0301
0010
,
0001
0010
0100
0010
0002
1000
1003
0100
,
1000
0000
0010
0100
0010
0000
0001
0010
0001
0000
0100
0010
0100
0000
0010
0000
,
1100
0010
0010
0100
0002
0010
0013
0100
,
0010
0100
1000
0010
2000
0100
3100
0010
,
0110
0010
0100
0001
2000
0001
3001
0010
,
0100
0010
0000
0010
0001
0000
0010
0000
1000
0100
0010
0001
0010
0100
1000
0100
,
0010
0000
0000
0001
0010
0000
0100
0000
0010
0000
1000
0000
0010
0000
0100
0000
,
0001
0000
0000
1000
0010
0000
0100
0000
1000
0000
0010
0000
0100
0000
0010
0000
,
1000
0000
0000
0010
0100
0000
0001
0000
0100
0000
0010
0000
1000
0000
0100
0000
,
0010
0000
0000
1000
0001
0000
0010
0000
0100
0000
0100
0000
0110
0000
0000
0000
;

//---------------dance-single - ----------------
#NOTES:
     dance-single:
     :
     Medium:
     6:
     0.428,0.393,0.115,0.214,0.000:
0010
0100
0100
0000
0010
0001
0001
0000
,
0010
0100
1000
0000
0100
0002
0000
0003
,
0010
1000
1000
0000
0100
1000
1000
0000
,
0010
0100
0010
1000
0002
0000
0013
0000
,
0100
0000
0010
0100
1000
0000
0100
0010
,
0001
0000
1000
0001
1000
0002
0000
0003
,
0010
0000
0100
0010
0001
0000
1000
0010
,
0100
0000
0001
0000
0100
0010
0010
0100
,
1001
0000
0010
0100
1000
0000
0010
0100
,
1000
0000
0100
0010
0001
0010
0100
0000
,
0110
0000
0001
0010
0001
0000
1000
0100
,
1000
0000
0010
0100
0100
0010
0100
0000
,
1000
0000
0100
0010
0001
0000
0001
0000
,
0010
0000
0100
0010
0100
0020
0000
0030
,
1000
0000
0100
0001
0100
0000
0010
0000
,
1000
0001
0001
0000
1000
0010
0010
0000
,
0200
0302
0013
1000
,
0010
0100
0010
0000
2000
0000
3000
0000
,
0010
0000
0100
1000
1000
0000
0100
0000
,
0010
0001
0010
0000
0200
0000
0300
0000
,
0010
0000
0001
0010
0010
0000
0100
0010
,
0010
0000
1000
0010
0002
0000
0003
0000
,
0010
0000
0100
0010
0100
0000
0001
0000
,
0010
0000
1000
0000
0010
0100
0110
0010
,
1001
0000
0010
0001
0010
0000
0100
0010
,
1000
0000
0010
0100
1000
0100
0010
0000
,
1001
0000
0010
1000
0010
0000
0100
0001
,
0100
0000
0100
0000
0010
0100
0110
0010
,
1001
0000
0100
0010
0001
0000
0100
0010
,
1000
0000
0010
0100
0001
0100
0010
0000
,
1001
0000
0010
1000
0010
0000
0100
0001
,
0100
0000
0100
0000
0010
1000
0100
0000
,
0100
0000
0001
0010
0002
0000
0013
0000
,
0100
0000
0010
1000
0020
0000
0130
0000
,
0001
0000
1000
0010
0100
0100
0010
0100
,
0001
0010
0100
1000
,
0010
0000
1000
0010
2000
0000
3010
0000
,
0100
0000
0001
0100
0002
0000
0013
0000
,
0100
0000
0010
1000
0010
0010
0001
0100
,
0020
0000
0100
0130
,
1001
0000
0010
0100
0010
0000
1000
0010
,
0000
0010
0000
0100
0001
0100
0010
0000
,
1001
0000
0100
1000
0100
0000
0010
0100
,
0100
0000
0001
0000
0010
1000
0010
0010
,
0110
0000
1000
0001
0100
0000
1000
0010
,
0000
0010
0100
1000
0001
0100
0010
0000
,
0110
0000
1000
0010
0010
0000
0100
0001
,
0100
0000
0001
0000
1000
0010
0010
0100
,
0110
0000
1000
0000
0100
0010
0002
0000
,
1003
0000
0010
0000
0100
0001
0200
0000
,
0310
0000
1000
0000
0010
0100
0002
0000
,
0013
1000
0001
0100
,
0010
0000
1000
0010
0020
0000
0130
0000
,
0001
0000
1000
0001
0002
0000
1003
0000
,
0010
0000
0100
1000
2000
0000
3100
0000
,
1000
0001
1000
0000
0001
1000
0001
0000
,
0020
0000
0130
0100
0002
0000
0013
0000
,
2000
0000
3010
0100
0020
0000
0031
0000
,
0100
0000
0020
1000
0130
0000
0001
0000
,
0200
0000
0310
0001
0010
0100
1001
0000
;

//---------------dance-single - ----------------
#NOTES:
     dance-single:
     :
     Easy:
     4:
     0.320,0.319,0.238,0.156,0.000: // measure 1
0010
0100
0001
0010
,  // measure 2
1000
1000
0020
0030
,  // measure 3
0100
0001
1000
0010
,  // measure 4
0100
0001
0200
0310
,  // measure 5
1000
0100
0010
0001
,  // measure 6
0010
0100
0002
0003
,  // measure 7
0010
0100
0001
1000
,  // measure 8
0010
0010
0100
0100
,  // measure 9
0001
0010
0100
1000
,  // measure 10
0010
0100
1000
2000
,  // measure 11
3100
0010
0001
0010
,  // measure 12
0100
0010
1000
0020
,  // measure 13
0130
0100
0001
0010
,  // measure 14
1000
0010
0001
0001
,  // measure 15
0000
0010
0010
0100
,  // measure 16
0010
1000
0001
1001
,  // measure 17
0020
0030
0200
0300
,  // measure 18
0001
0001
2000
3000
,  // measure 19
0010
0100
0001
1000
,  // measure 20
0010
1000
0020
0030
,  // measure 21
2000
3000
0020
0030
,  // measure 22
0100
0001
2000
3000
,  // measure 23
0010
0100
0010
0010
,  // measure 24
1000
0100
0010
0001
,  // measure 25
1001
0110
1001
0010
,  // measure 26
0100
1000
0010
0100
,  // measure 27
1001
0110
1001
0010
,  // measure 28
0001
0001
0100
0010
,  // measure 29
0110
1001
0110
1000
,  // measure 30
0100
0100
0010
1000
,  // measure 31
0110
1001
0110
1000
,  // measure 32
0001
0001
0100
0010
,  // measure 33
1000
0100
0010
0010
,  // measure 34
1000
0100
0010
0010
,  // measure 35
1000
0100
0001
0200
,  // measure 36
0300
0010
0010
0100
,  // measure 37
0001
0010
0100
0100
,  // measure 38
0001
0010
0100
0100
,  // measure 39
0001
0010
1000
1000
,  // measure 40
0010
0010
0100
0010
,  // measure 41
1001
0110
1001
0010
,  // measure 42
0100
0001
0100
0010
,  // measure 43
1001
0110
1001
0010
,  // measure 44
1000
1000
0100
0010
,  // measure 45
0110
1001
0110
1000
,  // measure 46
0001
0010
0100
0001
,  // measure 47
0110
1001
0110
1000
,  // measure 48
0100
0100
0010
0010
,  // measure 49
2000
3100
0010
0100
,  // measure 50
0002
0013
0100
0001
,  // measure 51
0200
0310
1000
0010
,  // measure 52
0100
0001
1000
0010
,  // measure 53
2000
3001
0100
0010
,  // measure 54
0200
0310
0001
1000
,  // measure 55
0020
0031
0100
1000
,  // measure 56
0010
0010
0010
0010
,  // measure 57
0110
0000
1000
0100
,  // measure 58
0011
0000
0100
0001
,  // measure 59
1001
0000
0010
0100
,  // measure 60
1100
0000
0010
0100
;
