#TITLE:Fly Me To The Moon (Climax Mix);
#SUBTITLE:;
#ARTIST:Helena Noguerra (BAYONETTA OST);
#TITLETRANSLIT:;
#SUBTITLETRANSLIT:;
#ARTISTTRANSLIT:;
#CREDIT:;
#BANNER:Fly Me To The Moon (Climax Mix) banner.png;
#BACKGROUND:Fly Me To The Moon (Climax Mix) bg.png;
#LYRICSPATH:;
#CDTITLE:;
#MUSIC:Fly Me To The Moon (Climax Mix).mp3;
#OFFSET:-7.420;
#SAMPLESTART:14.220;
#SAMPLELENGTH:15.000;
#SELECTABLE:YES;
#BPMS:0.000=141.040;
#STOPS:;
#BGCHANGES:;

//---------------dance-single - ----------------
#NOTES:
     dance-single:
     :
     Hard:
     8:
     0.656,0.683,0.246,0.191,0.133:
1000
0001
0100
1000
0010
0100
0001
0000
,
0010
0001
0100
0010
1000
0010
0100
0000
,
0011
0000
0000
0010
0000
0000
0110
0000
0100
0000
0000
0010
0000
0000
0100
0000
,
1000
0100
0010
0000
0110
0000
0000
1000
0000
0001
1000
0000
0110
0000
0000
0000
,
1002
0000
0010
0010
0103
0010
1000
0010
,
0200
0000
0010
0010
0301
0010
0100
1000
,
0012
0000
0100
0100
0013
0100
1000
0010
,
0100
0000
0001
0000
1000
0000
0010
0000
0110
0000
0000
0110
0000
0000
0100
0000
,
1000
0001
0001
1000
1000
0010
0100
0010
,
1000
0100
0000
0000
0001
0010
0000
0000
0100
0010
0000
0000
0100
0000
0010
0000
,
0101
0010
0010
1000
0010
0100
0100
0001
,
0200
0000
0010
1000
0320
0000
0130
0100
,
0001
0010
0100
1000
0100
0010
0100
0000
,
0001
1000
0100
1000
0010
0001
0010
0000
,
0010
0010
0100
1000
0001
0100
1000
1000
,
1001
0100
0010
0002
0000
0013
0100
0010
,
1000
0001
0100
0010
0001
0100
0010
0010
,
1000
0100
0001
0100
1000
0010
1000
1000
,
0010
0110
0010
0001
0010
0100
0010
0000
,
1000
0001
0000
0000
0010
0000
0100
1000
0000
0000
0010
0000
0100
0001
0000
0001
,
1200
0000
0010
0010
0301
0010
1000
0010
,
0002
0000
0010
0010
0103
0010
1000
0010
,
2001
0000
0100
0100
3010
0100
0001
1000
,
0010
0001
0100
0010
1000
0001
0100
0010
,
0100
0001
0001
0010
0001
0010
0100
0010
,
1000
0010
0010
0100
1000
0010
0001
0100
,
2000
0000
3001
0010
0100
0100
0010
0100
,
0010
0000
0000
1000
0000
0000
0001
0000
0100
0000
0000
0010
0100
0000
0001
0000
,
0100
0010
1000
0010
0100
0010
0100
0100
,
0001
0100
0010
0001
1000
0100
0010
0010
,
0201
0000
0310
1000
0020
0000
0130
0001
,
0200
0000
1300
1000
0010
0100
0010
0001
,
1000
0010
0001
0010
1000
0010
0001
0001
,
0010
0100
0010
1000
0010
1000
0100
0100
,
2002
0000
0000
3003
,
0010
0100
0010
0000
0001
0000
1000
0010
0000
0010
1000
0000
0010
0000
0100
0001
,
0100
0010
1000
0001
0100
0010
0010
0100
,
0010
0001
1000
0010
0100
1000
0010
0100
,
0100
0000
0001
0000
0100
0000
0010
0000
0001
0010
0100
1000
0100
0000
0011
0000
,
0010
0100
1001
0100
1000
0110
0001
0010
,
0100
0010
2000
3100
0001
0100
0010
0001
,
0100
0010
0200
0301
0020
0130
0001
1000
,
0010
0000
0100
0001
0100
1000
0010
0100
0010
0100
0001
0010
0100
0000
1000
0000
,
0110
0011
0210
0000
0010
0010
0310
0000
,
1010
0000
0100
0001
0010
0100
0010
0001
,
0100
0000
0010
1000
0001
0100
0010
1000
,
0101
0000
0010
0001
0001
0100
0010
1000
,
0100
0000
0010
1000
1000
0010
0100
0001
,
0010
0100
0100
0010
1010
0001
0100
0010
,
0100
0100
0001
0001
0010
1000
0010
0100
,
0010
1000
0000
0000
0010
0100
0000
0000
0010
0000
0001
0000
0100
0000
0010
0000
,
0100
1000
1000
0010
0010
0100
0001
0100
,
0010
0001
0100
0010
1000
0010
0020
0000
,
0031
0100
0100
0010
1000
0001
0100
1000
,
0010
1000
0001
0100
0100
1000
0200
0000
,
0310
0001
0010
0001
0100
0100
0010
0000
,
0010
0100
0100
0001
0100
0020
0130
0000
,
1000
0100
0100
0010
1000
0200
0301
0000
,
0010
1000
1010
0001
0110
0010
0010
0110
,
0001
0000
1000
0000
0001
0000
1000
0000
0001
0010
0100
1000
0001
1000
0100
1000
,
0010
0100
0012
0010
0013
0100
0100
0010
,
1000
0100
2010
0100
3010
0100
0001
0001
,
0110
0000
0010
0001
0010
0100
0100
0010
,
0100
0001
1000
1000
0001
1000
1000
0010
,
0100
2000
3100
0010
0100
0100
0001
0100
,
0010
0200
0301
0010
0001
0100
0100
0010
,
1000
0002
1003
0010
0010
0100
0110
0001
,
1000
0000
0010
0000
0100
0000
0001
0000
0100
0010
0100
1000
0100
0000
0100
0000
,
0010
0100
0101
0010
0100
0100
0010
1000
,
0010
0100
1001
1000
0010
0100
1000
0010
,
0100
0001
0001
0010
0001
0100
0010
0100
,
1000
0010
0010
1000
0100
0010
0001
0010
,
0100
0010
0010
0100
0001
1000
0010
0100
,
0100
0001
0010
0100
1000
0010
0010
0100
,
0001
0010
0100
0010
1000
0010
0100
0010
,
1000
0010
0100
0001
0100
0010
1000
0001
,
0001
1000
0000
0000
0010
1000
0000
0000
0100
1000
0000
0000
0100
0000
0000
0000
,
0110
0000
0011
0000
0010
0100
1000
0100
,
0010
0010
0100
0100
,
0001
0100
0000
0000
0010
0000
0000
1000
0000
0000
0100
0000
0010
0000
0001
0000
,
0110
0000
0000
0000
;

//---------------dance-single - ----------------
#NOTES:
     dance-single:
     :
     Medium:
     6:
     0.447,0.464,0.307,0.055,0.000:
1010
0000
1001
0000
0010
0100
0010
0000
,
0101
0000
1010
0000
0100
0010
0100
0000
,
0001
0000
0010
0000
0100
0010
0001
0010
,
0100
0000
0100
0000
0010
1000
0010
0000
,
1001
0000
0100
0010
0001
0010
0100
0000
,
0010
0000
1000
0000
0010
0100
1000
0000
,
0110
0000
1000
0100
0010
0001
0010
0000
,
0100
0000
0010
0001
0010
0000
0100
0100
,
0100
0000
0010
1000
0020
0000
0130
0000
,
0001
0000
1000
0010
2000
0000
3010
0000
,
0100
0000
0001
0100
0000
0100
1000
0100
,
0010
0000
0100
0010
0100
0000
0001
1000
,
0001
0110
0010
1010
,
0100
0101
0010
0101
,
0010
0000
0100
0000
1000
0100
0010
0001
,
0010
0000
0100
0010
0000
0010
0100
0000
,
0001
0010
0100
1000
,
0010
0100
1000
0000
0010
0100
1000
0000
,
0101
0000
1001
0000
0010
0100
0010
0000
,
0010
1000
0010
0100
0010
0000
0010
0000
,
1001
0000
0100
0010
1000
0010
0100
0000
,
0010
0000
0100
0001
0100
0000
0010
0000
,
0100
0000
0001
0000
0100
1000
0100
0010
,
0100
0011
0100
0011
,
1000
0100
0010
0100
0010
0000
0010
0000
,
1000
0001
1000
0010
0001
0000
0001
0000
,
0010
0000
0100
0001
0000
0001
0100
0010
,
0100
0000
0010
1000
0010
0000
0100
0000
,
0010
1010
0100
0101
,
0010
0000
1000
0000
0010
0100
0010
0000
,
0002
0000
0000
0013
,
0020
0000
0100
0001
,
0130
0000
0010
1000
0010
0000
0100
0000
,
0110
0000
0010
0000
0100
0001
0100
0000
,
0020
0100
0001
0100
,
0031
0000
0100
0000
0010
0100
1000
0100
,
0010
0000
1001
0000
0010
1000
0100
0001
,
0100
0000
0010
1000
0010
0100
0001
0000
,
0010
0100
1000
0000
0010
0000
0100
0001
,
0000
0001
0010
0000
0010
0100
0000
0100
,
0010
0000
1001
0000
0010
0100
1000
0100
,
0010
0100
0000
0100
0000
0001
0100
0000
,
0010
1001
0010
1001
,
0100
0120
0100
0130
,
1010
0100
0001
0100
,
0010
0000
0010
0000
0001
0100
0001
0000
,
0110
1000
0010
0100
,
1000
0000
1000
0000
0001
0100
0001
0000
,
0010
0000
0100
0100
0010
0000
1000
0000
,
0010
0000
0001
0001
0100
0000
0010
0000
,
1000
0000
0010
0100
0000
0100
0010
0000
,
0110
0000
1000
0000
0001
0000
0100
1000
,
0100
0010
0100
0001
,
0010
0000
0010
0000
0001
0100
0001
0000
,
0010
1000
0010
0100
,
1000
0000
0010
0100
0000
0100
1000
0000
,
0100
0000
0010
0000
0100
0001
0001
0000
,
0010
0000
1000
0000
0010
1000
1000
0000
,
0110
0100
1010
0100
,
0101
0110
1001
0110
,
1001
0000
0100
1000
0010
0100
0010
0000
,
0001
0000
0100
0010
0100
0010
0001
0000
,
0010
0000
1000
0001
0100
1000
0100
0000
,
0010
1000
0010
0100
0010
0001
0010
0000
,
0100
0000
0001
0010
0001
0000
0010
0000
,
0100
0000
1000
0100
1000
0000
0010
0000
,
0110
0000
1000
0000
0001
0100
0000
0100
,
0010
0000
1001
0000
0010
0000
0010
0100
,
1000
1010
0100
0101
,
0010
1000
0010
0000
0100
0001
0100
0000
,
0002
0100
0010
0100
,
0023
1000
0100
1000
,
0130
0001
0100
0000
0010
1000
0010
0000
,
0100
0010
0100
0000
1000
0000
1000
0000
,
0010
0000
0100
1000
0100
0000
0001
0010
,
0100
0010
0110
0100
,
0011
1010
1100
0110
,
1001
0000
0001
0000
0100
0010
0001
0010
,
0110
1000
0100
0010
,
0001
0000
0100
0000
0010
0100
0010
0100
,
0110
0000
0000
0000
;

//---------------dance-single - ----------------
#NOTES:
     dance-single:
     :
     Easy:
     4:
     0.322,0.300,0.048,0.055,0.000: // measure 1
0010
0010
0100
0010
,  // measure 2
0001
0001
1000
0001
,  // measure 3
0010
0100
1000
0010
,  // measure 4
0100
0100
0100
0100
,  // measure 5
1001
0010
1000
0010
,  // measure 6
0100
0001
0100
0010
,  // measure 7
1000
0010
0100
1000
,  // measure 8
0001
0010
0100
0001
,  // measure 9
1000
1000
1000
0010
,  // measure 10
0100
0100
0100
0001
,  // measure 11
0010
1000
0010
0001
,  // measure 12
0100
0010
0100
0001
,  // measure 13
0001
0010
0100
1000
,  // measure 14
1000
0100
0010
0001
,  // measure 15
0010
0010
0100
0100
,  // measure 16
0001
1000
0002
0013
,  // measure 17
0100
0100
0010
0010
,  // measure 18
1000
0010
0001
0100
,  // measure 19
0010
1000
0010
0100
,  // measure 20
0010
0010
0010
0010
,  // measure 21
0110
1000
0001
0100
,  // measure 22
1000
0100
0010
0100
,  // measure 23
0001
0100
0010
1000
,  // measure 24
0001
0100
1000
0100
,  // measure 25
0010
0010
0100
0100
,  // measure 26
0001
0001
1000
1000
,  // measure 27
0010
0100
0001
1000
,  // measure 28
0020
0130
0010
0010
,  // measure 29
1000
0100
0010
0001
,  // measure 30
0001
0010
0100
1000
,  // measure 31
0010
0010
0100
0100
,  // measure 32
0020
0000
0000
0130
,  // measure 33
1000
0100
0010
0001
,  // measure 34
0010
0010
0001
0010
,  // measure 35
0200
0000
0000
0310
,  // measure 36
0010
0100
0001
1000
,  // measure 37
0110
0001
0010
0001
,  // measure 38
1000
0100
0010
0100
,  // measure 39
0100
1000
0100
0100
,  // measure 40
0010
0100
0010
0001
,  // measure 41
0010
0110
0100
0100
,  // measure 42
0010
1001
0010
0100
,  // measure 43
0100
0010
0001
0010
,  // measure 44
0100
0020
0100
0130
,  // measure 45
0010
0010
0001
0001
,  // measure 46
0100
0100
0010
1000
,  // measure 47
0010
0010
0100
0100
,  // measure 48
1000
0010
0100
0001
,  // measure 49
1000
0100
0010
0010
,  // measure 50
0100
0001
0100
0100
,  // measure 51
0010
0001
0010
0100
,  // measure 52
1000
0100
0001
0001
,  // measure 53
0010
0010
1000
0010
,  // measure 54
0100
0100
0001
0100
,  // measure 55
0010
0001
1000
0010
,  // measure 56
0100
0100
0020
0000
,  // measure 57
0130
0001
0010
1000
,  // measure 58
0010
1000
0100
0001
,  // measure 59
0100
0100
0010
0010
,  // measure 60
1000
1000
1000
1000
,  // measure 61
1001
0010
0100
1000
,  // measure 62
0010
0001
0010
0100
,  // measure 63
0010
1000
0010
0001
,  // measure 64
0100
0010
1000
0010
,  // measure 65
0100
0100
0001
0001
,  // measure 66
0010
0010
1000
1000
,  // measure 67
0010
0100
1000
0001
,  // measure 68
0200
0010
0310
0010
,  // measure 69
0001
0100
0010
1000
,  // measure 70
0010
0100
1000
0010
,  // measure 71
0100
0100
0001
0001
,  // measure 72
0200
0000
0310
0100
,  // measure 73
1000
1000
0010
0010
,  // measure 74
0100
0001
0100
0010
,  // measure 75
1000
0100
0010
0001
,  // measure 76
0001
0010
0100
1000
,  // measure 77
0010
0010
0100
0100
,  // measure 78
0010
1000
0100
0010
,  // measure 79
0001
0010
0100
1000
,  // measure 80
1000
0100
0010
0001
,  // measure 81
1001
0000
0000
0000
;
