#TITLE:First Love;
#SUBTITLE:;
#ARTIST:After School;
#TITLETRANSLIT:;
#SUBTITLETRANSLIT:;
#ARTISTTRANSLIT:;
#CREDIT:;
#BANNER:First Love banner.png;
#BACKGROUND:First Love bg.png;
#LYRICSPATH:;
#CDTITLE:;
#MUSIC:First Love.mp3;
#OFFSET:-10.720;
#SAMPLESTART:10.660;
#SAMPLELENGTH:15.000;
#SELECTABLE:YES;
#BPMS:0.000=90.000;
#STOPS:;
#BGCHANGES:;

//---------------dance-single - ----------------
#NOTES:
     dance-single:
     :
     Hard:
     8:
     0.412,0.377,0.118,0.205,0.406:
1000
0000
0100
0000
0001
0000
0010
0000
1000
0010
0000
0100
0000
0020
0000
0000
,
0030
0000
0001
0000
1000
0000
0010
0000
0100
0001
0000
1000
0000
0020
0000
0000
,
0030
0000
0001
0000
1000
0000
0100
0000
0010
1000
0000
0100
0000
0001
0000
0020
,
0000
0000
0030
0000
1100
0000
0000
0000
0010
0000
0001
0100
0000
0000
0100
0000
,
0001
0000
0010
0000
0100
0000
1000
0000
0010
0100
0000
0010
0000
0200
0000
0000
,
0300
0000
0001
0000
1000
0000
0100
0000
0001
1000
0000
0010
0000
0200
0000
0000
,
0300
0000
0010
0000
1000
0000
0010
0000
0100
0001
0000
1000
0000
0010
0000
0200
,
0000
0000
0300
0000
0011
0000
0000
0000
0010
0000
1000
0100
0000
0000
0200
0000
,
0000
0300
0010
0000
0010
0000
0100
0000
1000
0000
0001
0010
0000
0000
0100
1000
,
0100
0000
0010
0000
0100
0010
0000
0002
0000
0000
0000
0000
0010
0000
0013
0000
,
0100
0000
0000
0000
0010
0001
0010
0100
1000
0000
0010
0100
0000
0100
0010
0001
,
0010
0000
1000
0000
0010
0000
0100
0020
0000
0000
0100
0100
0000
0000
0100
0000
,
0030
0001
1000
0001
0010
0100
0010
1000
,
0101
0000
0010
0000
1000
0100
0000
0001
0000
0100
0020
0000
0030
0100
1000
0100
,
1000
0000
0010
0000
0100
0001
0000
0002
0000
0000
0000
0000
0010
0000
0010
0000
,
0103
0000
0010
0000
0100
0000
0001
1000
0000
0000
2000
0000
0000
0000
3100
0010
,
0100
0000
0010
0000
0001
0000
0100
0010
0000
0000
0010
0000
0100
0000
1000
0000
,
0110
0000
0001
0000
1000
0000
0100
0020
0000
0000
0000
0000
0130
1000
0100
0010
,
0001
0000
1000
0000
0010
0100
0000
0100
0000
0000
1001
0000
1001
0000
0100
0010
,
0100
0000
1000
0000
0001
0100
0000
0200
0000
0000
0010
0010
0300
0000
0010
0001
,
0010
0000
1000
0000
0100
0000
0001
0010
0000
0000
0010
0000
0100
0000
0010
1000
,
0010
0000
0001
0000
0100
0000
0010
2000
0000
0000
0000
0000
3100
0000
0010
0100
,
0010
0000
0001
0000
1000
0000
0100
0020
0000
0000
0000
0000
0130
0000
0001
0010
,
0100
0000
0000
0000
1000
0100
0000
0010
0000
0010
0000
0000
1001
0000
0110
0000
,
1001
0000
0000
0000
0010
0100
0000
0100
0010
0000
0001
1000
0000
1000
0000
0000
,
0100
0000
0000
0000
0001
0010
0100
1000
0100
0000
0010
0100
0000
0000
0100
0020
,
0000
0000
0000
0000
0130
0000
0001
1000
0001
0000
0100
0001
0000
0000
0001
0100
,
0000
0200
0000
1000
1000
0000
0010
0010
,
0310
0000
0000
0000
0001
1000
0000
1000
0001
0000
0100
0010
0000
0010
0000
0000
,
1001
0000
0000
0000
1000
0000
0100
0000
0001
0000
0010
0100
0000
0000
1000
0000
,
0110
0000
1000
0000
0100
0000
0001
0000
0010
0000
0000
0010
0000
0000
0100
0000
,
0000
0000
1000
0000
0010
0000
0100
0001
0000
0000
0010
0000
0100
0000
0010
0000
,
1100
0000
0001
0000
0010
0000
1000
0000
0001
0100
0000
0010
0000
2000
0000
0000
,
3000
0000
0001
0000
1000
0000
0100
0000
0010
0001
0000
0100
0000
2000
0000
0000
,
3000
0000
0100
0000
0010
0000
0100
0000
1000
0001
0000
0100
0000
0010
0000
2000
,
0000
0000
0000
0000
3010
0000
0000
0000
0100
0000
0001
0010
0000
0000
0010
0000
,
0101
0000
1000
0000
0100
0000
0001
0000
0100
0010
0000
0100
0000
0002
0000
0000
,
0003
0000
0100
0000
0010
0000
1000
0000
0100
0001
0000
1000
0000
0002
0000
0000
,
0003
0000
0010
0000
1000
0000
0100
0000
0001
1000
0000
0010
0000
0100
0000
0002
,
0000
0000
0000
0000
0013
0000
0000
0000
0100
0000
0010
1000
0000
0000
1000
0000
,
0110
0000
0000
0000
0001
0000
0000
0000
1000
0000
0000
0000
0110
0000
0001
0010
,
0001
0100
2000
0000
0100
0100
0100
0000
,
3010
0000
0100
0000
0001
0000
0010
1000
,
0100
0001
0020
0000
0030
0000
0000
0000
;

//---------------dance-single - ----------------
#NOTES:
     dance-single:
     :
     Medium:
     5:
     0.292,0.256,0.032,0.197,0.000:
1000
0100
0001
0000
0001
0100
2000
0000
,
3010
0100
0001
0000
0001
0100
0020
0000
,
0130
1000
0001
0000
0001
1000
0100
0010
,
0020
0000
0130
0000
0001
1000
1000
0000
,
0010
1000
0010
0000
1000
0010
2000
0000
,
3100
0010
0100
0000
0010
0100
0020
0000
,
0031
1000
0001
0000
1000
0001
1000
0100
,
0200
0000
0310
0000
0001
0010
0010
0000
,
0100
0010
0001
0000
0010
0100
0010
0000
,
1000
0000
0100
0010
0002
0000
0013
0000
,
0100
0000
0010
0000
1000
0100
0100
0000
,
0010
1000
0010
0000
0200
0000
0310
0000
,
1000
0001
0100
0010
,
1000
1000
0001
0001
0100
0200
0000
0310
,
0010
1000
0001
0100
,
1000
0100
0010
0001
0020
0000
0031
0000
,
0100
0000
0010
0000
1000
0001
0001
0000
,
0100
0010
0100
0000
2000
0000
3010
0000
,
0100
0100
0001
0000
0010
0010
1000
0000
,
0010
0100
0010
0000
0001
1000
2000
0000
,
3100
0000
0001
0000
0000
0100
0010
0100
,
0100
0001
2000
3000
,
0010
0000
0010
0000
0100
0001
0100
0000
,
0010
0000
1000
0100
0001
0000
0010
0100
,
0110
0000
0010
0000
0100
0000
0001
1000
,
0020
0000
0030
0000
0100
1000
0100
0000
,
0020
0000
0030
0000
0100
0001
0100
0000
,
0010
0000
2000
0000
3000
0000
0100
0100
,
0110
0000
1000
0000
0100
0000
0001
1000
,
0002
0000
0003
0000
0010
0100
0010
0000
,
1000
0100
0010
0001
,
0100
0000
0010
0100
0100
0000
0001
0100
,
0001
0000
0020
0000
0130
0001
0100
0010
,
0010
0000
2000
0000
3010
0100
0010
0010
,
0001
0000
2000
0000
3010
0100
1000
0100
,
0010
0000
0110
0000
0001
1000
1000
0000
,
0010
0000
0200
0000
0310
0001
1000
0010
,
0001
0000
0020
0000
0130
1000
1000
0001
,
1000
0000
0200
0000
1300
0001
1000
0001
,
0010
0000
0110
0000
1000
0001
0001
0010
,
0100
0000
0020
0000
0230
0000
0301
1000
,
1000
0010
0100
0000
0000
0000
0000
0000
,
1000
0000
0100
0000
0010
0000
1000
0010
,
0010
0100
0001
0000
0000
0000
0000
0000
;

//---------------dance-single - ----------------
#NOTES:
     dance-single:
     :
     Easy:
     3:
     0.200,0.189,0.079,0.126,0.000: // measure 1
1000
0010
0100
0100
,  // measure 2
0001
1000
0010
0010
,  // measure 3
0100
0001
0100
0100
,  // measure 4
0020
0000
0030
0100
,  // measure 5
0001
1000
0010
0010
,  // measure 6
0001
0100
0001
0001
,  // measure 7
0010
1000
0100
0100
,  // measure 8
2000
0000
3000
0100
,  // measure 9
0010
0100
0010
0010
,  // measure 10
0100
0001
0200
0300
,  // measure 11
0010
1000
0100
0001
,  // measure 12
0100
1000
0020
0030
,  // measure 13
0100
0001
0100
0100
,  // measure 14
0010
1000
0010
0010
,  // measure 15
1000
0100
0020
0030
,  // measure 16
0100
0010
0001
0020
,  // measure 17
0031
0100
0010
1000
,  // measure 18
0010
0100
0020
0030
,  // measure 19
0100
0100
0001
0000
,  // measure 20
1000
1000
0010
0000
,  // measure 21
0100
1000
0010
0100
,  // measure 22
0001
1000
0020
0030
,  // measure 23
0100
1000
0010
0000
,  // measure 24
0100
0001
0100
0010
,  // measure 25
1001
0010
0100
0010
,  // measure 26
2000
3000
0010
0010
,  // measure 27
0200
0300
0001
0001
,  // measure 28
0010
0200
0300
0001
,  // measure 29
1001
0010
0001
0100
,  // measure 30
0020
0030
0100
0001
,  // measure 31
0100
0100
0010
0010
,  // measure 32
1000
0100
0010
0001
,  // measure 33
1000
1100
0010
0011
,  // measure 34
0100
0010
1000
0100
,  // measure 35
0001
0011
0010
0110
,  // measure 36
2000
0000
3000
0010
,  // measure 37
0100
0110
1000
1001
,  // measure 38
0010
0100
0001
1000
,  // measure 39
0010
0110
0001
1001
,  // measure 40
0020
0000
0030
0100
,  // measure 41
0100
0010
0100
1000
,  // measure 42
0100
0002
0003
0000
,  // measure 43
0100
0001
0100
0010
,  // measure 44
1000
0020
0030
0000
;
