#TITLE:Find Me;
#SUBTITLE:;
#ARTIST:HYO SEONG;
#TITLETRANSLIT:;
#SUBTITLETRANSLIT:;
#ARTISTTRANSLIT:;
#CREDIT:;
#BANNER:Find Me banner.png;
#BACKGROUND:Find Me bg.png;
#LYRICSPATH:;
#CDTITLE:;
#MUSIC:Find Me.mp3;
#OFFSET:-8.100;
#SAMPLESTART:30.800;
#SAMPLELENGTH:15.000;
#SELECTABLE:YES;
#BPMS:0.000=124.040;
#STOPS:;
#BGCHANGES:;

//---------------dance-single - ----------------
#NOTES:
     dance-single:
     :
     Hard:
     8:
     0.476,0.450,0.249,0.104,0.237:
1000
0000
0001
0100
0000
0000
0010
0000
0100
0000
0000
0000
1000
0000
0000
0000
,
0010
0000
0000
0100
0000
0000
0010
0000
0000
0000
1000
0000
0100
0000
0010
0000
,
0001
0000
0100
0010
0000
0000
0010
0000
1000
0000
0000
0000
0100
0000
0000
0000
,
0011
0000
0000
0000
0001
0000
0000
0000
0010
0000
0000
0100
0000
0000
1000
0000
,
0010
0100
0010
0001
1000
0100
0010
0000
,
0100
0000
0000
0001
0000
0000
0100
0000
0000
0000
0010
0000
0100
0000
0010
0000
,
1000
0000
0010
0001
0000
0000
0001
0000
1000
0000
0000
0000
0010
0000
0000
0000
,
1100
0000
0000
0000
0010
0000
0000
0000
0100
0000
0000
0010
0000
0000
0001
0000
,
1000
0000
0100
0000
0010
0100
0010
0000
1000
0000
0000
0001
0000
0000
1000
0000
,
0010
0000
0000
0100
0000
0000
0010
0000
0000
0000
0001
0000
1000
0000
0100
0000
,
1000
0001
1000
0000
0010
0000
0100
0010
0000
0010
0100
0000
0002
0000
0000
0000
,
0010
0000
0100
0000
0013
0000
1000
0100
,
1001
0000
0000
0000
0110
0000
0000
1000
0001
0000
0010
0000
1000
0000
0100
0000
,
0010
0000
0000
0000
0011
0000
0000
0010
0100
0000
1000
0000
0010
0000
0100
0000
,
0001
0000
0000
0000
1100
0000
0000
0010
0100
0000
0010
0000
1000
0000
0100
0000
,
0002
0000
0013
0000
0100
0100
1000
0010
,
1001
0000
0000
0000
1100
0000
0000
0001
1000
0000
0100
0000
1000
0000
0010
0000
,
0001
0000
0000
0000
0110
0000
0000
1000
0010
0000
0100
0000
1000
0000
0001
0000
,
0100
0000
0000
0000
0011
0000
0000
1000
0100
0000
0010
0000
0100
0000
0001
0000
,
0020
0000
0130
0000
0001
1000
0100
1000
,
0001
0000
0010
0001
0000
0001
0010
0000
1000
0000
0100
0000
0010
0000
0002
0000
,
0003
0000
1000
0100
0000
0100
1000
0000
0010
0000
0100
0000
0001
0000
0020
0000
,
0030
0000
0100
0010
0000
0010
0100
0000
0001
0000
1000
0000
0010
0000
1000
0000
,
0100
0010
0100
0010
,
1000
0000
0010
1000
0000
1000
0010
0000
0100
0000
0001
0000
1000
0000
0020
0000
,
0030
0000
0100
0001
0000
0001
0100
0000
0010
0000
1000
0000
0100
0000
2000
0000
,
3000
0000
0001
1000
0000
1000
0001
0000
0010
0000
1000
0000
0010
0000
0100
0000
,
0001
1000
0001
1000
,
0010
0000
1000
0100
0000
0000
0001
0000
0100
0000
0000
0000
0010
0000
0000
0000
,
1000
0000
0000
0001
0000
0000
1000
0000
0000
0000
0010
0000
1000
0000
0010
0000
,
0100
0000
0001
1000
0000
0000
0010
0000
1000
0000
0000
0000
0100
0000
0001
0000
,
0002
0000
0000
0000
0010
0000
0000
0000
0103
0000
0000
0100
0000
0000
1000
0000
,
0010
0000
0100
0001
0000
0000
0001
0000
1000
0000
0001
0000
1000
0000
0000
0000
,
0110
0000
0000
0110
0000
0000
0110
0000
0000
0000
1000
0000
0100
0000
0001
0000
,
0100
0000
0010
1000
0000
0000
0100
0000
0010
0000
0100
0000
0001
0000
0000
0002
,
0000
0013
0200
0300
,
0110
0010
1000
0001
0100
0010
1000
0000
,
0011
0000
0000
0110
0000
0000
1100
0000
0000
0000
0010
0000
0100
0000
1000
0000
,
0001
0000
0100
0010
0000
0000
1000
0000
0010
0000
0000
0000
0010
0000
0000
0000
,
2000
0000
0000
0000
3100
0000
0000
0000
0001
0000
0000
1000
0000
0000
0001
0000
,
1100
0000
0010
0000
0100
0000
0010
0000
0001
0000
0000
0001
0000
0000
0010
0000
,
1100
0000
0000
0110
0000
0000
0011
0000
0000
0000
0100
0000
0010
0000
1000
0000
,
0100
0001
0100
0000
0010
0000
0010
1000
0000
1000
0010
0000
0200
0000
0000
0000
,
0310
0001
1000
0010
0100
0000
0100
0010
,
1001
0000
0000
0000
0110
0000
0000
0001
1000
0000
0010
0000
1000
0000
0100
0000
,
0010
0000
0000
0000
1100
0000
0000
0010
0100
0000
0010
0000
0001
0000
1000
0000
,
0010
0000
0000
0000
0101
0000
0000
0010
1000
0000
0100
0000
0010
0000
0001
0000
,
0100
0000
0010
0000
0100
0000
0010
0001
,
1010
0000
0000
0000
0101
0000
0000
1000
0010
0000
0100
0000
0010
0000
0001
0000
,
1000
0000
0000
0000
0110
0000
0000
1000
0001
0000
0010
0000
1000
0000
0010
0000
,
0100
0000
0000
0000
0011
0000
0000
0100
0010
0000
1000
0000
0100
0000
0010
0000
,
0001
0000
0010
0000
1000
0100
0010
0001
,
1001
0000
0010
0100
0000
0100
0010
0000
1000
0000
0100
0000
0001
0000
0020
0000
,
0030
0000
0100
0001
0000
0001
0100
0000
0010
0000
1000
0000
0010
0000
0100
0000
,
0001
0000
0010
1000
0000
1000
0010
0000
0100
0000
0001
0000
1000
0000
0100
0000
,
0010
0100
0010
0100
,
1001
0000
0000
0000
;

//---------------dance-single - ----------------
#NOTES:
     dance-single:
     :
     Medium:
     5:
     0.329,0.315,0.112,0.104,0.000:
1000
0100
0020
0030
,
0100
0000
0001
0000
0100
0000
0010
0010
,
0100
0001
0200
0300
,
0110
0000
1000
0001
,
1000
0000
0010
0000
0100
1000
0100
0000
,
0010
0000
0100
0001
0000
0010
0100
0000
,
0010
0000
0001
0100
0001
0000
0010
0000
,
0100
0010
1000
0001
,
0100
0000
0010
0010
0100
0000
0001
0000
,
1000
0000
0100
0010
0000
0010
0001
0000
,
0010
0000
0100
0000
0001
0100
0001
0000
,
0010
0100
2000
3100
,
1001
0110
0010
0100
,
0110
1001
0010
0001
,
1100
0000
0011
0000
0100
0000
0010
0100
,
1000
0000
0010
0000
0100
0000
0001
0100
,
0001
0000
0010
0000
0100
0000
0010
1000
,
0010
0000
0100
0000
1000
0000
0001
0100
,
0001
0000
0010
0000
0100
0000
0010
1000
,
0010
0100
1000
0010
,
0100
0000
1000
0000
0100
0010
0002
0000
,
0013
0000
0100
0000
0010
0100
2000
0000
,
3010
0000
0100
0000
0010
0000
1000
0001
,
1000
1000
1000
1000
,
0010
0000
0100
0000
0001
0010
0200
0000
,
0310
0000
1000
0000
0010
0100
0020
0000
,
0031
0000
0100
0000
0010
1000
0010
1000
,
0010
0010
0010
0010
,
1000
0001
2000
3000
,
0010
0100
0001
0100
,
0010
0001
0200
0300
,
0010
0000
0000
0000
0100
0000
0100
0010
,
0010
0000
1000
0000
0001
0100
0001
0000
,
0010
0000
1000
0010
0000
0010
1000
0000
,
0100
0000
1000
0000
0010
0100
0010
0000
,
1000
0100
0020
0030
,
1001
0000
1000
0000
0100
0010
0010
0000
,
0100
0000
0001
0010
0000
0010
0100
1000
,
0100
0000
0010
0000
0100
0010
0100
0000
,
1000
0000
0001
0000
0100
0010
0001
0000
,
0100
0010
0100
0000
1000
0001
1000
0000
,
0010
0000
1000
0010
0000
0010
0001
0000
,
0100
1000
0100
0000
0010
0001
0010
0000
,
1100
0100
0020
0030
,
1001
0110
0010
0001
,
0110
1001
0010
0100
,
0001
0000
1000
0000
0010
0000
0100
0100
,
1000
0000
0010
0000
0100
0000
0001
0010
,
0001
0000
0100
0000
0010
0000
1000
0010
,
1000
0000
0100
0000
0010
0000
1000
0001
,
1000
0000
0010
0000
0001
0000
0100
0010
,
0100
0000
0001
0000
0100
0010
0010
0100
,
0010
0000
1000
0000
0010
0100
0020
0000
,
0031
0000
0100
0000
0010
1000
0200
0000
,
0310
0000
1000
0000
0100
0000
0010
0001
,
0010
0100
0010
1000
,
1001
0000
0000
0000
;

//---------------dance-single - ----------------
#NOTES:
     dance-single:
     :
     Easy:
     2:
     0.263,0.247,0.080,0.056,0.000: // measure 1
0010
0010
0020
0030
,  // measure 2
0100
0100
0001
1000
,  // measure 3
0100
0100
0200
0300
,  // measure 4
0010
0000
0010
0100
,  // measure 5
0001
1000
0010
0010
,  // measure 6
1000
0100
0001
0100
,  // measure 7
0010
1000
0200
0300
,  // measure 8
0001
0010
0001
0001
,  // measure 9
0010
0100
0010
1000
,  // measure 10
0100
0100
1000
0010
,  // measure 11
0100
0100
0010
0100
,  // measure 12
0010
1000
0000
0000
,  // measure 13
1001
1001
0010
0100
,  // measure 14
0010
0001
0100
0010
,  // measure 15
1000
0010
0010
0100
,  // measure 16
0001
0010
0100
1000
,  // measure 17
0110
0110
1000
0100
,  // measure 18
0001
0100
0010
1000
,  // measure 19
0010
0001
0100
0010
,  // measure 20
1000
1000
1000
1000
,  // measure 21
0010
0100
0010
0010
,  // measure 22
0001
0100
0001
0001
,  // measure 23
0010
1000
0100
0100
,  // measure 24
0010
0010
0010
0010
,  // measure 25
1000
0100
0001
0001
,  // measure 26
0010
0100
1000
1000
,  // measure 27
0010
0100
0010
1000
,  // measure 28
0100
0100
0100
0100
,  // measure 29
0010
0010
0002
0003
,  // measure 30
0010
0100
0010
1000
,  // measure 31
0010
1000
2000
3000
,  // measure 32
0100
0000
0001
0001
,  // measure 33
0100
0010
1000
1000
,  // measure 34
0100
0010
0001
0010
,  // measure 35
0100
1000
0001
0001
,  // measure 36
0010
0100
0010
0000
,  // measure 37
0110
1000
0100
0010
,  // measure 38
0001
0100
0010
1000
,  // measure 39
0010
0010
0001
0000
,  // measure 40
0100
0010
1000
0010
,  // measure 41
0100
1000
0010
0100
,  // measure 42
0001
0001
0001
0001
,  // measure 43
0010
0100
0010
1000
,  // measure 44
0010
0010
0000
0000
,  // measure 45
1001
1001
0010
0001
,  // measure 46
0100
0010
1000
0010
,  // measure 47
0100
1000
0010
0100
,  // measure 48
1000
1000
1000
1000
,  // measure 49
0110
0110
1000
0010
,  // measure 50
0100
0001
0100
0010
,  // measure 51
1000
0100
0010
0100
,  // measure 52
0010
0010
0010
0010
,  // measure 53
0100
0001
0100
0020
,  // measure 54
0130
1000
0100
0020
,  // measure 55
0130
0001
0100
0010
,  // measure 56
1000
0100
0010
0001
,  // measure 57
1001
0000
0000
0000
;
