#TITLE:Fantasy;
#SUBTITLE:;
#ARTIST:FEI;
#TITLETRANSLIT:;
#SUBTITLETRANSLIT:;
#ARTISTTRANSLIT:;
#CREDIT:;
#BANNER:Fantasy banner.png;
#BACKGROUND:Fantasy bg.png;
#LYRICSPATH:;
#CDTITLE:;
#MUSIC:Fantasy.mp3;
#OFFSET:-17.500;
#SAMPLESTART:50.340;
#SAMPLELENGTH:15.000;
#SELECTABLE:YES;
#BPMS:0.000=115.020;
#STOPS:159.667=0.520
;
#BGCHANGES:;

//---------------dance-single - ----------------
#NOTES:
     dance-single:
     :
     Hard:
     8:
     0.469,0.443,0.315,0.157,0.726:
1001
0000
0010
0100
0000
0001
0010
0000
0000
1000
0000
0001
,
0010
0200
0000
0301
0000
0000
1000
0000
0000
0001
0000
0010
,
1000
0100
0001
0010
0000
1000
0100
0000
0000
0100
0000
0001
,
0010
2000
0000
3100
0000
0000
0010
0000
0000
0100
0010
0001
,
0010
0100
1000
0010
0100
0002
0000
0000
0003
0100
1000
0001
,
0010
0100
0010
1000
0001
2000
0000
0000
3000
0010
0000
0010
,
0100
0001
0100
0010
0000
1000
0010
0000
0100
0001
0000
0010
,
0100
1000
0000
0001
0000
0000
1000
0001
1000
0001
1000
0001
,
1000
0000
0100
0010
0000
0001
0010
0000
0000
0010
0000
1000
,
0100
0020
0000
0031
0000
0000
1000
0000
0000
0010
0000
1000
,
0100
0001
0010
0100
0000
0001
1000
0000
1000
0010
0000
0001
,
0010
0200
0000
1300
0000
0000
0010
0000
0000
0100
0001
0010
,
0001
1000
0010
0100
0001
2000
0000
0000
3000
0100
0001
0010
,
1000
0100
0001
0100
0010
0002
0000
0000
0003
1000
0000
0100
,
0010
0001
0020
0000
0000
0130
1000
0000
0000
0001
0000
0100
,
0010
0000
0100
0000
0001
0000
1000
0000
0001
0000
1000
0000
0001
0000
0010
0100
0010
0000
1000
0000
0000
0000
0010
0000
,
1001
0000
0000
1001
0000
0010
0100
0010
1000
0100
0000
0001
,
0100
0000
0000
1010
0000
0000
0100
0000
0000
0011
0000
1000
,
0100
0000
0000
0011
0000
0100
0010
0001
0100
0010
0000
1000
,
0001
0000
0002
0000
0000
1003
0010
0000
0000
0100
0010
1000
,
0001
0000
0010
1000
0000
2000
0000
3000
0000
0100
0001
1000
,
0010
0000
0100
0001
0000
0020
0000
0030
0000
0100
0000
0001
,
0010
0000
1000
0000
0010
0000
0100
0000
0000
0010
0000
1000
,
0100
0000
0001
0000
1000
0000
0110
0000
0000
0001
0000
1000
,
1001
0000
0000
1001
0000
0010
0100
1000
0010
0100
0000
0001
,
0010
0000
0000
1100
0000
0000
0010
0000
0000
1100
0000
0100
,
0010
0000
0000
0001
0000
0010
0100
1000
0100
0010
0000
0100
,
0010
0000
0001
1000
0000
1000
0001
0000
0000
0010
0100
0010
,
0100
0000
1000
0100
0000
0200
0000
0300
0000
0001
0010
0100
,
1000
0000
0100
0001
0000
0020
0000
0030
0000
1001
0000
0100
,
0110
0000
1001
0000
1100
0000
0011
0000
0000
0010
0000
0100
,
1100
0000
0110
0000
0011
0000
1001
0000
0000
0110
0000
0000
,
2000
0000
0000
3100
0000
0010
0010
0000
0001
0100
0000
0100
,
0000
0000
0010
1000
0000
1000
0010
0000
0010
0000
0100
0001
,
0100
0000
0000
0010
0000
1000
0001
0000
0001
0000
0000
0010
,
0000
0000
0100
0010
0000
1000
0001
0000
0000
0010
0000
1000
,
0000
0000
0110
0000
0000
1001
0000
0000
0010
0100
0000
0001
,
0000
0000
0001
0010
0000
0010
0100
0000
0100
1000
0000
1000
,
0100
0000
0000
0110
0000
0000
1000
0000
0001
0010
0000
0200
,
0000
0000
0000
0000
0000
0000
0000
0000
0300
0000
1001
0000
0000
0000
0000
0000
0011
0000
0000
0000
0001
0010
0100
0000
,
1001
0000
1000
0100
0010
0001
0010
0000
0100
0010
0000
0000
,
1001
0000
0000
0011
0000
0000
0010
0000
0100
0010
0000
0000
,
0010
0000
0100
0001
1000
0100
0010
0000
0100
0010
0000
0010
,
0000
0000
1000
1000
0000
0000
0100
0001
0010
0100
0000
0010
,
0100
0000
0200
0000
0000
0300
0010
0001
1000
0010
0000
0010
,
0100
0000
0002
0000
0000
0003
0010
0000
0100
0010
0000
1000
,
0000
0010
0000
0110
0000
0000
1001
0000
0010
0100
0000
1000
,
0000
0100
0000
0011
0000
0010
0100
0010
0100
0001
0000
0010
,
0100
0000
0100
1000
0010
0100
0010
0000
0010
0100
0000
0000
,
1001
0000
0000
1100
0000
0100
0010
0000
0010
0100
0000
0000
,
0110
0000
0001
1000
0001
0100
0010
0000
1000
0010
0000
0020
,
0000
0000
0130
0100
0000
0000
0001
0010
0100
1000
0000
1000
,
0100
0000
0200
0000
0000
0300
1000
0100
0010
0001
0000
0001
,
0010
0000
0020
0000
0000
0030
0100
0000
1000
1001
0000
1100
,
0000
0110
0000
1001
0000
0000
0110
0000
1000
0101
0000
0110
,
0000
1100
0000
1001
0000
0000
0010
0000
0010
0200
0000
0000
,
0000
0300
0000
0000
;

//---------------dance-single - ----------------
#NOTES:
     dance-single:
     :
     Easy:
     3:
     0.234,0.219,0.064,0.122,0.000: // measure 1
0010
0100
0001
0010
,  // measure 2
2000
3000
0100
0100
,  // measure 3
0001
0010
1000
0010
,  // measure 4
0002
0003
0100
0100
,  // measure 5
0010
0010
2000
3010
,  // measure 6
0100
0001
2000
3010
,  // measure 7
0001
0100
0010
0001
,  // measure 8
1000
0100
0010
0001
,  // measure 9
0100
0010
1000
0100
,  // measure 10
0002
0003
0010
0100
,  // measure 11
0010
0001
1000
0010
,  // measure 12
0200
0300
1000
0100
,  // measure 13
0010
0100
0002
0013
,  // measure 14
1000
0010
0200
0310
,  // measure 15
1000
0100
0001
0100
,  // measure 16
1000
0100
0010
0001
,  // measure 17
1002
0000
0013
0010
,  // measure 18
0100
0001
1000
0010
,  // measure 19
0210
0000
0310
0001
,  // measure 20
1000
0100
0010
0100
,  // measure 21
0001
0001
0010
0010
,  // measure 22
0100
0100
1000
1000
,  // measure 23
0010
0100
0001
1000
,  // measure 24
1000
0001
0100
0010
,  // measure 25
2100
0000
3010
0010
,  // measure 26
0100
0001
0010
1000
,  // measure 27
0012
0000
0013
0010
,  // measure 28
0100
1000
0001
0100
,  // measure 29
1000
1000
0100
0100
,  // measure 30
0010
0010
0001
0001
,  // measure 31
0100
0010
0001
1000
,  // measure 32
0010
1000
0200
0300
,  // measure 33
0010
0000
0100
0000
,  // measure 34
0001
0000
1000
0100
,  // measure 35
0010
0000
1000
0000
,  // measure 36
0001
0010
0100
0010
,  // measure 37
1000
0000
0001
0000
,  // measure 38
1000
0000
0100
0100
,  // measure 39
0020
0000
1030
0100
,  // measure 40
0002
0000
0013
0010
,  // measure 41
0110
0010
0010
1000
,  // measure 42
0100
0010
0001
1001
,  // measure 43
0010
0100
0010
1000
,  // measure 44
0100
0010
1000
0001
,  // measure 45
0001
0100
0100
0010
,  // measure 46
0010
1000
1000
0010
,  // measure 47
0100
0001
0100
0010
,  // measure 48
1000
0100
0010
2001
,  // measure 49
0000
3010
0010
0100
,  // measure 50
0001
0100
0010
0120
,  // measure 51
0000
0130
0100
1000
,  // measure 52
0100
0010
0001
0100
,  // measure 53
0100
0010
0010
0001
,  // measure 54
0001
1000
1000
0100
,  // measure 55
1000
0010
0001
0100
,  // measure 56
0010
0100
0010
0110
;

//---------------dance-single - ----------------
#NOTES:
     dance-single:
     :
     Medium:
     6:
     0.278,0.239,0.122,0.129,0.147:
1000
0100
0010
0100
,
0001
0000
0000
0001
0000
0000
1000
0000
0000
1000
0000
0010
,
0100
1000
0001
0100
,
0010
0000
0000
0010
0000
0000
0100
0000
0000
0100
0000
0001
,
0010
0000
0000
0010
0000
0020
0000
0000
0030
1000
0000
0000
,
1000
0000
0000
0100
0000
0020
0000
0000
0030
0001
0000
0000
,
0110
0001
0010
0100
,
0020
0030
1000
1000
,
0100
0010
1000
0001
,
0100
0000
0000
0100
0000
0000
0010
0000
0000
0010
0000
1000
,
0100
0001
0100
0010
,
1000
0000
0000
1000
0000
0000
0001
0000
0000
0001
0000
0010
,
1000
0000
0000
0100
0000
0002
0000
0000
0003
0010
0000
0000
,
0100
0000
0000
0001
0000
2000
0000
0000
3000
0100
0000
0000
,
0010
0100
0001
1000
,
0010
0000
0000
0100
0000
0000
0010
0000
0100
0010
0000
0100
,
0010
1001
0100
1001
,
0010
0001
1000
0100
,
0100
1001
0010
1001
,
1000
0100
0010
0001
,
1000
0000
0000
0010
0000
0200
0000
0000
0300
0001
0000
0000
,
0010
0000
0000
1000
0000
0002
0000
0000
0003
0010
0000
0000
,
1000
0000
0100
0000
0010
0000
0001
0000
0000
0010
0000
0000
,
1000
0000
0001
0000
0100
0000
0010
0000
0000
0100
0000
0010
,
0100
0011
0100
1100
,
0010
0100
1000
0001
,
1000
1100
0010
0011
,
0100
0010
1000
0001
,
1000
0000
0000
0010
0000
2000
0000
0000
3000
0100
0000
0000
,
0010
0000
0000
1000
0000
0002
0000
0000
0003
0100
0000
0000
,
0010
0000
0100
0000
0010
0000
0100
0000
0000
0001
0000
0000
,
1000
0000
0001
0000
1000
0000
0001
0000
0000
0010
0000
0000
,
2000
0000
3100
0010
,
0100
0100
0001
0100
,
0002
0000
0013
0010
,
1000
0100
0010
0001
,
0100
0002
0000
0013
,
0100
0001
1000
0010
,
0200
0000
0300
0010
,
2000
0000
3000
0010
,
0110
1000
1001
0010
,
0010
0100
0001
1000
,
1010
0100
0101
0010
,
1000
0000
0000
0001
0000
0000
0100
0000
0000
0010
0000
0001
,
1000
0000
0002
0000
0000
0003
0010
0000
0000
0100
0000
0001
,
0010
0000
2000
0000
0000
3000
0100
0000
0000
0010
0000
1000
,
0000
0001
0000
0100
0000
0000
0010
0000
0000
1000
0000
0001
,
0000
0100
0000
0001
0000
0000
0010
0000
0010
0100
0000
0000
,
0101
0010
0101
0010
,
1000
0010
0100
0010
,
1100
0010
1100
0010
,
0100
0000
0000
0001
0000
0000
1000
0000
0000
0010
0000
0100
,
0001
0000
0002
0000
0000
0003
0010
0000
0000
0100
0000
0010
,
1000
0000
2000
0000
0000
3000
0100
0000
0000
0010
0000
1000
,
0000
0001
0000
0001
0000
0000
0010
0000
0000
0100
0000
0001
,
0000
0010
0000
0100
0000
0000
0010
0000
0100
0010
0000
0000
;
