#TITLE:Excuse Me;
#SUBTITLE:;
#ARTIST:BESTie;
#TITLETRANSLIT:;
#SUBTITLETRANSLIT:;
#ARTISTTRANSLIT:;
#CREDIT:;
#BANNER:Excuse Me banner.png;
#BACKGROUND:Excuse Me bg.png;
#LYRICSPATH:;
#CDTITLE:;
#MUSIC:Excuse Me.mp3;
#OFFSET:-5.700;
#SAMPLESTART:67.480;
#SAMPLELENGTH:15.000;
#SELECTABLE:YES;
#BPMS:0.000=100.000,104.000=200.000,168.000=100.000,200.000=200.000,264.000=100.000;
#STOPS:167.917=0.020
;
#BGCHANGES:;

//---------------dance-single - ----------------
#NOTES:
     dance-single:
     :
     Hard:
     8:
     0.552,0.589,0.304,0.023,0.236:
1000
0010
0100
0000
0001
0010
1000
0100
,
0100
0010
1000
0010
0200
0000
0000
0310
,
0010
1000
0001
0000
0010
0100
0010
0000
,
1000
0100
0010
0001
0020
0000
0130
0000
,
1100
0100
0110
0001
0010
1000
0010
0100
,
0101
0100
0110
0100
1000
0100
0010
0000
,
1000
0000
0010
0100
0100
0001
0100
0000
,
0001
0000
0010
0000
0100
0000
0010
1000
,
0011
0000
0000
0100
0000
0000
0010
0000
1010
0000
0000
0100
0000
0000
0001
0100
,
0001
0000
0010
0000
1000
0000
0010
0000
0100
0000
0000
0100
0000
0000
0010
0000
,
1100
0000
0000
0010
0000
0000
0100
0000
1001
0000
0000
0010
0000
0000
0100
0001
,
0100
0000
0010
0000
1000
0000
0010
0100
0010
0000
0000
0100
0010
0001
0010
1000
,
0101
0000
0000
0100
0000
0000
0010
0000
0000
0100
0000
0000
0001
0010
0100
1000
,
0001
0000
0000
0001
0000
0000
0001
0000
0000
0000
0010
0000
0110
0000
1000
0000
,
0011
0000
0000
0100
0000
0000
0010
0000
0110
0000
0000
1000
0000
0000
0100
0000
,
1000
0000
0010
0000
0100
0000
0001
0020
0000
0000
0000
0000
0130
0000
1000
0000
,
0110
0000
1000
0000
0001
0000
0010
0000
0100
0000
0010
0000
0001
0000
1000
0010
,
1000
0000
0010
0000
0100
0000
0001
1000
0000
0000
0010
0000
0010
0000
0100
0000
,
0011
0000
0100
1000
0000
0000
0100
0000
0010
0000
0100
0001
0000
0000
0100
0010
,
0100
0000
1000
0000
0001
0000
0010
0100
0000
0000
1000
0000
1000
0000
0010
0000
,
0110
0010
0011
0010
0100
1000
0100
0010
,
1001
0010
1001
0010
0001
0100
0010
1000
,
0001
0000
0000
0010
0000
0000
0100
0010
0100
0000
1000
0001
0000
0000
0001
0010
,
0100
0000
1000
0000
0010
0000
0100
0010
0000
0000
0010
0000
1100
0000
1100
0000
,
0010
0000
0001
1000
0000
1000
0001
0000
0010
0000
0100
1000
0000
1000
0100
0000
,
0010
0000
0100
0001
0000
0001
0100
0000
0010
0000
0110
0000
1000
0001
0000
0010
,
1001
0000
0100
0010
0000
0010
0001
0010
,
0100
0000
1000
0000
0010
0100
1000
0100
,
0001
0000
0100
0010
0000
0010
1000
0001
,
0010
0000
0100
0000
0001
0010
1000
0100
,
0000
0010
1000
0010
0000
0100
0010
0100
,
0000
0001
1000
0001
0000
0010
0001
0010
,
0100
1000
0100
0010
0100
0010
0001
0000
,
0100
0000
0010
0000
1000
0100
0001
0010
,
1100
0000
0010
0100
0000
1000
0100
0010
,
0001
0000
0010
0000
0001
0100
0001
0010
,
0100
0000
1000
0010
0000
0001
0010
0100
,
0010
0000
1000
0000
0010
0000
0100
1000
,
0100
0010
0110
0001
,
0110
0000
0010
0000
1000
0001
0000
0010
,
0100
0000
0010
0000
1000
0001
0000
0001
,
0000
0010
0100
1000
0100
0010
0001
0010
,
0100
0000
1000
0001
1000
0000
0010
0000
0100
0000
0001
0100
0000
0000
0000
0000
,
1010
0000
0001
0100
0001
0000
0010
0000
1000
0000
0010
0100
0000
0000
0010
0000
,
0001
0000
1100
0000
0000
0110
0000
0000
0010
0000
0100
0001
0000
0000
0010
0000
,
0100
0000
0011
0000
0000
0110
0000
0000
0100
0000
0010
1000
0000
0000
0100
0000
,
1001
0000
0010
0100
0010
0000
1000
0000
0001
0000
0100
0010
0000
0000
0010
0000
,
1010
0000
0100
0001
0100
0000
0010
0000
1000
0000
0001
0100
0000
0000
0010
0000
,
0001
0000
1100
0000
0000
0110
0000
0000
0100
0000
0001
0100
0000
0100
0001
0000
,
0010
0000
0101
0000
0000
0010
0000
0000
0100
0000
1000
0000
0010
0100
0000
0100
,
1001
0000
0010
1000
0000
1000
0010
0100
,
0001
0000
0010
0000
0100
0001
0010
1000
,
0010
0000
0100
0001
0000
0001
0100
0010
,
0100
0000
1000
0000
0010
0100
1000
0100
,
0000
0001
0100
1000
0000
0010
0100
1000
,
0000
0100
0010
1000
0000
0100
0010
0001
,
0100
0001
0010
1000
0010
0100
0001
0000
,
1000
0000
0010
0000
0100
0001
0010
1000
,
0011
0000
0100
0001
0000
0001
0100
0010
,
0100
0000
0010
0000
1000
0100
0010
0100
,
0010
0000
1000
0001
0000
0001
0010
0100
,
0010
0000
1000
0000
0010
0000
0100
1000
,
0100
0010
0101
0010
,
0101
0000
0010
0000
1000
0100
0010
0001
,
0010
0000
0100
0000
1000
0010
0100
1000
,
0001
0010
0100
1000
0100
0010
0001
0010
,
0100
0000
1000
0000
0100
0010
0000
0010
0000
0001
0000
0010
1000
0000
0010
0000
,
0100
0000
0001
0000
0100
0010
0000
0110
0000
0000
0000
0000
0000
0000
0000
0000
;

//---------------dance-single - ----------------
#NOTES:
     dance-single:
     :
     Medium:
     5:
     0.364,0.359,0.106,0.061,0.000:
1000
0000
0010
0000
0100
0001
0100
0000
,
0010
1000
0010
0000
0200
0000
0000
0300
,
0010
0000
1000
0000
0100
1000
0100
0000
,
0010
0000
0001
0001
0002
0000
0000
0003
,
0010
0000
0100
0000
0010
1000
0010
0000
,
0100
0000
1000
0000
0001
0100
0001
0000
,
0010
0000
1000
0000
0100
0100
0100
0000
,
1000
0100
0010
0001
,
1001
0000
0100
0010
0100
0000
1000
0000
,
0110
0000
1000
0100
1000
0000
0001
0000
,
0100
0000
0001
0010
0001
0000
0110
0000
,
1000
0000
0010
0100
0010
0000
0100
0000
,
2000
0000
3001
0010
0000
0010
0100
0000
,
0120
0000
1030
0010
0000
0010
0100
0000
,
0001
0010
0100
0100
,
0010
1000
0010
0100
0020
0000
0030
0000
,
0100
0000
0001
0000
0010
0001
0010
0000
,
0100
0100
0100
0000
0010
0000
1000
0000
,
0010
0000
1000
0000
0100
1000
0010
0000
,
0100
0100
0100
0000
0001
0000
0010
0000
,
0100
1000
0010
0001
,
0100
0000
0100
0000
0010
0100
0010
0000
,
0001
0000
0100
0000
0010
0010
0010
0000
,
1000
0100
0001
0010
,
0100
0000
1000
1000
1000
0000
0010
0010
,
0010
0000
0100
0100
0100
0000
0001
0000
,
1001
0010
0010
0100
,
1000
0000
0001
0000
0100
0010
0100
0000
,
0010
1000
0100
1000
,
0010
0000
0100
0000
0001
0010
0001
0000
,
0020
0130
0002
0013
,
0200
1300
0010
0010
,
0100
1000
0010
0100
,
0010
0000
0010
0000
0100
0001
0100
0000
,
0010
1000
0001
0010
,
0100
0000
0010
0000
0100
1000
0100
0000
,
0010
1000
0010
0001
,
0010
0000
0100
0000
0010
0000
0100
0100
,
0100
0000
0011
0000
,
1100
0000
0000
0000
0010
0010
0010
0000
,
0100
0001
0010
1000
,
0001
0000
0010
0000
0100
0000
0001
0010
,
0001
0010
0100
0010
0100
0000
1000
0000
,
0001
0010
0001
0100
1000
0000
0010
0000
,
0100
0000
1000
0010
0000
0010
0100
0000
,
0010
0000
1000
0001
0000
0001
1000
0000
,
0010
0000
0100
0000
0010
0010
0010
0000
,
0001
0000
0100
0000
0010
0010
0010
0000
,
1000
0100
0010
0001
,
1001
0000
0110
0000
0001
0001
0010
0010
,
0100
0001
0100
1000
,
0010
0000
0100
0000
0010
0000
0100
0100
,
0100
0001
1000
0010
,
1000
0000
0010
0000
0001
0000
0100
0010
,
0100
1000
0010
0100
,
0001
0010
0001
0001
,
0010
0100
0010
1000
,
0110
0000
0110
0000
1000
0001
1000
0000
,
0010
1000
0010
0100
,
0001
0000
0010
0000
0100
0010
0100
0000
,
0010
1000
0100
1000
,
0100
0000
0100
0000
0010
0001
0010
0000
,
0110
0000
1100
0000
,
0110
0000
0000
0000
0001
0001
0001
0000
,
0010
0100
1000
0010
,
0100
0001
0010
0100
,
0010
0010
0010
0000
0100
0100
0100
0000
,
0001
0001
0001
0001
0010
0000
0000
0000
;

//---------------dance-single - ----------------
#NOTES:
     dance-single:
     :
     Easy:
     3:
     0.235,0.282,0.076,0.076,0.000: // measure 1
1000
0100
0010
0010
,  // measure 2
0100
0001
0200
0300
,  // measure 3
0001
0100
0010
0010
,  // measure 4
1000
0100
0002
0003
,  // measure 5
0010
0010
0100
0100
,  // measure 6
0001
0001
1000
1000
,  // measure 7
0100
0010
0001
1000
,  // measure 8
0001
0010
0100
1000
,  // measure 9
0010
0110
0001
0101
,  // measure 10
0010
1000
0010
0100
,  // measure 11
0010
1100
0100
1001
,  // measure 12
0010
0100
0010
0010
,  // measure 13
0001
0010
0100
0100
,  // measure 14
0010
1000
0020
0130
,  // measure 15
0002
0003
2000
3000
,  // measure 16
0010
0010
0020
0030
,  // measure 17
0100
0001
0100
0100
,  // measure 18
0010
1000
0010
0000
,  // measure 19
0001
0100
0010
0010
,  // measure 20
1000
0100
1000
0000
,  // measure 21
0010
0001
0010
0010
,  // measure 22
0001
0100
1000
1000
,  // measure 23
0010
0100
1000
0100
,  // measure 24
0001
0100
0010
0100
,  // measure 25
0001
0001
0010
0010
,  // measure 26
0100
0100
1000
1000
,  // measure 27
0010
0000
0010
0000
,  // measure 28
0100
0000
0100
0000
,  // measure 29
0001
0000
0010
0000
,  // measure 30
1000
0000
0010
0000
,  // measure 31
0100
0000
0100
0000
,  // measure 32
0001
0000
0100
0000
,  // measure 33
0010
0000
1000
0000
,  // measure 34
1001
0000
1001
0000
,  // measure 35
0010
0000
1000
0000
,  // measure 36
0100
0000
1000
0000
,  // measure 37
0001
0000
0100
0000
,  // measure 38
0001
0000
0100
0000
,  // measure 39
0010
0000
0010
0000
,  // measure 40
0010
0000
1000
0000
,  // measure 41
0010
0000
0100
0000
,  // measure 42
0001
0000
0110
0000
,  // measure 43
0100
0100
0200
0300
,  // measure 44
0010
0010
0020
0030
,  // measure 45
1000
0001
1000
1000
,  // measure 46
0001
1000
0001
0001
,  // measure 47
0100
0010
0002
0003
,  // measure 48
0010
0100
2000
3000
,  // measure 49
0010
0100
0001
0001
,  // measure 50
0010
0100
1000
1000
,  // measure 51
0010
0000
1000
0000
,  // measure 52
0001
0000
0100
0000
,  // measure 53
1000
0000
0010
0000
,  // measure 54
0001
0000
0100
0000
,  // measure 55
0010
0000
0010
0000
,  // measure 56
1000
0000
0010
0000
,  // measure 57
0100
0000
0010
0000
,  // measure 58
1001
0000
1001
0000
,  // measure 59
0010
0000
0001
0000
,  // measure 60
0100
0000
0010
0000
,  // measure 61
1000
0000
0100
0000
,  // measure 62
0001
0000
0001
0000
,  // measure 63
0100
0000
0100
0000
,  // measure 64
0100
0000
0010
0000
,  // measure 65
0100
0000
0100
0000
,  // measure 66
0010
0000
1000
0000
,  // measure 67
0010
0010
0100
0100
,  // measure 68
0001
1000
1001
0000
;
