#TITLE:Down;
#SUBTITLE:;
#ARTIST:CHLOE X HALLE;
#TITLETRANSLIT:;
#SUBTITLETRANSLIT:;
#ARTISTTRANSLIT:;
#CREDIT:;
#BANNER:Down banner.png;
#BACKGROUND:Down bg.png;
#LYRICSPATH:;
#CDTITLE:;
#MUSIC:Down.mp3;
#OFFSET:-11.100;
#SAMPLESTART:60.200;
#SAMPLELENGTH:15.000;
#SELECTABLE:YES;
#BPMS:0.000=66.400,4.000=131.960,136.000=66.300,154.000=131.900;
#STOPS:153.500=0.040
;
#BGCHANGES:;

//---------------dance-single - ----------------
#NOTES:
     dance-single:
     :
     Hard:
     8:
     0.456,0.539,0.287,0.137,0.126:
0000
0000
0000
0000
,
0100
0000
0001
0100
1000
0100
0001
0000
,
0020
0000
1030
0000
0100
0001
0100
0000
,
0010
0001
0010
0000
0100
0010
1000
0000
,
0020
0000
0130
0000
0001
0010
0100
1000
,
0100
0000
0001
0010
0000
0010
0100
0000
,
1000
0100
0100
0000
0010
0001
0001
0000
,
0101
0000
0010
0110
0000
0100
1100
0000
,
0010
0000
0100
1000
0001
0100
0010
1000
,
0001
0010
0001
0100
0010
0100
1000
0000
,
0110
0000
1000
0000
0001
0100
0001
0000
,
1010
0000
0100
0100
0010
0000
1000
0000
,
0001
0000
0010
0100
0010
0000
0001
0010
,
0100
0000
0010
0100
1000
0000
0010
0100
,
1000
0000
0100
0010
0100
0000
1000
0001
,
0001
0000
0010
0100
0010
0001
0010
1000
,
0010
0100
0020
0000
0100
0000
0030
0000
,
1100
0000
0000
0100
0000
0000
0010
0000
0101
0000
0000
0010
0000
0000
0000
1000
,
1001
0000
0010
0100
1000
0100
0100
0000
,
0011
0000
0000
0100
0000
0000
0010
0000
1010
0000
0000
0100
0000
0000
0000
0001
,
1001
0000
0010
0100
1000
0001
0001
0000
,
0110
0000
0000
1000
0000
0000
0100
0000
0110
0000
0000
0001
0000
0000
0000
0010
,
0110
0000
1000
0010
0100
0010
0010
0000
,
1001
0000
0000
1000
0000
0000
1001
0000
0010
0000
0000
0010
0000
0000
0000
0100
,
0020
0000
1030
0100
2000
0000
3001
0010
,
0002
0000
0010
0000
0100
0010
0013
0000
,
1001
0000
0010
0100
2000
0000
3010
0100
,
0001
0000
0010
0100
0010
0010
1000
0010
,
0101
0000
0010
1000
0020
0000
0130
1000
,
0100
0001
0010
0100
0010
0010
0001
0000
,
1010
0000
1001
0000
0010
0100
1000
0010
,
0101
0000
1001
0000
0010
0010
0100
0010
,
0200
0000
1300
0001
2000
0000
3010
0100
,
0020
0000
0130
0001
0001
0010
1000
0010
,
0100
0010
1000
0100
0001
0100
0010
0000
1000
0000
0000
0000
0100
1000
0100
0010
,
0001
0000
0001
0010
0000
0000
0110
0000
0110
0000
1000
0000
0001
0000
0010
1000
,
0010
0000
0100
0000
0100
0000
0010
1000
0010
0000
0001
0100
0001
0000
0010
0100
,
0001
0000
0010
1000
0100
1000
0010
0100
0010
0001
0100
0000
0020
0000
0000
0000
,
0100
0100
0130
1000
1001
0000
0100
0010
,
1000
0000
1000
0000
0001
0000
0000
0000
0110
0000
0000
1000
0000
0000
0100
0000
,
0110
0000
0000
0001
0000
0000
0000
0010
0110
0000
0000
0000
1000
0000
0100
0000
,
0001
0000
0100
0000
1000
0000
0000
0000
0010
0000
0000
1000
0000
0000
1010
0000
,
0100
0000
0000
0001
0000
0000
0000
0100
0110
0000
0000
0000
0001
0000
0100
0000
,
0010
0000
1000
0000
1000
0000
0000
0000
0100
0000
0000
0110
0000
0000
1000
0000
,
0101
0000
0000
0010
0000
0000
0000
1000
0200
0000
0000
0000
0310
0000
0001
0000
,
0020
0000
1030
0100
2000
0000
3010
0100
,
0001
0010
1001
0000
0120
0000
1030
0100
,
1000
0000
0001
0010
0100
0001
0010
1000
,
0100
0100
0001
0100
0020
0000
0031
0100
,
0001
0000
0010
0100
0010
0001
1000
0100
,
1000
1000
0010
0000
0101
0000
0110
0000
,
1000
0001
1000
0010
0110
0000
1010
0000
,
0100
0100
0001
0000
0010
0100
1000
0100
,
0010
0001
0010
0100
2000
0000
0000
0000
,
0100
0000
0100
0000
3010
0001
0010
0010
,
0000
0000
0110
0000
0000
1000
1000
0001
,
0010
0100
1000
0001
0010
0100
1000
0100
,
0000
0000
0011
0000
0000
0100
0100
1000
,
0010
0100
0001
1000
0010
0100
0001
0100
,
0000
0000
0010
0000
0000
0100
0100
0000
,
0001
1000
0001
0000
0010
0100
1000
0100
,
0000
0000
0001
0000
0000
0010
0010
0000
,
0100
0010
0100
0200
0300
0000
0000
0000
;

//---------------dance-single - ----------------
#NOTES:
     dance-single:
     :
     Medium:
     6:
     0.319,0.336,0.065,0.151,0.000:
0000
0000
0000
0000
,
1000
0000
0100
0000
0001
0010
0001
0000
,
0100
0100
0010
1000
,
0010
0000
0100
0000
0001
1000
0001
0000
,
0010
0000
0010
0000
0001
0000
0001
0010
,
0200
0000
0300
2000
0000
3000
0020
0000
,
0030
0100
0100
0000
0001
0000
1000
0000
,
0020
0000
0030
0200
0000
0300
0002
0000
,
0013
0100
0010
1000
,
0010
0000
0010
0000
0100
0010
0100
0000
,
0001
0000
1000
0000
0001
0010
0001
0000
,
0010
0000
0010
0200
0000
0300
1000
0000
,
0110
0000
1000
0000
1000
0000
0010
0100
,
0010
0001
0010
1000
,
0010
0000
0100
1000
0100
0000
0010
0001
,
0010
0100
0010
1000
,
0100
0010
0200
0000
0010
0000
0300
0000
,
0010
0010
0010
0010
,
1001
0010
1000
1000
,
0010
0100
0001
0001
,
0110
0001
0010
0010
,
0100
0000
1000
0000
0010
0000
1000
0100
,
0010
0010
0100
0001
,
0010
0000
1000
0000
0001
0000
0010
0100
,
0020
1030
0200
0301
,
0020
1000
0001
1030
,
1001
0000
0010
1000
1000
0000
0010
0100
,
0010
0000
1000
0001
0001
0000
0010
0000
,
1001
0000
1000
0001
0001
0000
0010
0100
,
0010
0000
1000
0100
1000
0000
0010
0000
,
2000
3100
0010
0100
,
0020
0130
0001
0010
,
2000
0100
0010
0100
,
3020
0000
0000
0000
,
0130
0001
1000
0010
0100
0000
0010
0001
,
0010
0100
0000
0100
1000
0010
0100
0010
,
1000
0010
0001
0100
0010
1000
0010
0100
,
1000
0100
0010
0001
0010
0100
0000
0000
,
0100
0100
0100
0100
1001
0000
0010
0000
,
0100
0001
1000
0010
,
0100
0001
1001
0010
,
0100
0100
1000
0100
,
0010
0000
0100
0001
0100
0000
0010
0000
,
1000
0000
0010
0000
0100
0000
1000
0100
,
1000
0010
0200
0301
,
0020
0031
0200
0001
,
1000
0000
0301
0000
1001
0000
0010
0100
,
0100
0000
1000
0010
1000
0000
0010
0100
,
0010
0000
0001
0000
0110
0000
0001
1000
,
1000
0000
0010
0001
0010
0000
0100
0010
,
0100
1000
0002
0013
,
0100
0010
2000
3010
,
0100
0000
0001
0000
0100
0000
0010
0001
,
0000
0001
0010
0000
0100
2000
0000
0000
,
3010
0000
0010
0000
0100
0000
0001
0100
,
0000
0000
0100
0000
0000
0010
0010
0000
,
0100
0000
1000
0000
0001
0000
1000
0010
,
0000
0000
0010
0000
0000
0100
0100
0000
,
0001
0000
0010
0000
0001
0000
0010
1000
,
0000
0000
1000
0000
0000
0010
0010
0000
,
1000
0100
0010
0100
,
0001
0100
0010
1000
,
0010
0000
0001
0001
0000
0000
0000
0000
;

//---------------dance-single - ----------------
#NOTES:
     dance-single:
     :
     Easy:
     3:
     0.247,0.268,0.079,0.079,0.000: // measure 1
0000
0000
0000
0000
,  // measure 2
0010
0100
1000
0100
,  // measure 3
0010
0010
0100
0001
,  // measure 4
0010
0001
1000
0010
,  // measure 5
1000
1000
0100
0010
,  // measure 6
0200
0000
0301
0000
,  // measure 7
1000
0000
0010
0010
,  // measure 8
0100
0001
0100
0100
,  // measure 9
0010
1000
0001
0010
,  // measure 10
0100
1000
0100
0010
,  // measure 11
0001
0000
0010
0010
,  // measure 12
0100
1000
0000
0100
,  // measure 13
1000
0010
0010
0100
,  // measure 14
0001
0100
0100
0010
,  // measure 15
1000
0001
0001
0100
,  // measure 16
0010
1000
0100
0001
,  // measure 17
0100
1000
0020
0000
,  // measure 18
0130
0100
0001
0100
,  // measure 19
1001
0010
0100
1000
,  // measure 20
0100
0001
0100
1000
,  // measure 21
0010
1000
0100
0001
,  // measure 22
0100
1000
0010
0001
,  // measure 23
0010
0010
0100
0100
,  // measure 24
0001
0010
0001
0100
,  // measure 25
0010
1000
0010
0100
,  // measure 26
0020
0000
0130
0100
,  // measure 27
1000
0010
0010
0100
,  // measure 28
0001
0010
0110
1001
,  // measure 29
0010
0001
0100
0010
,  // measure 30
1000
0110
0110
0100
,  // measure 31
1000
1000
2000
3000
,  // measure 32
0010
0010
0020
0030
,  // measure 33
0100
0001
0100
1000
,  // measure 34
0020
0000
0130
0100
,  // measure 35
0010
0010
0100
0010
,  // measure 36
1000
0001
0010
0100
,  // measure 37
1000
0100
0010
0001
,  // measure 38
0010
0001
0100
0000
,  // measure 39
0020
0030
0110
0100
,  // measure 40
1000
1000
0100
0001
,  // measure 41
0100
1000
0010
0100
,  // measure 42
0010
0010
0001
0010
,  // measure 43
0100
1000
0100
0010
,  // measure 44
1000
0100
0001
0100
,  // measure 45
0001
0100
0010
0010
,  // measure 46
0100
0001
0200
0000
,  // measure 47
0310
0010
1001
0010
,  // measure 48
0001
0100
0010
1000
,  // measure 49
0110
1001
0010
0001
,  // measure 50
0010
0100
0010
1000
,  // measure 51
0101
0101
0010
0010
,  // measure 52
2000
3000
0010
0010
,  // measure 53
0200
0300
0001
0100
,  // measure 54
1000
0100
0020
0000
,  // measure 55
0000
0030
0100
0100
,  // measure 56
0000
0001
0000
0100
,  // measure 57
0100
1000
0010
0010
,  // measure 58
0000
1000
0000
0010
,  // measure 59
0010
0100
0001
0010
,  // measure 60
0000
0100
0000
0001
,  // measure 61
0001
1000
0010
0000
,  // measure 62
0100
0000
0001
0000
,  // measure 63
1000
1000
0000
0000
;
