#TITLE:Deepened;
#SUBTITLE:;
#ARTIST:BRAVE GIRLS;
#TITLETRANSLIT:;
#SUBTITLETRANSLIT:;
#ARTISTTRANSLIT:;
#CREDIT:;
#BANNER:Deepened banner.png;
#BACKGROUND:Deepened bg.png;
#LYRICSPATH:;
#CDTITLE:;
#MUSIC:Deepened.mp3;
#OFFSET:-13.200;
#SAMPLESTART:66.780;
#SAMPLELENGTH:15.000;
#SELECTABLE:YES;
#BPMS:0.000=123.020,109.833=123.700,112.000=123.060;
#STOPS:;
#BGCHANGES:;

//---------------dance-single - ----------------
#NOTES:
     dance-single:
     :
     Hard:
     7:
     0.468,0.429,0.129,0.171,0.154:
1001
0000
0010
0100
1000
0000
0010
0000
,
0100
0010
0001
0020
0000
0100
0130
0000
,
1010
0000
0100
1000
0100
0000
0001
0000
,
0100
0010
1000
0002
1003
0000
0000
0100
,
0010
0000
0001
0000
1000
0001
1000
0000
0100
0000
0200
0000
0000
0000
0300
0000
,
0010
0001
1000
0010
0000
0010
1000
0100
,
0001
0000
0000
0000
1000
0000
0000
0000
0010
0000
0000
0000
0100
0000
0001
0100
,
0001
0000
1000
0000
0010
0010
0000
0100
,
0010
0000
1000
0000
0100
0001
0000
0001
0100
0000
0010
0000
0000
0000
0010
0000
,
1000
0000
0100
0000
0001
1000
0000
0000
0010
0000
0100
0000
1000
0000
0100
0000
,
0000
0000
0200
0000
0000
0000
0000
0000
0310
0000
0000
0000
0001
0000
1000
0001
,
1000
0000
0010
1000
0100
1000
0100
0001
,
0100
0000
0010
0000
0000
0000
0100
0010
0100
0000
0001
0000
1000
0000
0020
0000
,
0030
0000
0100
0000
1000
0000
0200
0000
0300
0000
0001
0000
1000
0001
0000
0001
,
1000
0100
0010
0002
0003
0100
0100
0010
,
1000
0100
0000
0100
0010
0001
0000
0001
0010
0000
0010
0000
0000
0000
0100
0000
,
0010
0001
1000
0010
0100
1000
0010
0001
,
0000
0000
0001
0000
1000
0000
0010
0100
0010
0000
1000
0000
0100
0000
1000
0000
,
0010
0000
0010
0000
0100
0000
0001
0000
0100
0000
0010
1000
0000
1000
0000
0010
,
0100
0000
0010
0100
0000
0010
0200
0000
0000
0000
0000
0000
0301
0000
0000
0000
,
1000
0000
0020
0000
0130
0000
1000
0010
,
0001
0010
0000
0000
0010
0000
0100
0000
1000
0000
1000
0000
0000
0000
0010
0000
,
0100
0001
0100
0000
0010
0000
1000
0010
,
0100
0000
0001
0000
0100
0000
0010
0000
0100
0200
0000
0300
0000
0000
0010
0000
,
1000
0010
0000
0010
0001
0010
0000
1000
,
0200
0000
0000
0000
0010
0000
0010
0000
0010
0310
0000
0000
1000
0000
0100
0000
,
0001
0001
0000
0000
0010
0000
0100
0000
1000
1000
0000
0000
0000
0000
0100
0000
,
0010
0000
0000
0010
0100
0000
0001
0000
1000
0000
0010
0000
0100
0000
0001
0000
,
1001
0010
0100
0001
1000
0000
1000
0200
,
0000
0010
0310
0000
0001
0010
1000
0010
,
0101
0000
0000
0101
0000
0000
0000
0000
0010
0000
0100
0000
0010
0000
0100
0000
,
1010
0000
0000
1010
0000
0000
0100
0000
0001
0000
0000
0000
0010
0000
1000
0000
,
0010
0100
0001
0010
1000
0000
0010
0100
,
0000
0100
0010
0000
0010
0001
0010
1000
,
0110
0000
0000
0110
0000
0000
0000
0000
0100
0000
1000
0000
0010
0000
0001
0000
,
1100
0000
0010
0100
0000
0100
0000
0100
,
0010
0000
0001
1000
0000
0000
1000
0000
0010
0000
0000
0000
0110
0000
0001
0000
,
0100
0000
0010
1000
0000
0000
1000
0000
0010
0000
0000
0000
0100
0000
0001
0000
,
0100
0000
0010
1000
0020
0000
0000
0000
0100
0000
0100
0000
0130
0000
0000
0000
,
0001
0000
1000
0000
0001
0000
0100
0000
0010
0000
0100
1000
0000
1000
0100
0000
,
0001
0000
0100
0010
0000
0000
0010
0000
0100
0000
0000
0000
0001
0000
0010
0000
,
1000
0000
0001
0100
0000
0000
0010
0000
0100
0000
0000
0000
0100
0000
0001
0000
,
1000
0000
0010
0100
2000
0000
0000
0000
0100
0000
0100
0000
3100
0000
0001
0000
,
0010
1000
0100
1000
0010
0000
0100
0010
,
0101
0000
1010
0000
0100
0001
0100
0000
,
0010
0100
1000
0100
0010
0000
0001
0000
,
1010
0000
0100
0000
0001
0100
0010
0000
,
1000
0100
0010
0001
0001
0010
0100
1000
,
0110
0000
0001
0000
0010
1000
0010
0000
,
0100
0001
1000
0100
0010
0000
0010
0000
,
0002
0000
0000
0000
0003
0000
0000
0000
0020
0000
0000
0000
0030
0000
0000
0000
0200
0000
0000
0300
0000
0000
0000
0000
0200
0000
0000
0000
0300
0000
0000
0000
2000
0000
0000
0000
0000
0000
0000
0000
0000
0000
0000
0000
0000
0000
0000
0000
3100
0000
0000
0000
0000
0000
0000
0000
0000
0000
0000
0000
0000
0000
0000
0000
,
0010
0001
0010
1000
0010
0100
0001
0200
,
0000
0000
0000
0300
;

//---------------dance-single - ----------------
#NOTES:
     dance-single:
     :
     Medium:
     5:
     0.305,0.293,0.094,0.111,0.000:
2010
3100
0001
0100
,
0010
0000
1000
0000
0001
0010
0010
0100
,
0010
1000
0010
0100
,
0001
0010
0200
0000
0300
0000
0000
0000
,
1000
0000
0100
0000
0010
0010
0000
0000
,
0100
0000
0001
0000
0010
0000
0001
0010
,
0200
0000
1300
0000
0010
0000
0100
0010
,
0020
0000
0000
0000
0000
0130
0000
0000
,
0001
0000
0010
0000
1000
0100
0000
0010
,
0100
0001
0010
1000
,
0010
0000
0002
0000
0000
0000
0000
0100
,
0103
0000
0010
0000
1000
0000
0010
0100
,
0010
0000
1000
0000
0001
0000
1000
0100
,
0000
0000
0100
0010
0000
0001
0001
0000
,
0110
0001
0010
0001
,
0100
0000
1000
0000
0010
0020
0030
0000
,
0110
1000
0100
1000
,
0010
0000
0100
0000
0001
0010
0001
0010
,
0001
0100
0010
0010
,
0100
1000
0010
0100
,
1000
0200
0000
0310
,
0001
0000
0010
0010
0100
0100
0000
0000
,
0010
0002
0000
0103
,
0010
0000
1000
0010
1000
0000
0010
0000
,
0100
0100
0001
0010
,
0001
0100
0100
0010
,
0010
0000
1000
0000
0001
0000
0000
0010
,
0010
0100
0010
1000
,
0110
0000
0001
0000
0010
0000
1000
0100
,
0000
0000
0100
0000
0010
0000
0100
0001
,
0100
0000
0010
0000
1000
0000
0001
0100
,
0001
0010
0010
1000
,
0101
0000
0010
0000
1000
0000
0100
1000
,
0000
1000
0000
0100
0000
0010
0100
0000
,
0010
1000
0010
0100
,
0011
0100
0010
0010
,
1100
0000
0100
0100
0100
0000
0010
0000
,
0101
0000
0100
0100
0100
0000
0010
0000
,
0001
0010
0200
0000
0000
0000
1300
0000
,
0010
0010
0100
0001
,
0010
0000
1000
0010
1000
0000
0100
0000
,
0001
0000
0100
0001
0100
0000
0010
0000
,
1000
0100
0020
0000
0000
0000
0031
0000
,
0100
0100
0010
0010
0100
0000
0001
0000
,
0110
1000
0100
0010
,
0100
0000
0001
0000
0010
0000
1000
0100
,
0100
0010
1000
0010
,
0001
0010
0100
0010
,
1001
0100
1000
0100
,
0010
0001
0010
0100
,
0001
0001
0001
0001
0002
0000
0003
0000
,
0010
0000
0100
0000
0010
0000
1000
2002
,
0000
0000
0000
0000
0000
3003
0000
0000
;

//---------------dance-single - ----------------
#NOTES:
     dance-single:
     :
     Easy:
     2:
     0.247,0.294,0.077,0.086,0.000: // measure 1
1000
0100
0001
0100
,  // measure 2
0001
0010
1000
0010
,  // measure 3
0100
0001
0010
0001
,  // measure 4
0200
0000
0310
0000
,  // measure 5
0010
0010
0100
0000
,  // measure 6
0001
0100
0010
1000
,  // measure 7
0020
0000
0000
0130
,  // measure 8
0100
0001
0100
0010
,  // measure 9
1000
1000
0010
0000
,  // measure 10
0100
1000
0100
0001
,  // measure 11
0100
0020
0000
0000
,  // measure 12
0130
0000
0001
0001
,  // measure 13
0010
0000
0010
0100
,  // measure 14
0000
0010
0000
1000
,  // measure 15
0001
0010
0000
0100
,  // measure 16
1000
0100
0010
0001
,  // measure 17
0010
0100
0010
0020
,  // measure 18
0030
1000
1000
0010
,  // measure 19
0100
0001
0100
0001
,  // measure 20
0010
0010
1000
0010
,  // measure 21
0100
0002
0000
0010
,  // measure 22
0103
0010
1000
0000
,  // measure 23
0100
2000
0000
0100
,  // measure 24
3010
0100
0010
0000
,  // measure 25
0010
0001
0100
0001
,  // measure 26
0100
0010
0010
1000
,  // measure 27
1000
0010
0020
0030
,  // measure 28
0100
0100
0100
0010
,  // measure 29
1001
0100
1000
0100
,  // measure 30
0010
0001
0100
0010
,  // measure 31
0101
0101
0010
1000
,  // measure 32
0110
0110
1000
0100
,  // measure 33
0001
0001
0100
0100
,  // measure 34
0010
0010
1000
1000
,  // measure 35
0010
0100
0001
0100
,  // measure 36
0010
0000
0100
0100
,  // measure 37
1001
0100
0100
0000
,  // measure 38
0011
0100
0100
0000
,  // measure 39
0010
0020
0000
0130
,  // measure 40
0010
1000
0010
0100
,  // measure 41
0101
0001
0001
0000
,  // measure 42
0110
1000
1000
0000
,  // measure 43
0010
0100
1000
0100
,  // measure 44
0010
0010
0001
0100
,  // measure 45
0010
0010
1000
0010
,  // measure 46
0100
1000
0001
0100
,  // measure 47
0010
0100
0001
0010
,  // measure 48
0001
0010
0100
0100
,  // measure 49
0010
1000
0100
1000
,  // measure 50
0010
0100
0001
0100
,  // measure 51
0010
0010
0200
0300
,  // measure 52
0001
0001
0100
0010
,  // measure 53
0200
0000
0000
0300
;
