#TITLE:DALLA DALLA;
#SUBTITLE:;
#ARTIST:ITZY;
#TITLETRANSLIT:;
#SUBTITLETRANSLIT:;
#ARTISTTRANSLIT:;
#CREDIT:;
#BANNER:DALLA DALLA banner.png;
#BACKGROUND:DALLA DALLA bg.png;
#LYRICSPATH:;
#CDTITLE:;
#MUSIC:DALLA DALLA.mp3;
#OFFSET:-9.860;
#SAMPLESTART:47.540;
#SAMPLELENGTH:15.000;
#SELECTABLE:YES;
#BPMS:0.000=125.080,147.000=124.300,167.000=125.000,203.000=125.200;
#STOPS:;
#BGCHANGES:0.063=DALLA DALLA.avi=1.000=0=0=1,
99999=-nosongbg-=1.000=0=0=0 // don't automatically add -songbackground-
;

//---------------dance-single - ----------------
#NOTES:
     dance-single:
     :
     Hard:
     8:
     0.538,0.475,0.317,0.066,0.081:
0010
0000
0100
0000
0001
0000
0000
0000
1010
0000
0000
0100
0000
0000
0010
0000
,
0100
0100
0001
0001
0010
1000
0010
0100
,
0001
0000
0010
0000
1000
0000
0000
0000
0101
0000
0000
0010
0000
0000
0100
0000
,
0001
0000
0010
0000
0100
0000
1000
0000
0001
0000
0010
0100
0010
0000
0100
0000
,
0010
1000
0010
0000
0100
0001
0010
1000
,
0010
0100
0010
0000
0100
1000
1000
0010
,
0100
1000
0010
0100
0001
0100
0010
1000
,
0010
0000
0010
0100
0100
0000
0001
1000
,
1000
0000
0010
0000
0100
0001
0100
0010
,
0100
0000
0000
0000
0010
0000
0000
0000
1000
0000
0001
0000
0010
0100
1000
0000
,
0110
0000
1000
0101
0000
0010
0100
0001
,
0110
0000
0000
0000
1001
0000
0100
0010
0000
0010
0100
0000
2000
0000
0000
0000
,
3100
0000
0010
0000
0100
0000
0001
0000
0100
0000
0000
1000
0000
0000
0010
0000
,
0100
0001
0100
1000
1000
0000
0110
0000
,
0001
0000
0100
0000
0100
0000
0010
0000
0100
0000
0000
0001
0000
0000
0100
0000
,
0010
1000
0010
0001
0001
0000
0110
0000
,
1000
0000
0010
0100
0000
0100
1000
0000
0010
0000
0000
0000
0100
0000
0001
0010
,
0001
0000
0010
0100
0000
0100
0010
0000
0100
0000
0000
0000
1000
0000
0010
0000
,
1000
0000
0000
0100
0000
0000
0010
0000
0100
0000
0001
0000
1000
0000
0010
0000
,
0200
0000
0302
0000
0013
0100
1000
0100
,
0110
0001
1000
0010
1000
0010
0100
0001
,
0010
0001
0100
0010
1000
0100
0010
1000
,
0001
0011
0010
0010
0110
0100
1100
0100
,
0010
1000
0010
0100
0010
0010
0001
0010
,
0100
0010
0001
1000
0010
0001
0100
1000
,
0010
0100
0001
0100
0010
1000
0100
0010
,
1100
0100
0100
0110
0010
0010
0011
0010
,
0100
0010
1000
0010
0100
0001
0100
0010
,
2000
0100
0100
3010
0100
1000
0010
0001
,
0110
1000
0010
0000
0100
0001
0100
0010
,
0011
0000
0010
0110
0000
0100
1001
0000
,
0010
0000
1000
0000
0010
0000
0000
0000
0110
0000
0000
1000
0000
0000
0100
0000
,
1000
0010
0100
0001
0010
0100
0100
1000
,
0011
0000
1100
0000
0010
0100
0100
0010
,
1100
0000
0100
0110
0000
0010
0011
0000
,
0100
0010
0100
0000
0001
1000
1000
0001
,
0110
0000
0000
0000
0010
0000
0100
1000
0100
0000
0010
0000
0200
0000
0000
0000
,
0010
0000
0010
0300
0001
0100
0010
0001
,
0010
1000
0010
0000
0100
0001
0100
1000
,
0000
1000
0010
0000
0100
1000
0100
0001
,
0100
0010
0100
0000
0010
0001
0010
0100
,
0000
0100
0010
0000
1000
0000
0010
0000
,
0100
0001
0010
0010
0001
0000
0010
0000
,
0100
0010
1000
0010
0100
0001
0100
0000
,
0010
1000
1000
0010
0100
0001
0010
0100
,
1000
0100
0010
0001
0200
0000
0310
0000
,
1000
0010
0010
0100
0001
0100
0110
0001
,
1000
0001
0100
1000
0010
0100
0001
0010
,
1000
0010
0100
0010
0100
0001
1100
0100
,
0100
0110
0010
0100
0011
0010
1000
0010
,
0100
1000
0001
0001
0010
0100
0011
0010
,
0100
1000
0100
0010
0100
0001
0010
1000
,
0100
1000
0010
0100
0001
0010
0110
0100
,
1000
0110
0001
0010
0110
0010
1000
0010
,
0100
0001
0010
1000
0010
0100
0002
0010
,
0010
0000
0010
0000
0013
0000
1000
0000
0010
0000
0100
0000
0110
0000
0000
1000
,
0100
0000
0010
0000
0100
0000
0001
0010
0001
0000
0010
0000
1100
0000
0100
0000
,
1000
0000
0110
0000
0010
0000
0100
0000
1001
0000
0000
0000
0010
0000
0000
0001
,
0100
0010
0010
1000
0010
1000
0200
0000
,
0301
0000
0000
0000
0010
0000
1000
0000
1000
0000
0010
0000
0110
0000
0000
0001
,
1000
0000
0100
1000
0100
0010
0011
0010
,
0100
0000
0011
0000
0100
0000
0010
0000
0011
0000
0000
0000
0100
0000
0000
1000
,
0010
0100
1000
0010
0100
0001
1100
0010
,
0100
0000
0001
0010
0001
0000
0010
0000
0100
0000
0000
0000
0020
0000
0000
0000
,
0000
0000
0130
0000
;

//---------------dance-single - ----------------
#NOTES:
     dance-single:
     :
     Medium:
     6:
     0.339,0.309,0.037,0.015,0.000:
0010
0000
0100
0000
0001
0100
0001
0000
,
0010
0100
1000
0100
0010
0000
0100
0000
,
0010
0000
1000
0000
0010
0100
0010
0000
,
1000
0100
0010
0001
0010
0000
0100
0000
,
0010
0000
0010
0000
0001
0000
0100
0010
,
0100
0000
1000
0000
0010
0000
1000
0100
,
0010
0000
0100
0000
0001
0000
0100
0010
,
0100
0000
0001
0000
0010
0000
0001
0010
,
0100
0000
0010
0000
1000
0000
0010
0100
,
0010
0000
1000
0000
0010
0000
0100
1000
,
0100
0000
0010
0100
0000
0001
0000
0100
,
0001
0000
0010
0000
1000
0010
1000
0000
,
0100
1000
1000
0100
0010
0000
0100
0000
,
0010
0001
1000
0010
,
0001
0100
0100
0001
0100
0000
0010
0000
,
1000
0010
0100
0001
,
0010
0100
0010
0000
1000
0000
0010
0000
,
1000
0100
1000
0000
0010
0000
0100
0000
,
0001
0000
0001
0000
0010
0100
0010
0000
,
0010
0000
0010
0000
0001
0010
0100
1000
,
0100
0000
0010
0000
0100
0000
1000
0010
,
0000
0100
0000
0010
0100
0000
0010
0000
,
1000
0001
0000
0010
0100
0000
0010
0001
,
0010
0000
0100
0000
0010
1000
0100
0010
,
0001
0100
0010
1000
,
0010
0000
0100
0000
0001
0010
0001
0000
,
0100
0010
0000
0010
0100
0000
1000
0001
,
1000
0000
0010
0000
0100
0010
0100
0000
,
0010
1000
0010
0001
,
0110
0000
0100
0000
1000
0000
0010
0100
,
0010
0000
1000
0001
0000
0001
1000
0000
,
0010
0100
0010
0000
1000
0000
0010
0000
,
0100
0001
0100
0000
0010
0000
0001
0000
,
0110
0000
1000
0000
0010
0000
0001
0100
,
0001
0000
1000
0010
0000
0010
1000
0000
,
0010
0000
0100
0000
0010
0000
1000
0010
,
1000
0010
0100
0020
,
0000
0000
0000
0000
0000
0030
0100
0000
,
0010
0001
0010
0000
0100
0000
0010
0000
,
1000
0001
0001
0000
0010
0000
0100
0000
,
0010
0000
1000
0000
0010
0000
1000
0010
,
0000
0010
1000
0000
0010
0000
0100
0000
,
0001
0000
0100
0010
0100
0000
0010
0000
,
1000
0000
0100
1000
0100
0000
0010
0000
,
0100
0000
0001
0100
0000
0100
0000
0010
,
0000
1000
0000
0010
0100
0000
0110
0000
,
0100
1000
0100
0000
0010
0000
0110
0000
,
0010
0001
0010
0100
,
0010
0000
1000
0001
1000
0000
0010
0100
,
0000
0100
0010
0000
1000
0001
0000
0001
,
0010
0100
0000
0010
0100
1000
0100
0000
,
0010
0000
0100
0000
0001
0100
0000
0100
,
0000
0010
1000
0000
0010
0000
0100
0010
,
0000
0010
0001
0000
0010
0100
0000
0100
,
0010
1000
0010
0100
,
0100
0000
0100
0010
0100
0010
0001
0000
,
1001
0010
0100
1000
,
0010
0100
0000
0100
0010
0000
0100
0000
,
1000
0010
0100
0001
,
0100
0000
0010
0000
1000
0010
0010
0000
,
0100
0001
0100
0010
,
1000
0010
0000
0010
1000
0000
0010
0000
,
0001
0000
0100
0000
0010
1000
0010
0000
,
0100
0001
0000
0001
0100
0000
0020
0000
,
0000
0000
0130
0000
;

//---------------dance-single - ----------------
#NOTES:
     dance-single:
     :
     Easy:
     3:
     0.264,0.238,0.029,0.037,0.000:
0100
0010
0001
0010
,
0100
1000
0010
0100
,
1000
0100
0010
0100
,
0010
0010
0010
0100
,
0001
0010
1000
0010
,
0001
0100
0010
1000
,
0010
0010
0100
1000
,
0100
0100
0010
0100
,
0001
1000
0001
1000
,
0010
0100
0010
0100
,
1000
0100
0010
0001
,
0010
0010
0100
0010
,
0100
1000
0100
0100
,
0010
1000
0010
0000
,
0010
0001
0010
0010
,
0100
0010
0100
0000
,
0010
0010
1000
0000
,
0010
0100
0001
0000
,
0010
0010
0100
0001
,
0100
0010
0000
0010
,
1001
0100
1000
0100
,
0010
0100
0001
0100
,
0010
0010
1000
1000
,
0010
0100
0001
0100
,
0110
1000
0100
0010
,
0001
0010
0100
0010
,
1000
1000
0001
0001
,
0010
0100
1000
0100
,
0010
0010
0010
0100
,
0010
0001
0010
0100
,
1000
0010
0100
0100
,
0010
0100
0001
0010
,
2000
0000
3000
0010
,
0100
0001
0010
1000
,
0010
0010
0100
0100
,
0010
0001
0010
0100
,
1000
0010
0100
0020
,
0000
0000
0030
0100
,
0010
0010
0001
0010
,
0010
0100
0000
0010
,
0001
0010
1000
0010
,
0100
0010
0100
0001
,
0010
0001
0001
1000
,
0100
1000
1000
0010
,
0100
0010
0100
1000
,
0100
0010
0100
0002
,
0003
0000
0010
0110
,
1000
0010
0100
0001
,
0100
0010
0100
0010
,
0010
0100
0100
0010
,
1000
0100
0001
1001
,
0010
0001
0010
0100
,
0010
1000
0010
1000
,
1000
0001
0001
0100
,
0010
0100
0010
1000
,
1000
1000
1000
0010
,
0100
0001
0010
0001
,
0001
0010
0010
0100
,
0010
0100
0010
0002
,
0000
0000
0013
0100
,
0010
0100
0010
1000
,
1000
0010
0010
0100
,
0010
1000
0001
0010
,
0100
1000
0100
0020
,
0000
0000
0130
0000
;
