#TITLE:Change Your Mind (No Seas Cortes);
#SUBTITLE:;
#ARTIST:Britney Spears;
#TITLETRANSLIT:;
#SUBTITLETRANSLIT:;
#ARTISTTRANSLIT:;
#CREDIT:;
#BANNER:Change Your Mind banner.png;
#BACKGROUND:Change Your Mind bg.png;
#LYRICSPATH:;
#CDTITLE:cdtitle.png;
#MUSIC:Change Your Mind.mp3;
#OFFSET:-8.980;
#SAMPLESTART:41.520;
#SAMPLELENGTH:15.000;
#SELECTABLE:YES;
#BPMS:0.000=118.040;
#STOPS:159.750=2.000
,159.875=2.100
;
#BGCHANGES:;

//---------------dance-single - ----------------
#NOTES:
     dance-single:
     :
     Hard:
     7:
     0.450,0.397,0.089,0.134,0.332:
1000
0010
0100
0001
0100
0000
0000
0000
0010
0000
0000
0000
0010
0000
0000
0000
,
0100
0001
0010
1000
0010
0000
0000
0000
0100
0000
0000
0001
0010
0000
0000
0010
,
0100
0000
0000
0000
1000
0000
0001
0000
1000
0000
0000
0000
0100
0000
0000
0100
,
0010
0000
0001
1000
0001
0000
0001
0000
,
0100
0010
1000
0001
0010
0000
0000
0000
0100
0000
0000
0000
0100
0000
0000
0000
,
0001
0010
0100
1000
0100
0000
0000
0000
0001
0000
0000
0000
0100
0000
0000
0010
,
1000
0000
0000
0000
0100
0000
0001
0000
0100
0000
0100
0000
0010
0000
0000
0001
,
1000
0000
0010
0100
1000
0000
1000
0000
,
0002
0000
0000
0000
0023
0000
0000
0000
0230
0000
0000
0000
1300
0000
0010
0100
,
0010
0000
0001
0010
0000
0000
0010
0000
0100
0000
0000
0000
0100
0000
0000
0000
,
2000
0000
0000
0000
3200
0000
0000
0000
0320
0000
0000
0000
0031
0000
0000
1000
,
0100
0010
0002
0000
0000
0000
0010
0000
0013
0000
0000
0000
0010
0000
0000
0000
,
0200
0000
0000
0000
0320
0000
0000
0000
2030
0000
0000
0000
3001
0000
0010
0100
,
0010
0000
1000
0001
0000
0000
0001
0000
0100
0000
0000
0000
0100
0000
0010
0000
,
1000
0001
0010
0100
1000
0010
0100
0001
,
1000
0010
1000
0100
0001
0100
0110
0000
,
1001
0000
0010
0100
0010
0000
1001
0000
,
1000
0000
0000
0100
0000
0000
0010
0000
0001
0000
0100
0010
0000
0010
0000
0010
,
0001
0000
0100
0010
0100
0000
0001
0000
,
0010
0100
1000
0100
0010
0001
0010
0000
,
1001
0000
0010
0100
1000
0000
1001
0000
,
0001
0000
0000
0010
0000
0000
0100
0000
1000
0000
0010
0100
0000
0100
0000
0100
,
0010
1000
0100
0001
0100
0010
1000
0001
,
0100
0001
0100
0010
1000
0010
0100
0000
,
0010
0001
0000
0001
0000
0010
0200
0000
0300
0000
1000
0000
1000
0000
0010
0000
,
0100
1000
0000
1000
0000
0010
0200
0000
0300
0000
0001
0000
0010
0000
1000
0000
,
0010
0100
0000
0001
0000
1000
0020
0000
0030
0000
0100
0000
0001
0000
0001
0000
,
1001
0000
0000
0000
0110
0000
0000
0000
0001
0000
1000
0010
0000
0010
0000
0010
,
0100
1000
0000
0010
0000
0100
0002
0000
0000
0000
0003
0000
0010
0000
0100
0000
,
0001
0010
0000
0100
0000
1000
0020
0000
0000
0000
0030
0000
0100
0000
1000
0000
,
0010
0100
0000
0001
0000
0100
0020
0000
0000
0000
0030
0000
0100
0000
1000
0000
,
0010
0000
0000
0100
0000
0000
0010
0000
0001
0000
1000
0010
0000
0010
0000
0010
,
0100
0000
0000
0001
0010
0000
1000
0000
0010
0000
0000
0000
0100
0000
0010
0000
,
0100
0000
0000
1000
0010
0000
0100
0000
0001
0000
0000
0000
0010
0000
1000
0000
,
0010
0000
0000
0100
1000
0000
0010
0000
0100
0000
0001
0000
0010
0000
0001
0000
,
0100
0000
0000
0001
0100
0000
0010
0000
1000
0000
0100
0010
0000
0010
0000
0010
,
0000
0000
0000
1000
0100
0000
0001
0000
0100
0000
0010
0000
1000
0000
0001
0000
,
0100
0000
0000
0001
0100
0000
0010
0000
1000
0000
0010
0000
0100
0000
0001
0000
,
0010
0000
0000
1000
0100
0000
0001
0000
0100
0000
0010
0000
0001
0000
1000
0000
,
0010
0000
0000
0100
0000
0000
0010
0000
1000
0000
0000
0001
0000
0000
1000
0000
,
1001
0000
0000
0010
0100
0000
0001
0000
0100
0000
0000
0000
0010
0000
0000
0000
,
1000
0000
0000
0001
0000
0000
1000
0000
0010
0000
1000
0010
0000
0001
0000
0010
,
0100
0000
0000
0000
0001
0000
0010
0100
0010
0000
0000
0000
1000
0000
0000
0000
,
0010
0100
0010
1000
0001
1000
0010
0000
,
0110
0000
0000
1000
0000
0000
0100
0010
0100
0000
0000
0000
0001
0000
0000
0000
,
0010
0000
0000
1000
0000
0000
0010
0000
0100
0000
0001
0100
0000
0100
0000
0100
,
0010
1000
0100
1000
0001
0010
0001
0100
,
0010
0001
0100
0010
0001
1000
0010
0000
,
0201
0000
0000
0300
0000
0000
0001
0000
0010
0000
0000
0000
0100
0000
0010
0000
0100
0000
0000
0000
0000
0000
0000
0000
1000
0000
0000
0000
0000
0000
0000
0000
,
0010
0000
0000
0001
0000
0000
0010
0000
0100
0000
0010
1000
0000
1000
0000
1000
,
0010
0000
0000
0000
0100
0000
0001
0100
0010
0000
0000
0000
1000
0000
0000
0000
,
0010
0100
0010
1000
0100
0010
0001
0000
,
2010
0000
0000
3000
0000
0000
0100
0000
0001
0000
0000
0000
0010
0000
0100
0000
0010
0000
0000
0000
0000
0000
0000
0000
0100
0000
0000
0000
0000
0000
0000
0000
,
0001
0000
0000
1000
0000
0000
0001
0000
0100
0000
0010
1000
0000
0001
0000
1000
,
0010
0100
0001
0100
0010
1000
0010
0100
,
1000
0001
0100
0010
1000
0100
0001
0000
,
1001
0000
0000
0000
;

//---------------dance-single - ----------------
#NOTES:
     dance-single:
     :
     Medium:
     5:
     0.292,0.271,0.045,0.022,0.000:
0010
1000
0010
0000
0100
0000
0001
0000
,
0100
0010
0100
0000
0001
0000
0010
0000
,
0010
0100
0010
1000
,
1000
0010
0100
0100
,
0010
0100
0010
0000
0001
0000
0010
0000
,
1000
0100
1000
0000
0010
0000
0100
0000
,
0001
0100
0010
0010
,
0001
0010
0100
0100
,
0010
1000
0020
0030
,
0100
0000
0010
0000
0100
0100
0100
0000
,
0001
1000
0002
0003
,
0100
0100
0000
0010
0010
0000
1000
0000
,
0010
0100
2000
3000
,
0010
0100
0001
0001
,
0010
0100
0010
0000
1000
0000
0010
0000
,
0100
0001
0100
0000
0010
1000
0010
0000
,
0110
0000
0001
1000
1000
0000
0010
0000
,
0100
0000
0001
0000
0100
1000
0100
0000
,
0010
0000
0100
0001
0100
0000
0010
0000
,
0100
0010
0100
0000
1000
0001
1000
0000
,
1001
0000
0010
0100
0100
0000
0010
0000
,
0100
0000
0001
0000
0010
1000
0010
0000
,
0100
1000
0010
0100
,
0001
0000
0100
0000
0010
0100
0010
0000
,
1000
0000
0100
0010
0000
0010
0001
0000
,
0010
0000
0100
0001
0000
0001
0100
0000
,
0010
0000
1000
0010
0000
0010
0100
0000
,
1000
0001
0100
0010
,
0100
0000
0001
0010
0000
0010
0100
0000
,
0010
0000
1000
0001
0000
0001
0100
0000
,
0010
0000
1000
0100
0000
0100
0010
0000
,
0100
0000
0001
0000
0100
0010
0100
0000
,
0010
0001
0010
0100
,
0100
0010
1000
0100
,
0100
0010
1000
0010
,
0010
0001
0100
0010
,
1000
0010
0100
0100
,
1000
0100
0001
0001
,
0010
0100
0010
0100
,
0001
1000
0001
0000
1000
0001
1000
0000
,
1001
0000
0100
0010
0010
0000
0001
0000
,
0010
0000
0100
0000
1000
0010
1000
0000
,
0010
0000
0100
1000
0100
0000
0010
0000
,
0100
0000
0001
0000
0100
0010
0100
0000
,
1001
0000
1000
0100
0100
0000
0010
0000
,
0100
0000
0001
0100
0001
0000
0001
0000
,
0010
0000
0100
0000
0010
0100
0010
0000
,
1000
0000
0001
0000
0100
0010
0100
0000
,
0110
0000
0010
0001
0001
0000
0010
0000
,
0100
0000
0010
0000
1000
0010
1000
0000
,
0100
1000
0010
0100
,
0010
0100
0010
0000
1000
0001
1000
0000
,
0110
0000
1000
0100
0100
0000
0010
0000
,
0100
0000
1000
0000
0010
0100
1000
0000
,
0100
0000
0010
0000
0100
0001
0100
0000
,
0010
0100
0010
0000
1000
0001
1000
0000
,
0010
0000
0000
0000
;

//---------------dance-single - ----------------
#NOTES:
     dance-single:
     :
     Easy:
     2:
     0.250,0.230,0.052,0.067,0.000: // measure 1
0010
0100
0010
1000
,  // measure 2
0001
0010
0100
1000
,  // measure 3
0010
0100
0010
0010
,  // measure 4
0001
1000
0010
0010
,  // measure 5
0100
1000
0100
0010
,  // measure 6
0100
0001
0100
0010
,  // measure 7
1000
0010
0100
0100
,  // measure 8
1000
0100
0010
0010
,  // measure 9
0100
0001
0200
0300
,  // measure 10
0010
0010
0001
0010
,  // measure 11
1000
0010
2000
3000
,  // measure 12
0010
0100
0010
0010
,  // measure 13
0001
0100
0020
0030
,  // measure 14
0100
0010
0001
0010
,  // measure 15
0100
1000
0100
0100
,  // measure 16
0010
0100
0010
0010
,  // measure 17
1001
0010
0001
0001
,  // measure 18
0010
0100
1000
0010
,  // measure 19
0100
0010
1000
1000
,  // measure 20
0010
0100
0010
0001
,  // measure 21
0110
0001
0100
0100
,  // measure 22
0010
1000
0010
0100
,  // measure 23
1000
0010
0001
0001
,  // measure 24
0010
0100
0001
0100
,  // measure 25
0010
1000
0020
0130
,  // measure 26
1000
0010
2000
3010
,  // measure 27
0001
0100
0002
0013
,  // measure 28
0100
0100
0010
0001
,  // measure 29
0010
0010
0200
0300
,  // measure 30
0010
0001
0020
0030
,  // measure 31
0100
1000
0200
0300
,  // measure 32
0010
0010
0100
1000
,  // measure 33
0100
1000
0100
0100
,  // measure 34
0010
0100
0010
0010
,  // measure 35
0001
0010
0100
0100
,  // measure 36
0010
1000
0010
0010
,  // measure 37
0100
1000
0001
0001
,  // measure 38
0010
0001
0010
0010
,  // measure 39
0100
0010
1000
1000
,  // measure 40
0010
0100
1000
1000
,  // measure 41
1001
0010
0100
0100
,  // measure 42
0010
0001
0010
0100
,  // measure 43
0010
0001
0100
0100
,  // measure 44
0010
1000
0100
1000
,  // measure 45
0110
0010
0001
0001
,  // measure 46
0010
1000
0010
0100
,  // measure 47
0010
0100
1000
1000
,  // measure 48
0010
0100
1000
0100
,  // measure 49
1001
0010
0100
0100
,  // measure 50
0010
0001
0010
0100
,  // measure 51
0010
1000
0100
0100
,  // measure 52
0010
0100
0010
0001
,  // measure 53
0110
1000
0100
0100
,  // measure 54
0010
0100
1000
0010
,  // measure 55
0001
0010
0100
1000
,  // measure 56
0100
0010
0100
0010
,  // measure 57
0110
0000
0000
0000
;
