#TITLE:Breath;
#SUBTITLE:;
#ARTIST:SOYOUNG;
#TITLETRANSLIT:;
#SUBTITLETRANSLIT:;
#ARTISTTRANSLIT:;
#CREDIT:;
#BANNER:Breath banner.png;
#BACKGROUND:Breath bg.png;
#LYRICSPATH:;
#CDTITLE:;
#MUSIC:Breath.mp3;
#OFFSET:-9.520;
#SAMPLESTART:63.320;
#SAMPLELENGTH:15.000;
#SELECTABLE:YES;
#BPMS:0.000=107.080,112.000=106.800;
#STOPS:;
#BGCHANGES:;

//---------------dance-single - ----------------
#NOTES:
     dance-single:
     :
     Hard:
     7:
     0.423,0.451,0.108,0.167,0.152:
1000
0000
0000
0000
1000
0010
0000
0000
0100
0010
0000
0000
1000
0001
0000
0000
,
0100
0002
0000
0203
0000
0300
0010
0000
,
0001
0000
0100
0000
0010
0000
1000
0100
,
0020
0000
0000
0000
0130
0000
0001
0010
,
0100
0000
0010
0100
1000
0000
0010
0100
,
0001
0001
0001
0001
0100
0000
0010
1000
,
0010
0000
1000
0001
1000
0000
0010
0100
,
1000
1000
1000
1000
0010
0000
0100
0000
,
0011
0000
0010
0100
0000
0000
0010
0000
1000
0000
0100
0001
0000
0000
0010
0000
,
0110
0000
0000
1001
0000
0000
0010
0000
0010
0000
0100
0000
0001
0000
1000
0000
,
0010
0000
1000
0100
0000
0000
0010
0000
0100
0000
0001
1000
0000
0000
0010
0000
,
1100
0000
0000
0011
0000
0000
0100
0000
0100
0000
0010
0000
1000
0000
0010
0000
,
0200
0000
0000
0000
0302
0000
0000
0000
0023
0000
0000
0000
0130
0000
0000
1000
,
0000
0100
0010
0000
0100
0000
0002
0000
0000
0000
0003
0000
0010
0000
0010
0000
,
0200
0000
0000
0000
0302
0000
0000
0000
0023
0000
0000
0000
1030
0000
0100
0001
,
0000
0000
0001
0000
0000
0000
0010
0000
0100
0000
0000
0001
0000
0000
0100
0000
,
0020
0000
0130
1000
0100
0001
0000
0001
,
0010
0010
0100
0100
0010
1000
0020
0000
,
0130
0000
1000
0000
0100
0001
0100
0000
,
0001
1000
0001
0000
0010
0010
0100
0010
,
0001
0100
0010
0000
1000
1000
0010
0100
,
1000
0100
0020
0000
0130
0000
0001
0001
,
0010
0000
0100
0001
0100
0000
0010
0000
1000
0100
0000
0100
1000
0000
0010
0000
,
0110
0000
0000
0000
1000
0001
1000
0000
1000
0001
1000
0000
0010
0000
0110
0000
,
1001
0000
0000
0100
0010
0000
0001
1000
0001
0000
0000
0010
0100
0000
1000
0000
,
0100
0000
0010
0000
0001
0000
0100
0000
0010
1000
0010
0000
0100
0000
0101
0000
,
0110
0000
0000
0010
1000
0000
0100
0010
0001
0000
0000
1000
0010
0000
0100
0001
,
0100
0010
1000
0010
0200
0000
0301
0001
,
0010
0100
1000
0100
0010
0100
0002
0000
,
0013
1000
0010
0100
1000
0010
2000
0000
,
3100
0010
0010
0100
0001
0100
0010
1000
,
0010
0000
0000
0010
0000
0000
0100
0000
0001
0000
1000
0000
1000
0000
0001
0000
,
1000
0100
0010
0001
0100
0010
1000
0000
,
0100
0001
1000
0010
0100
0001
0100
0000
,
0010
0000
1000
0000
0100
0000
0001
0000
0100
0000
0010
0000
0100
0000
0000
0001
,
0020
0130
0001
1000
,
0010
1000
0100
0001
0100
1000
0010
0000
,
0100
0010
1000
0010
0001
0100
0010
0000
,
1000
0000
0100
0000
0010
0000
0001
0000
0100
0000
0100
0000
0010
0000
0000
1000
,
0001
0000
0000
0000
0010
0000
0000
0000
0100
0001
0000
0001
0100
0000
0010
0000
,
0110
0000
0000
0000
;

//---------------dance-single - ----------------
#NOTES:
     dance-single:
     :
     Medium:
     4:
     0.302,0.314,0.147,0.078,0.000:
1000
0000
0100
0001
0100
0000
0010
0000
,
1000
0010
0000
0020
0000
0000
0130
0000
,
0001
0000
1000
0000
0010
0000
0100
0100
,
0200
0000
0000
0000
0301
0000
1000
0100
,
0010
0000
1000
0100
0010
0000
1000
1000
,
1000
0000
0001
0000
1000
0000
0001
0010
,
0100
0000
0001
0010
0100
0000
0001
0001
,
0001
0010
0100
1000
,
0110
0010
1000
0100
,
0010
0000
1000
0000
0001
0100
0100
0000
,
1001
0010
0100
0010
,
1000
0000
0100
0000
0001
1000
1000
0000
,
1100
0100
0110
0010
,
0100
0001
0100
0002
0000
0003
0010
0010
,
0010
0100
0010
0100
,
1000
0001
0000
0010
0100
0000
0100
0000
,
2000
0000
3100
0000
0010
0100
0000
0001
,
0100
0000
0010
0000
1000
0100
0010
0000
,
0200
0301
0010
0100
,
1000
0010
0010
0000
0100
0001
0001
0010
,
0100
0000
0010
0000
1000
0001
1000
0000
,
0010
0000
0100
0000
0001
1000
0001
0000
,
0010
0000
0100
0000
1000
0000
0100
0010
,
0010
0000
1000
0100
0010
0001
0010
0010
,
0110
1001
0011
1100
,
0010
0100
1000
0000
0010
0100
0010
0000
,
1001
0110
1100
0011
,
0100
0010
0100
0000
0002
0000
0013
0000
,
0100
0010
0100
1001
,
0010
0001
0010
1001
,
0010
0000
1000
0000
0100
0000
0001
0100
,
0100
0000
0010
0000
1000
0100
0010
0000
,
0100
0000
0001
0000
0100
0010
0100
0000
,
0001
0000
0010
0000
1000
0100
1000
0000
,
0010
0000
0100
0000
0001
0010
0100
0000
,
0020
0030
0100
0001
,
1000
0000
0010
0000
0100
1000
0100
0000
,
0010
0000
1000
0000
0001
0100
0001
0000
,
0010
0000
0100
0000
0010
0100
0010
0000
,
2000
3000
0100
0010
,
1001
0000
0000
0000
;

//---------------dance-single - ----------------
#NOTES:
     dance-single:
     :
     Easy:
     2:
     0.225,0.274,0.118,0.059,0.000: // measure 1
1000
0100
0010
0001
,  // measure 2
0100
0010
0200
0300
,  // measure 3
1000
0000
0010
0000
,  // measure 4
0200
0300
0001
0000
,  // measure 5
0010
0010
0100
0100
,  // measure 6
0001
1000
0001
1000
,  // measure 7
1000
1000
0001
0001
,  // measure 8
0100
0010
0100
0100
,  // measure 9
0010
0001
0100
0010
,  // measure 10
1000
1000
0010
0010
,  // measure 11
0100
1000
0100
0010
,  // measure 12
0001
0001
0100
0100
,  // measure 13
0010
1000
0100
0001
,  // measure 14
0100
2000
3000
0100
,  // measure 15
0010
0010
0100
0001
,  // measure 16
1000
0020
0030
0000
,  // measure 17
1000
0000
0100
1000
,  // measure 18
0100
0000
1000
0010
,  // measure 19
0100
0000
0001
0000
,  // measure 20
0100
0010
0001
0010
,  // measure 21
0100
0110
0001
0110
,  // measure 22
1000
0110
0100
0100
,  // measure 23
0001
0010
1000
0010
,  // measure 24
0100
0000
0000
0000
,  // measure 25
0110
1001
0110
1001
,  // measure 26
0010
0100
0001
1000
,  // measure 27
0110
1001
0110
1001
,  // measure 28
0010
1000
0100
0001
,  // measure 29
0100
0100
1000
1000
,  // measure 30
0010
0010
0001
0001
,  // measure 31
0100
0010
0001
0100
,  // measure 32
0010
0020
0030
1000
,  // measure 33
0100
1000
0100
0100
,  // measure 34
0010
0001
0010
0010
,  // measure 35
0100
0001
0100
0100
,  // measure 36
0020
0030
1000
0000
,  // measure 37
0010
0100
0001
0001
,  // measure 38
0010
1000
0100
0100
,  // measure 39
1000
0100
0010
0001
,  // measure 40
0100
0001
0100
0010
,  // measure 41
1001
0000
0000
0000
;
