#TITLE:Bad Girl For You;
#SUBTITLE:;
#ARTIST:EXID;
#TITLETRANSLIT:;
#SUBTITLETRANSLIT:;
#ARTISTTRANSLIT:;
#CREDIT:;
#BANNER:Bad Girl For You banner.png;
#BACKGROUND:Bad Girl For You bg.png;
#LYRICSPATH:;
#CDTITLE:;
#MUSIC:Bad Girl For You.mp3;
#OFFSET:0.000;
#SAMPLESTART:71.820;
#SAMPLELENGTH:15.000;
#SELECTABLE:YES;
#BPMS:0.000=107.000;
#STOPS:;
#BGCHANGES:0.000=Bad Girl For You.avi=1.000=0=0=0,
99999=-nosongbg-=1.000=0=0=0 // don't automatically add -songbackground-
;

//---------------dance-single - ----------------
#NOTES:
     dance-single:
     :
     Hard:
     8:
     0.524,0.530,0.321,0.087,0.308:
2002
3003
0010
0010
,
0000
0000
0000
0000
0100
0000
0000
0000
0000
0000
0000
0001
0000
0000
0000
0000
,
0010
0100
2000
0000
0000
0000
3100
0000
,
0000
0000
0001
0000
0000
0000
0010
0100
,
0110
0000
0000
1010
0000
0000
0110
0000
0000
0000
0001
0000
0010
0000
0000
0000
,
0010
0100
0010
0100
,
1100
0000
0000
0110
0000
0000
0011
0000
0000
0000
0010
0000
0010
0000
0000
0000
,
0220
0000
0000
0330
,
1000
0000
0100
0000
0010
0000
0001
0000
0100
0000
0000
0010
0000
0000
0001
0010
,
0100
0000
0010
0000
0100
0000
1000
0100
0010
0000
0100
0000
0110
0000
0000
0000
,
0001
0000
0010
0000
0100
0000
1000
0000
0010
0000
0000
0100
0000
0000
0000
0010
,
0100
0001
0010
1000
0010
0001
0010
0000
,
0100
0000
0010
0000
0001
0000
0100
0000
0010
1000
0000
1000
0000
0000
0100
0000
,
0010
0000
0000
0100
0000
0000
0010
0000
0110
0000
0000
0000
1001
0000
1001
0000
,
0010
0000
0100
1000
0100
0010
0001
0010
0100
0000
0010
0000
1000
0000
0000
0000
,
0100
0000
0001
0010
0100
0010
1000
0010
0001
0000
0010
0000
0100
0000
0000
0000
,
0110
0000
1000
0000
0100
0000
0001
0100
0001
0000
0010
0100
1000
0000
0020
0000
,
0000
0000
0130
0000
1000
0100
1000
0100
0001
0000
0010
0100
0010
0000
0200
0000
,
0000
0000
0301
0010
0100
1000
0100
0000
0110
0000
0010
0000
1000
0100
0010
0001
,
1000
0100
0010
0001
0010
0100
1000
0000
0110
0000
0000
0001
0010
0000
0000
0000
,
1000
0000
0010
0000
0100
0000
1000
0000
0010
0000
0100
0000
0001
0000
0010
0100
,
0010
0000
0000
1000
0010
0000
0000
0100
0010
0001
0010
0000
0000
0000
0010
0000
,
0100
0010
1000
0001
0100
0010
0001
0001
,
0000
0010
0000
0100
0100
1000
0110
0000
,
0001
0010
0000
0000
0010
0100
0000
0000
0100
1000
0000
0000
1000
0100
0000
0000
,
0010
0100
0000
0000
0001
1000
0000
0000
0010
0100
0000
0000
0010
0000
0010
0000
,
0100
0000
0000
1000
0001
0000
0010
0000
0010
0000
0000
0000
0001
0000
0010
0000
,
0100
0010
1000
0010
0100
0100
1000
0000
,
1000
0100
0000
0000
0100
0010
0000
0000
0010
0001
0000
0000
0001
0010
0000
0000
,
0100
0010
0000
0000
1000
0001
0000
0000
0010
0100
0000
0100
0010
0000
1000
0000
,
0110
0001
0110
0001
0001
0010
0100
1000
,
0010
0100
0100
0001
0010
1000
0010
0001
,
0110
0000
1000
0000
0100
0000
0010
0000
0001
0010
0001
0000
0010
0000
0100
0010
,
0000
0020
0000
0130
1000
0001
1000
0010
,
0110
0000
0000
1001
0000
0000
0010
0000
0110
0000
0000
1001
0000
0000
0000
1000
,
0100
0010
0100
0010
0001
1000
0100
0010
,
1001
0000
0010
0000
0100
0000
0001
0000
1000
0010
1000
0000
0100
0000
0001
0100
,
0000
0200
0000
0310
0001
1000
0010
0001
,
1000
0000
0000
0100
0000
0000
0010
0100
0010
0000
0000
0001
0000
0000
0010
0100
,
0010
1000
0001
0100
0100
0010
0100
0100
,
1001
0001
0001
0010
0020
0000
0130
0001
,
0110
0100
0100
0000
0010
0100
1010
0100
,
1010
0100
0100
0100
0001
0010
1001
0010
,
0010
0000
0010
0000
0100
0000
0000
0001
0010
0000
0010
0100
0010
0000
1000
0000
,
0101
0100
0100
0001
0001
0010
1010
0001
,
0001
0000
0001
0000
0001
0000
0000
0000
0110
0000
1000
0001
1000
0000
0010
0000
,
0110
0000
1000
0000
1000
0000
1000
0000
0001
0000
0000
0000
0010
0000
1000
0100
,
0001
0010
0010
0010
0100
0010
0100
0000
,
1001
0000
0000
0000
0000
0000
0100
0000
0000
0000
0000
0000
0010
0000
0000
0000
0000
0000
1000
0000
0000
0000
0000
0000
0100
0000
0000
0000
0001
0000
0000
0000
0000
0000
0000
0000
0010
0000
0000
0100
0000
0000
1000
0000
0000
0100
0000
0000
,
0010
0000
0000
1000
0000
0000
0001
0000
0000
0100
0000
0000
0001
0000
1000
0000
0000
0000
1100
0000
0000
0000
0000
0000
,
0011
0000
0000
0000
0000
0000
0100
0000
0000
0000
0000
0000
0010
0000
0000
0000
0000
0000
1000
0000
0000
0100
0000
0000
0010
0000
0000
0000
0001
0000
0000
0000
0000
0000
0000
0000
0010
0000
0000
0000
0000
0000
0100
0000
0000
0000
0000
0000
,
0110
0000
0000
0000
;

//---------------dance-single - ----------------
#NOTES:
     dance-single:
     :
     Medium:
     6:
     0.307,0.309,0.017,0.052,0.009:
1002
0000
0013
0010
,
0000
0000
0100
0000
0000
0001
0000
0000
,
0100
0200
0000
0310
,
0000
1000
0000
0010
,
0100
0000
0000
0100
0000
0000
0100
0000
0000
0000
0000
0000
0001
0000
0000
0000
,
0000
0010
0100
0100
,
1000
0000
0000
1000
0000
0000
1000
0000
0000
0000
0000
0000
0010
0000
0000
0000
,
0020
0000
0230
0000
,
0301
0010
0100
0010
,
1000
0100
1000
0000
0001
0010
0001
0000
,
0010
0100
0010
1000
,
0010
0000
0010
0000
0100
0010
0100
0000
,
0001
1000
0010
0010
,
1000
0000
0100
0010
0001
0000
0010
0010
,
0000
0100
0010
0000
0001
0010
0001
0000
,
0010
0000
0100
0000
0010
0100
1000
0000
,
0010
0000
0010
0000
0100
1000
0100
0000
,
0010
0000
0100
0000
0001
0010
0001
0000
,
0100
0010
0100
0010
,
1000
0001
0200
0310
,
0010
0010
0001
0001
,
0010
0000
0100
0000
0010
0100
0000
0100
,
1000
0000
0100
0000
0010
0001
0010
0100
,
0000
0000
0000
0200
0000
0000
0310
0000
,
1000
0100
0010
0001
,
1000
0000
0100
0000
0010
0000
0001
0010
,
0001
0000
0010
0100
0010
0000
0100
0000
,
0010
0010
0001
0100
,
0001
0010
0100
1000
,
0001
0000
0010
0000
0100
0000
1000
0100
,
1000
0000
0001
0010
0001
0000
0100
0000
,
0010
1000
0010
0100
,
1001
0000
0010
0000
0100
0000
0010
0100
,
1000
0000
1000
0000
0100
0000
0010
0001
,
0010
0010
0100
0100
,
0010
1000
0010
0000
0100
0001
0100
0000
,
0010
0000
0100
0000
0010
0000
0001
0010
,
0100
0000
0100
0000
0010
0000
1000
0100
,
1000
0000
0001
0010
0001
0000
0100
0000
,
0010
0000
0100
0000
0001
1000
0001
0000
,
0100
0010
0010
0010
0010
0000
1000
0100
,
0100
0100
0100
0000
0001
0010
0001
0000
,
0100
0001
0001
0001
0001
0000
0010
1000
,
1000
1000
1000
0000
0010
0100
0010
0000
,
1000
0100
0100
0100
0100
0000
0010
0100
,
0100
0100
0100
0000
0001
1000
0001
0000
,
0010
0100
0100
0100
0100
0000
0010
0000
,
1000
0100
0100
0010
0010
0100
0010
0000
,
1000
0100
0010
0001
,
0001
0000
0010
0000
0100
0000
0010
0010
,
0100
0000
1000
0000
0100
0000
0010
1000
,
0010
0000
0000
0000
;

//---------------dance-single - ----------------
#NOTES:
     dance-single:
     :
     Easy:
     3:
     0.244,0.221,0.043,0.043,0.000: // measure 1
0020
0000
0130
0100
,  // measure 2
0000
0000
0000
0000
0000
1000
0000
0000
,  // measure 3
0100
0200
0000
0000
,  // measure 4
0300
0000
0000
0010
,  // measure 5
0100
0100
0100
0001
,  // measure 6
0000
1000
0000
0010
,  // measure 7
1000
1000
1000
0010
,  // measure 8
0200
0000
0000
0300
,  // measure 9
0010
0010
0100
0100
,  // measure 10
0001
0010
0100
1001
,  // measure 11
0010
0010
0001
0001
,  // measure 12
0100
0010
0100
1001
,  // measure 13
0010
1000
0100
0010
,  // measure 14
1000
0100
0010
0010
,  // measure 15
0100
0001
0100
0001
,  // measure 16
0010
1000
0010
1000
,  // measure 17
0010
0010
0100
0100
,  // measure 18
1000
0100
1000
0010
,  // measure 19
0100
0100
0100
0010
,  // measure 20
1000
1000
1000
0000
,  // measure 21
0010
0010
0100
0001
,  // measure 22
0100
0010
0100
0100
,  // measure 23
0010
1000
0010
0100
,  // measure 24
0002
0000
0000
0013
,  // measure 25
0100
0100
0010
0010
,  // measure 26
1000
1000
0001
0001
,  // measure 27
0010
0100
0020
0030
,  // measure 28
0010
0100
0001
1000
,  // measure 29
0010
0010
0100
0100
,  // measure 30
0001
0001
1000
1000
,  // measure 31
0010
0100
0010
0100
,  // measure 32
1000
0001
1000
0001
,  // measure 33
1001
0010
1000
0001
,  // measure 34
0100
0100
0010
1000
,  // measure 35
0010
0010
0100
0100
,  // measure 36
0001
1000
0010
0100
,  // measure 37
1001
0010
0001
0100
,  // measure 38
0010
0010
0100
0001
,  // measure 39
0100
0100
1000
1000
,  // measure 40
0010
0100
0001
1000
,  // measure 41
0010
0010
0010
0010
,  // measure 42
1000
1000
0010
0100
,  // measure 43
0001
0001
0001
0001
,  // measure 44
0010
0010
1000
0100
,  // measure 45
1000
1000
1000
1000
,  // measure 46
0100
0100
0001
1000
,  // measure 47
0100
0100
0100
0100
,  // measure 48
0010
0010
0010
0100
,  // measure 49
0010
0001
0010
0100
,  // measure 50
0010
1000
0100
0010
,  // measure 51
0100
0010
0100
0001
,  // measure 52
0110
0000
0000
0000
;
