#TITLE:BIRTHDAY;
#SUBTITLE:;
#ARTIST:SOMI;
#TITLETRANSLIT:;
#SUBTITLETRANSLIT:;
#ARTISTTRANSLIT:;
#CREDIT:;
#BANNER:BIRTHDAY banner.png;
#BACKGROUND:BIRTHDAY bg.png;
#LYRICSPATH:;
#CDTITLE:;
#MUSIC:BIRTHDAY.mp3;
#OFFSET:-11.300;
#SAMPLESTART:51.660;
#SAMPLELENGTH:15.000;
#SELECTABLE:YES;
#BPMS:0.000=179.980,97.000=90.000,173.000=179.980;
#STOPS:109.000=1.340
,170.000=1.340
;
#BGCHANGES:0.000=BIRTHDAY.avi=1.000=0=0=1,
99999=-nosongbg-=1.000=0=0=0 // don't automatically add -songbackground-
;

//---------------dance-single - ----------------
#NOTES:
     dance-single:
     :
     Hard:
     9:
     0.565,0.637,0.224,0.050,0.291:
1000
0000
0100
0000
0001
0010
0100
1000
,
0100
0010
0001
0100
0010
1000
0010
0000
,
0100
1000
0100
0001
0100
1000
0100
0000
,
0010
0100
0010
0010
0001
0010
0100
0000
,
0010
1000
0001
0100
0010
1000
0010
0000
,
0100
1000
0001
0010
0001
0100
0010
0000
,
1000
0100
0001
0100
0010
0001
1000
0010
,
0100
1000
0010
0100
1000
0001
0010
0000
,
0010
0000
0100
0001
0001
0100
0010
0000
,
0010
1000
0020
0000
0130
0001
0200
0000
,
0000
0301
0010
1000
0010
0000
1000
0000
,
0100
0001
1000
1000
0010
0010
0200
0000
,
0301
1000
0010
0100
1000
0000
1000
0000
,
0010
0100
0010
1000
0001
0000
0001
0000
,
0100
0010
0010
1000
0010
1000
1000
0000
,
0001
0010
1000
0010
0001
0010
0100
1000
,
0100
1001
0010
1100
,
0010
0100
1000
0100
0001
0100
0010
0000
,
0010
1001
0010
1001
,
0010
0100
0000
0100
1000
0100
0001
0100
,
1000
0010
0100
0000
1001
0000
0010
0000
,
0001
1000
0001
1000
0010
0100
0010
0000
,
0010
0000
1000
0000
0001
0000
0100
1000
,
1000
0010
0100
0100
0001
0001
0100
0010
,
0100
0000
1000
0000
0010
0000
0001
1000
0001
0000
0010
0100
0000
0100
1000
0000
,
0010
0000
0000
0000
0100
0010
0001
0010
0100
1000
0100
0010
0100
0000
0100
0000
,
0000
0010
0001
0010
0100
0000
1000
0010
1000
0000
0010
0100
0000
0100
0001
0000
,
0010
0000
0000
0000
1001
0000
0000
0000
0100
0000
0000
0000
0110
0000
0001
0010
,
0001
0000
0010
0100
0000
0001
0000
0100
1000
0100
0010
0000
0110
0000
1000
0100
,
0010
0000
0001
0100
0000
0100
0010
1000
0100
0010
0001
0010
0100
0000
1000
0001
,
1000
0000
0010
0100
0000
0100
0000
1000
0100
0010
0001
0000
0010
0100
0010
0001
,
0010
0100
0010
1000
0010
0100
1000
0100
0010
0000
0010
0000
1001
0000
0010
0000
,
0100
0000
0001
0001
0000
0010
0000
0100
1000
0000
0010
0000
0110
0000
0001
0000
,
1000
0000
0010
0010
0000
0100
0001
0010
1000
0100
0010
0001
0100
0000
0100
0000
,
0010
0000
1000
1000
0000
0001
0010
0100
0000
0010
0000
1000
0001
0000
0010
0000
,
0100
0000
1000
0000
0010
0000
0100
0010
0100
0000
1000
0000
1001
0000
0010
0000
,
0010
0000
0100
0000
0001
1000
0000
2000
0000
0000
3100
0010
0100
0000
0001
0000
,
0001
0000
0010
0000
0100
0001
0000
0001
0000
0010
0000
0100
0110
0000
0120
0000
,
0000
0000
0130
0000
1000
0000
0100
0000
0100
0000
0010
0001
1000
0000
0010
0000
,
0100
0000
0001
0000
0010
0000
1000
0010
0000
0010
1000
0000
0110
0000
0100
0000
,
0101
0000
0010
0000
1000
0010
0000
0010
0000
0100
1000
0001
0100
0000
0010
0000
,
1000
0000
0010
0001
0010
0100
0000
0100
0000
0010
0000
1000
0010
0000
0010
0000
,
0100
0000
0100
0000
0001
1000
0001
1000
1001
0000
0000
0000
0100
0000
0010
1000
,
0010
0100
1001
0000
0100
0010
0110
0000
,
1000
0001
0000
0110
0000
0001
0010
1000
,
0010
0100
0010
0000
1000
0001
1000
0000
,
0010
1000
0000
1000
0100
0010
0100
0010
,
0001
0010
0100
0000
0010
1000
1010
0000
,
0100
0001
0000
0100
0000
0010
1000
0010
,
0100
0001
0100
0010
1000
0100
0001
0100
,
0010
1000
0010
0000
0010
0000
1000
0001
,
1000
0010
0110
0000
1000
0010
0100
0001
,
0010
0010
0000
0100
0010
0001
1000
0010
,
0001
0100
0110
0000
1000
0010
1000
1000
,
0100
0010
0000
0010
0100
0001
0100
1000
,
0010
0100
0001
0000
0010
0000
0100
0000
,
0010
1000
0000
1000
0100
0010
0000
0010
,
0100
0001
0110
0000
1001
0000
1010
0000
,
1100
1001
0020
0000
,
0030
0000
0000
0000
;

//---------------dance-single - ----------------
#NOTES:
     dance-single:
     :
     Easy:
     4:
     0.280,0.270,0.091,0.091,0.000: // measure 1
1000
0010
0010
0100
,  // measure 2
0001
0100
0010
1000
,  // measure 3
0001
0010
0010
0100
,  // measure 4
0010
1000
0100
0001
,  // measure 5
0100
0010
0010
1000
,  // measure 6
0100
1000
0010
0100
,  // measure 7
0001
1000
1000
0010
,  // measure 8
0100
0001
0010
0010
,  // measure 9
0100
0001
0010
0100
,  // measure 10
1000
0010
0100
2000
,  // measure 11
0000
3100
0010
0100
,  // measure 12
0010
1000
0100
0020
,  // measure 13
0000
0031
0100
0001
,  // measure 14
0010
1000
1000
0020
,  // measure 15
0000
0130
0001
0100
,  // measure 16
0010
1000
1000
0010
,  // measure 17
0100
1001
0010
0001
,  // measure 18
0010
0100
0010
0100
,  // measure 19
0100
0010
0001
0010
,  // measure 20
0100
1000
0100
0010
,  // measure 21
0100
0010
1000
0100
,  // measure 22
0010
0001
1000
0100
,  // measure 23
0100
0010
0100
0001
,  // measure 24
0010
1000
0010
0001
,  // measure 25
0100
0010
0100
0010
,  // measure 26
0010
0001
0010
2000
,  // measure 27
3000
0010
0010
0100
,  // measure 28
0100
1001
0010
0110
,  // measure 29
1000
0100
0001
0110
,  // measure 30
0001
0010
1000
1001
,  // measure 31
0010
0001
0100
0010
,  // measure 32
1000
0020
0030
0101
,  // measure 33
0010
1000
0010
1100
,  // measure 34
0010
0100
0001
0100
,  // measure 35
0010
0010
0100
1000
,  // measure 36
0001
1000
0010
1000
,  // measure 37
1000
2000
3000
0100
,  // measure 38
0100
0200
0300
0010
,  // measure 39
0001
0010
0100
0010
,  // measure 40
1000
0010
0100
0001
,  // measure 41
0001
0002
0003
0010
,  // measure 42
0010
0020
0030
0100
,  // measure 43
0001
1000
0010
0100
,  // measure 44
0010
1001
0000
0010
,  // measure 45
0000
0100
0001
0010
,  // measure 46
0100
1001
0000
0010
,  // measure 47
0000
0100
0001
1000
,  // measure 48
0010
0100
0100
0010
,  // measure 49
0000
0001
0001
0010
,  // measure 50
0000
0010
0100
1000
,  // measure 51
0100
0010
0020
0000
,  // measure 52
0030
0110
0000
0001
,  // measure 53
0000
0010
0100
0001
,  // measure 54
0100
1010
0000
0100
,  // measure 55
0000
0010
0001
0010
,  // measure 56
0100
0010
0010
1000
,  // measure 57
1000
0010
0001
0100
,  // measure 58
0010
0001
0001
0010
,  // measure 59
0100
1000
0020
0000
,  // measure 60
0030
0000
0000
0000
;

//---------------dance-single - ----------------
#NOTES:
     dance-single:
     :
     Medium:
     6:
     0.377,0.417,0.083,0.058,0.000:
1000
0010
0100
0100
,
0001
0000
0010
0000
1000
0010
1000
0000
,
0010
0100
0010
0010
,
0001
0000
0001
0000
1000
0010
1000
0000
,
0010
0000
0010
0000
0100
0001
0100
0000
,
0010
0000
1000
0000
0100
1000
0100
0000
,
0010
0100
0001
0100
,
0010
1000
1000
1000
,
0010
0101
0010
0010
,
1000
0001
1000
0000
0010
0100
0020
0000
,
0000
0130
1000
1000
,
0100
0000
0001
0000
0100
0010
0002
0000
,
0000
0013
0010
0100
,
0010
0000
1000
0100
0010
0000
0200
0000
,
0000
0310
0010
1000
,
0001
0000
0100
0000
1000
0000
0001
0010
,
0100
0110
1000
0010
,
0100
0000
0001
0000
1000
0010
1000
0000
,
1000
0110
0001
0010
,
0001
0000
0100
0000
0010
0000
0100
0010
,
0100
0001
0010
0100
,
0010
1000
0010
0000
1000
0010
1000
0000
,
0100
0001
0001
0010
,
0100
0000
0001
0000
0010
0100
0010
0000
,
0001
0000
0100
0010
1000
1000
0100
0010
,
0010
0000
0001
0100
0010
1000
0010
0010
,
0000
0010
0100
0010
0001
0001
0010
0100
,
0100
0000
1001
0000
0010
0000
1000
0001
,
1000
0001
1000
0010
1000
0010
1000
0100
,
1000
0100
0010
0001
0010
0100
0001
1000
,
0001
1000
0001
0100
0001
0100
0010
0010
,
0010
0010
0100
0001
0100
0100
0110
0000
,
1000
0100
0000
0001
0100
0100
0110
0000
,
1000
0001
0000
0001
0010
1000
0010
0010
,
0100
0100
0000
0010
0010
1000
0100
0100
,
0001
0100
0001
0000
0010
0000
1000
0100
,
0010
0100
0010
0000
0010
0000
0001
0010
,
0100
1000
0100
0000
0100
0000
0010
0020
,
0000
0000
0130
0000
0001
0000
1000
2000
,
0000
0000
3010
0000
0100
0000
0001
0010
,
0100
0001
0100
0000
0100
0000
0010
1000
,
0010
0100
0001
0000
0001
0000
0010
0020
,
0000
0000
0130
0000
1010
0000
0100
0010
,
0001
1001
0010
1000
,
0010
0000
0100
0000
0001
0000
0100
0010
,
0100
0010
0100
0000
0001
0000
1000
0000
,
0010
0000
1000
0000
0100
0000
0001
0010
,
0001
0010
0001
0000
0100
0000
0010
0000
,
1000
0000
0100
0000
0010
0000
1000
0100
,
1000
0100
1000
0000
0010
0000
1000
0000
,
0010
0010
0100
0000
0010
0000
0001
0000
,
0010
0110
0001
0010
,
0100
0010
0000
0010
0000
0010
1000
0000
,
0001
1100
0010
0100
,
0001
0100
0000
0100
0010
0100
0010
0000
,
0001
1000
0001
0000
0010
0000
0010
0000
,
0100
0000
0001
0000
0100
1000
0100
0000
,
0010
0100
0100
0100
,
0010
0100
0002
0000
,
0003
0000
0000
0000
;
