#TITLE:BEEP BEEP;
#SUBTITLE:;
#ARTIST:RUANN;
#TITLETRANSLIT:;
#SUBTITLETRANSLIT:;
#ARTISTTRANSLIT:;
#CREDIT:;
#BANNER:BEEP BEEP banner.png;
#BACKGROUND:BEEP BEEP bg.png;
#LYRICSPATH:;
#CDTITLE:;
#MUSIC:BEEP BEEP.mp3;
#OFFSET:-7.500;
#SAMPLESTART:50.400;
#SAMPLELENGTH:15.000;
#SELECTABLE:YES;
#BPMS:0.000=129.980;
#STOPS:;
#BGCHANGES:;

//---------------dance-single - ----------------
#NOTES:
     dance-single:
     :
     Hard:
     9:
     0.601,0.548,0.385,0.113,0.432:
0010
0000
0000
0100
0000
0000
0001
0000
0100
0000
0000
0010
0000
0000
1000
0000
,
0020
0000
0000
0000
0230
0000
0000
0000
0301
0000
0010
0000
1000
0000
0010
0100
,
0010
0000
0000
0001
0000
0000
0010
0000
0100
0000
1000
0000
0100
0010
0000
0010
,
0100
0000
0000
0001
0000
0000
0001
0000
0010
0100
0000
0100
1000
0000
0000
0000
,
1001
0010
0100
0100
0001
0101
1000
0010
,
0110
0100
1000
0100
0010
0000
2001
0000
,
3001
0010
0010
0100
0100
0001
1000
0010
,
0110
0000
1000
0000
0100
0000
0010
0000
0001
0000
0010
0000
0100
1000
0000
1000
,
0000
0010
0000
0100
0000
0000
0010
0000
0000
0000
0010
0000
1000
0001
0000
0010
,
0000
0100
0000
1000
0000
0000
0010
0000
0000
0000
0100
0000
0001
0000
0010
0000
,
0110
0000
0001
0000
1000
0000
1000
0000
0100
0000
1000
0000
0100
0010
0001
0010
,
0100
0000
0000
1000
0000
0000
0100
0000
0010
0100
0000
0100
0010
0000
0000
0000
,
1001
0100
1100
0200
0000
0310
0010
0100
,
0001
0010
0001
0100
0010
1000
0010
0110
,
0110
0000
0001
0010
0100
1000
0001
0010
,
0100
0000
0100
0000
1000
0000
0100
0000
0001
0000
0000
1000
0001
0000
0001
0000
,
0110
0001
0010
0200
0000
1300
0010
0100
,
0001
0100
0100
0010
1000
0010
0001
1100
,
0011
0000
0100
0010
1000
0001
0010
0010
,
0001
0010
0100
0100
0010
1000
0100
0001
,
0110
0000
1000
0100
0010
0000
0100
0010
,
0001
0000
0010
0100
0010
0000
0001
0010
,
0110
0000
0110
0000
1001
0000
1001
0000
0001
0000
0010
0000
0100
1000
0100
0010
,
0100
0000
0000
0000
,
1001
0000
0000
0100
0010
0000
0001
0000
0010
0000
0000
1000
0001
0000
0010
0000
,
0100
0000
0001
0000
0010
0000
1000
0000
0010
0000
0100
0000
0001
0010
0100
1000
,
0100
0000
0000
0011
0000
0000
0100
0000
0110
0000
0000
0010
0000
0000
1000
0000
,
0010
0000
0100
0000
0001
0000
0010
0000
0010
0000
0000
0100
0000
0000
0010
0000
,
1001
0000
0000
0010
0100
0000
1000
0000
0100
0000
0000
0001
0100
0000
0010
0000
,
0001
0000
0010
0000
0100
0000
1000
0000
0010
0000
0100
0000
1000
0100
0010
0001
,
0010
0000
0000
1010
0000
0000
0100
0000
0101
0000
0000
0010
0000
0000
0100
0000
,
0001
0010
0000
0000
0010
0100
0000
0000
0100
1000
0000
0000
0010
0000
0010
0000
,
1000
0000
0100
0010
0000
0010
0001
0000
0001
0010
0000
0010
0100
0000
0010
0000
,
0100
0000
0000
0001
0000
0000
0100
0000
0010
0000
1000
0000
0100
0000
1000
0000
,
0010
0000
1000
0010
0000
0010
0001
0000
0001
0010
0000
0100
1000
0000
0010
0000
,
0210
0000
0000
0000
1300
0000
0001
0000
0010
0000
0001
0000
0001
0000
0100
0010
,
0100
0000
0000
0001
0000
0000
0100
0000
0000
0010
0000
0000
1000
0000
0010
0000
,
0100
0000
0000
1000
0000
0000
0010
0000
0000
0100
0000
0000
0001
0000
0100
0000
,
0110
0000
0000
0110
0000
0000
0110
0000
0000
0001
0000
0000
0010
0000
0100
0000
,
1000
0000
0000
0010
0000
0000
0200
0000
0000
0000
0000
0000
0300
0000
0000
0000
,
1001
0000
0000
1010
0000
0000
0010
0000
0100
0001
0000
0001
0100
0000
0010
0000
,
1100
0100
0110
0000
0011
0010
0110
0000
,
1000
0000
0100
0000
0010
0000
0100
0000
0001
0000
0010
0000
0100
0000
0000
0000
0000
0000
0010
0000
0000
0010
0000
0000
,
1000
0002
0000
0000
0013
0000
0100
0000
0001
2000
0000
0000
3100
0010
0000
0000
,
0010
0001
0010
0100
1000
0100
0010
0000
0000
1001
0000
0000
,
1000
1000
0100
0010
0001
0100
0010
0000
0000
0210
0000
0000
,
0301
0010
0100
1000
0010
0100
1000
0000
0000
2100
0000
0000
,
3100
0010
0100
0001
0100
0100
0010
0000
1000
0100
0010
0001
,
0010
0000
0000
0100
0010
1000
0010
0100
0001
0100
0000
0000
,
1010
1000
1010
0200
0000
0301
0001
0010
,
0100
0010
0010
0100
0001
0000
1000
0010
,
0110
0000
0001
0010
0100
0010
1000
0010
,
0110
0000
0000
0000
0001
0000
0010
0000
0100
0000
0010
0000
1000
0000
0100
0010
,
0001
0000
0000
0000
;

//---------------dance-single - ----------------
#NOTES:
     dance-single:
     :
     Medium:
     7:
     0.423,0.398,0.160,0.141,0.000:
0010
0000
0100
0001
0000
0001
0010
0100
,
2000
0000
3200
0000
0320
0001
0031
0000
,
0110
0000
1001
0000
0010
0010
0010
0000
,
1100
0000
0011
0000
1000
1000
1000
0000
,
0010
0000
0100
0000
0001
0010
0000
0010
,
0100
0000
0100
0010
0100
0000
1001
0000
,
0010
0000
1000
0100
0000
0100
0010
0001
,
0010
0000
0100
0010
0010
0000
0101
0000
,
0010
1000
1000
0000
0100
0000
0010
0100
,
0100
0000
0001
1000
1000
0000
0010
0100
,
0010
0000
1000
0100
0010
0000
0001
0010
,
0100
0000
0100
0000
0100
0010
0001
0000
,
0010
0100
0010
0200
0000
0000
1300
1000
,
1000
0100
0010
0001
0000
0010
0000
0100
,
0110
0000
0001
1000
0001
0000
1000
0001
,
1000
0000
0010
0200
0000
0000
0310
0010
,
0100
0001
1000
0002
0000
0000
0013
0010
,
0010
0100
0001
0200
0000
0310
1000
0010
,
0010
0000
0100
0001
0100
0000
0010
1000
,
0010
0000
0100
1000
0000
1000
0100
0000
,
0010
0000
0100
0001
0000
0001
0100
0000
,
0010
0000
0100
0010
0000
0010
0100
0000
,
1100
0110
0011
0110
,
0000
0000
0000
0000
,
1000
0100
0010
0000
0100
0010
0001
0000
,
0010
0100
0010
0000
0001
1000
0001
1000
,
0001
0010
0100
0000
0010
0100
1000
0000
,
0010
0110
0001
0001
,
0100
0010
0100
0000
0001
0010
1000
0000
,
0010
0100
1000
0000
0100
0010
0100
0010
,
0001
0010
0100
0000
0001
1000
0100
0000
,
1000
0000
0100
0000
0020
0000
0130
0100
,
0100
0000
0001
0000
0100
0010
0100
0000
,
0001
0010
1000
0000
0020
0000
0130
0000
,
0001
0000
1000
0010
1000
0000
0100
0010
,
0200
0000
0000
0301
0000
1000
0000
0010
,
0100
0000
0100
0000
0001
1000
0001
0000
,
0010
0000
0010
0000
1000
0001
1000
0000
,
0001
0000
0010
0100
0000
0100
1000
0000
,
0100
0000
0010
2000
0000
0000
3100
0000
,
0110
0000
0010
0000
0001
0100
0001
0000
,
0010
0100
0100
0000
0010
0100
0100
0000
,
0010
1000
0010
0000
0200
0000
0301
0000
,
0011
0100
1100
0010
,
1000
0100
1000
0000
0020
0000
0031
0000
,
0010
0010
0001
0100
0010
0000
0000
0000
,
0010
0010
1000
0010
1000
0000
0000
0000
,
0100
0100
0010
0100
0002
0000
0013
0100
,
0010
0000
1000
0001
1000
0000
0110
0000
,
1000
0100
0010
0002
0000
0000
0013
0010
,
0000
0100
0010
0100
0000
0001
0000
1000
,
1001
0000
0010
0100
0001
0000
0010
1000
,
0010
0000
0100
1000
0100
0000
0010
0010
,
0100
0000
0000
0000
;

//---------------dance-single - ----------------
#NOTES:
     dance-single:
     :
     Easy:
     3:
     0.327,0.348,0.319,0.103,0.000: // measure 1
1000
0100
1000
0100
,  // measure 2
0020
0030
0100
0100
,  // measure 3
0001
0001
0010
0100
,  // measure 4
0010
0010
0100
0010
,  // measure 5
1000
0101
1000
0101
,  // measure 6
0010
0010
0001
0200
,  // measure 7
0310
1000
0010
0010
,  // measure 8
0100
1000
0100
0110
,  // measure 9
1001
0010
0010
0100
,  // measure 10
0001
0010
0002
0003
,  // measure 11
0010
0010
0100
0100
,  // measure 12
0010
1000
0001
0100
,  // measure 13
0010
0200
0300
0010
,  // measure 14
0010
0100
0001
1000
,  // measure 15
1001
0010
0010
0100
,  // measure 16
1000
0100
0010
0001
,  // measure 17
1000
0200
0300
0010
,  // measure 18
0100
0001
0001
0100
,  // measure 19
0110
0010
1000
1000
,  // measure 20
0100
0001
0100
0010
,  // measure 21
1100
0100
0010
0100
,  // measure 22
0101
0010
0010
0100
,  // measure 23
0011
0110
1100
1001
,  // measure 24
0000
0000
0000
0000
,  // measure 25
0110
1100
0011
1001
,  // measure 26
0010
0010
0100
0001
,  // measure 27
1100
1001
0011
1001
,  // measure 28
0010
0010
0100
0010
,  // measure 29
1100
0110
0101
0110
,  // measure 30
1000
0010
0100
0001
,  // measure 31
1010
0101
1100
1001
,  // measure 32
0010
0010
0010
0100
,  // measure 33
0001
0010
0100
1000
,  // measure 34
0100
0010
0200
0300
,  // measure 35
0010
0010
0100
0001
,  // measure 36
0200
0300
0001
0001
,  // measure 37
1000
0010
0100
0100
,  // measure 38
0001
1000
0010
0010
,  // measure 39
0100
0001
0010
1000
,  // measure 40
0010
0010
0200
0300
,  // measure 41
0010
0010
0100
0110
,  // measure 42
0010
0010
0001
0001
,  // measure 43
1000
0010
0100
0010
,  // measure 44
0010
1000
0101
0010
,  // measure 45
0100
0010
1000
0110
,  // measure 46
1000
1000
0200
0300
,  // measure 47
0010
0010
0002
0003
,  // measure 48
0100
0100
0010
0010
,  // measure 49
1000
1000
0001
1001
,  // measure 50
0010
0200
0300
0001
,  // measure 51
0010
0001
0100
0010
,  // measure 52
1001
0010
0100
0010
,  // measure 53
1000
1000
0100
0010
,  // measure 54
0110
0000
0000
0000
;
