#TITLE:Alone;
#SUBTITLE:;
#ARTIST:SISTAR;
#TITLETRANSLIT:;
#SUBTITLETRANSLIT:;
#ARTISTTRANSLIT:;
#CREDIT:;
#BANNER:Alone banner.png;
#BACKGROUND:Alone bg.png;
#LYRICSPATH:;
#CDTITLE:;
#MUSIC:Alone.mp3;
#OFFSET:-9.920;
#SAMPLESTART:68.020;
#SAMPLELENGTH:15.000;
#SELECTABLE:YES;
#BPMS:0.000=115.080;
#STOPS:;
#BGCHANGES:;

//---------------dance-single - ----------------
#NOTES:
     dance-single:
     :
     Hard:
     8:
     0.483,0.405,0.290,0.218,0.339:
2000
0000
0100
0100
,
3020
0000
0000
0000
0031
0010
0100
1000
,
0200
0000
0000
0000
0010
0000
0310
0020
,
0000
0000
0000
0000
0100
0000
0030
0000
0000
0001
1000
0000
0100
0000
0010
0100
,
0001
0000
1000
0000
0010
0000
0001
0000
0110
0000
0000
0000
1001
0000
0000
0010
,
0000
0000
0200
0000
0300
0000
0010
1000
0010
0000
0100
0000
0001
0000
0000
0000
,
0100
0000
0001
0000
1000
0000
0100
0000
0011
0000
0000
0000
1001
0000
0000
0100
,
0000
0020
0030
1000
0001
0100
0010
0000
,
1000
0000
0100
0000
0010
0000
0001
0000
0110
0000
0000
0000
1001
0000
0000
0001
,
0000
0200
0300
1000
0001
1000
0010
0000
,
0100
0000
0000
0000
1100
0000
0010
0001
0000
0001
0000
0000
0010
0000
0000
0000
,
0100
0100
1000
0001
0010
0100
1000
0000
,
0010
0000
1000
0000
0100
0000
0001
0000
0010
0000
1000
0001
0000
0100
0000
0001
,
0000
0000
0000
0000
1001
0000
0000
0000
0100
0000
0010
1000
0000
0100
0000
0010
,
0000
0000
0000
0000
0100
0000
0001
0000
0010
0000
1000
0100
0000
0000
0010
0000
,
1000
0001
0100
1000
0101
0000
1010
0000
,
0100
0000
0001
0000
0010
0000
1000
0000
0100
0001
0100
0010
0000
0010
0000
2000
,
0000
0000
3000
0000
0010
0000
0001
0000
1000
0000
0010
0100
0000
0001
0000
0100
,
0000
0000
0000
0000
1000
0000
0001
0000
0100
0010
0100
1000
0000
1000
0000
0000
,
0010
0100
0000
0100
0010
0000
0001
0000
1010
0000
0000
0000
1001
0000
0000
0000
,
0010
1000
0010
1000
0000
0001
1000
0001
0000
0010
0000
0100
0000
0000
0001
0000
,
0010
1000
0100
0001
0000
0010
0010
1000
,
0200
0000
0001
0001
0301
0000
0010
1000
,
0020
0000
0100
0100
0130
0000
1001
0000
,
0010
0000
1000
0100
0000
0001
0010
0001
0000
0100
0000
1000
0000
0000
0100
0000
,
0010
0001
0010
0100
0000
1000
0000
0001
0000
0100
0000
0020
0000
0000
0000
0000
,
0130
0000
1000
0000
0010
0000
0100
0001
0000
0000
0001
0000
0000
0000
0010
0000
,
1001
0000
1000
0000
1010
0000
1000
0000
0100
0001
0010
0000
0100
0000
1000
0000
,
0100
0010
0000
0200
0000
0000
0301
0000
1000
0000
0010
0000
0110
0000
0000
0000
,
0010
0100
0000
0020
0000
0000
1030
0000
0001
0000
0100
0000
0110
0000
0000
0000
,
0001
1000
0000
0002
0000
0000
0013
0000
1000
0000
0100
0000
0110
0000
0000
0000
,
1000
0001
0000
2000
0000
0000
3100
0000
0001
0000
0010
0000
0100
0000
2000
0000
,
0000
0000
0100
0000
3010
0001
0010
0000
0100
0000
0000
0100
0000
0000
0000
0000
,
0110
0000
0001
1000
0010
1000
0001
1000
0010
0000
0000
0010
0000
0000
0000
0000
,
1100
0000
0001
0000
0100
0000
0010
0000
1000
0001
0000
0101
0000
0000
0000
0000
,
1000
0100
0010
0001
1000
0100
0010
0001
,
0100
1000
0000
2000
0000
0000
3100
0000
0010
0000
0001
0000
1001
0000
0000
0000
,
0010
0001
0000
0002
0000
0000
0013
0000
0100
0000
1000
0000
1001
0000
0000
0000
,
0010
0100
0000
0200
0000
0000
1300
0000
0001
0000
0100
0000
1001
0000
0000
0000
,
0100
0010
0000
0020
0000
0000
0031
0000
1000
0000
0010
0000
0100
0000
0001
0000
,
0000
0000
1010
0000
1100
0000
0010
0001
0010
0000
0000
0010
0000
0000
0000
0100
,
0010
0001
0010
0100
1000
0000
0100
0000
0010
0000
0000
0010
0000
0000
0000
0000
,
1100
0000
0010
0000
0100
0000
0001
0000
1000
0010
0000
0020
0000
0000
0000
0000
,
0031
0010
0100
1000
0001
0010
0200
0000
,
0301
0000
0010
0000
0100
0000
1000
0000
0110
0000
0000
0000
1001
0000
0000
0100
,
0000
0000
0020
0000
0030
0000
0100
1000
0100
0000
0001
0000
0010
0000
0000
0000
,
0100
0000
0010
0000
1000
0000
0100
0000
0011
0000
0000
0000
0101
0000
0000
0010
,
0000
2000
3000
0001
0010
1000
0110
0000
,
0001
0000
1000
0000
0010
0000
0001
0000
0020
0000
0030
0000
1000
0000
0000
0011
,
0000
0011
0000
0100
0010
1000
0001
0000
,
1000
0000
0100
0000
0010
0000
1000
0001
0000
0001
0000
0000
0110
0000
0000
0000
,
1000
0001
0100
0010
1000
0001
1000
0000
,
0220
0000
0000
0000
0000
0000
0000
0330
;

//---------------dance-single - ----------------
#NOTES:
     dance-single:
     :
     Medium:
     5:
     0.315,0.319,0.113,0.081,0.000:
0020
0000
0100
0130
,
0002
0000
0000
0000
1000
1000
1000
1000
,
2003
0000
0000
0000
0010
0000
3010
0200
,
0000
0000
0001
0000
0301
0000
0010
0010
,
1010
0100
0001
0100
,
0010
0000
0010
0000
0001
1000
0001
0000
,
0110
0001
0010
0001
,
0100
0000
0100
0000
0010
1000
0010
0000
,
0101
0010
1000
0010
,
0100
0000
0100
0000
0010
0100
0010
0000
,
1000
0000
0001
0100
0001
0000
0010
0000
,
1000
0000
1000
0000
0010
0100
0010
0000
,
1000
0100
0010
0001
,
0200
0000
0310
0000
0001
1000
0001
0000
,
0020
0031
0010
0010
,
0100
1000
0010
0010
,
0100
0000
1000
0000
0010
0100
0010
0000
,
1000
0000
0100
0000
0001
0100
0001
0000
,
0200
0000
0310
0000
1000
1000
1000
0000
,
0010
0100
0010
0000
0001
0000
0010
0000
,
1000
0000
0100
0000
0010
0001
0010
0000
,
0100
0000
0001
0100
0000
0100
0001
0000
,
0020
0000
1030
1000
1000
0000
0010
0000
,
0200
0000
0301
0001
0001
0000
0010
0000
,
0001
0000
0010
0000
0100
1000
0100
0000
,
0010
0000
0100
0000
0001
0010
0010
0000
,
0100
0010
0100
0010
,
1000
0000
0001
0000
1000
0001
1000
0000
,
0110
0000
0001
0000
0100
0010
0100
0000
,
1010
0000
0100
0000
0001
0100
0001
0000
,
0011
0000
0100
0000
0010
1000
0010
0000
,
0110
0000
1000
0000
0001
0010
0001
0010
,
0000
0100
0000
0010
0000
0100
0100
0000
,
0010
1000
0000
0001
0000
1000
1000
0000
,
0010
0100
1000
0010
,
1000
0100
0010
0001
1000
0100
0010
0001
,
0010
0000
0100
0000
0001
1000
0001
0000
,
0100
0000
1000
0000
0010
1000
0010
0000
,
0101
0000
0010
0000
0001
0100
0001
0000
,
0010
0000
1000
0000
1000
0001
1000
0001
,
0000
0010
0000
0100
0000
0001
0001
0000
,
0010
0000
1000
0000
0010
0100
0010
0000
,
1010
0100
1010
0100
,
0001
0010
0100
1000
0001
0010
0100
0000
,
0110
1000
0010
0100
,
0001
0000
1000
0000
0001
0100
0001
0000
,
0110
1000
0010
0001
,
0010
0000
1000
0000
0001
0100
0001
0000
,
1001
0010
1000
0010
,
1000
0000
0001
0000
0100
1000
0100
0000
,
1001
0010
0001
0010
,
0100
0000
0100
0000
0010
0100
0010
0000
,
0200
0000
0000
0300
;

//---------------dance-single - ----------------
#NOTES:
     dance-single:
     :
     Easy:
     2:
     0.250,0.234,0.081,0.105,0.000: // measure 1
0020
0000
0000
0030
,  // measure 2
0100
0000
0001
1000
,  // measure 3
0002
0000
0000
0003
,  // measure 4
2000
0000
0000
3010
,  // measure 5
1001
0010
0100
0001
,  // measure 6
0010
1000
0100
0100
,  // measure 7
1001
0010
0001
0100
,  // measure 8
0010
1000
0001
0001
,  // measure 9
0110
1000
0100
0001
,  // measure 10
0100
1000
0010
0010
,  // measure 11
0100
0001
0100
0100
,  // measure 12
0001
1000
0010
0010
,  // measure 13
1000
0100
0010
0001
,  // measure 14
0200
0310
1000
0001
,  // measure 15
0200
0301
0010
1000
,  // measure 16
0010
0100
0010
0010
,  // measure 17
0001
0100
0010
1000
,  // measure 18
0200
1300
0010
0100
,  // measure 19
0002
0013
0100
0100
,  // measure 20
0010
1000
0001
0100
,  // measure 21
1000
0100
0010
0001
,  // measure 22
0010
0010
0100
0001
,  // measure 23
2000
3000
0010
0000
,  // measure 24
0002
0003
0100
0000
,  // measure 25
0001
0010
0100
1000
,  // measure 26
0010
0100
0001
0001
,  // measure 27
0010
1000
0010
0010
,  // measure 28
0100
1000
0200
0300
,  // measure 29
1001
0010
0100
0100
,  // measure 30
0010
1000
0010
0010
,  // measure 31
0100
0001
1000
1000
,  // measure 32
0010
0100
0001
0200
,  // measure 33
0300
0001
0010
0010
,  // measure 34
1000
0010
0100
0100
,  // measure 35
0001
0010
0001
0010
,  // measure 36
1000
0100
0010
0001
,  // measure 37
1001
0010
1000
1000
,  // measure 38
0001
0100
0010
0010
,  // measure 39
1000
0001
0100
0100
,  // measure 40
0010
1000
0010
0001
,  // measure 41
0100
1000
0100
1000
,  // measure 42
0001
0010
0001
0010
,  // measure 43
0100
0100
1000
0100
,  // measure 44
0001
0010
0100
1000
,  // measure 45
0110
1000
0001
0100
,  // measure 46
0010
1000
0001
0001
,  // measure 47
0110
1000
0100
0001
,  // measure 48
0100
1000
0001
0001
,  // measure 49
1001
0100
1000
0001
,  // measure 50
0100
0001
0010
0010
,  // measure 51
1001
0100
1000
0100
,  // measure 52
0001
0100
0001
1000
,  // measure 53
2002
0000
0000
3003
;
