#TITLE:Allure;
#SUBTITLE:;
#ARTIST:HYOMIN;
#TITLETRANSLIT:;
#SUBTITLETRANSLIT:;
#ARTISTTRANSLIT:;
#CREDIT:;
#BANNER:Allure banner.png;
#BACKGROUND:Allure bg.png;
#LYRICSPATH:;
#CDTITLE:;
#MUSIC:Allure.mp3;
#OFFSET:-8.140;
#SAMPLESTART:41.060;
#SAMPLELENGTH:15.000;
#SELECTABLE:YES;
#BPMS:0.000=122.000,131.500=122.240;
#STOPS:;
#BGCHANGES:;

//---------------dance-single - ----------------
#NOTES:
     dance-single:
     :
     Hard:
     7:
     0.480,0.439,0.235,0.075,0.122:
1000
0000
0100
0000
0001
0000
0100
0000
1000
0000
0000
0010
0000
0000
0100
0000
,
0001
0000
0010
0100
0100
0000
1001
0000
,
0010
0000
0100
0000
0001
0000
0010
0000
1000
0001
0000
0010
0000
0100
1000
0000
,
0100
0000
0000
0000
0101
0000
0000
0110
0000
0000
0010
0000
0110
0000
0000
0000
,
0001
0000
0001
0010
0001
0000
1000
0000
0001
0100
0000
0010
0000
1000
0001
0010
,
0001
0000
0010
0100
0100
0000
1010
0000
,
0100
0000
1000
0000
0010
0000
0100
0000
0001
0000
0100
0010
0100
0000
0001
0200
,
0000
0000
0310
1000
1000
0000
0010
0000
,
0100
0010
1000
0020
0032
0023
0030
0100
,
0100
0001
1000
0010
0100
1000
0100
0000
,
0010
0100
1000
0100
0010
0000
0001
0100
,
0010
0000
0001
0100
0100
0010
0100
0010
,
1000
0100
0010
0001
0010
0000
0100
0000
,
0010
1000
0100
0010
0100
0000
1001
0000
,
0100
0000
0110
0000
0110
0000
0000
0000
0001
0000
1000
0001
0000
0001
1000
0000
,
0001
0010
0000
0000
0010
0100
0000
0000
0100
1000
0000
0000
0100
0010
0000
0000
,
1000
0000
0100
0000
1002
0000
0010
0010
,
0103
0000
0000
0000
1001
0000
0000
0000
0010
0000
0100
0000
0001
0000
1000
0010
,
1000
0000
0010
0100
0100
0000
0010
0100
,
1000
0000
0000
0000
0011
0000
0000
0000
0100
0000
0010
0000
0001
0000
1000
0010
,
1000
0000
0001
0100
0100
0010
1000
0010
,
1000
0100
0100
0001
0100
0100
0010
0010
,
0100
0001
0001
0010
0100
0100
0010
1000
,
0010
0000
0100
0000
0001
0010
0100
1000
,
0010
0000
0001
1000
0001
0000
0010
0100
0000
0000
0000
0000
0010
0000
0010
0000
,
0110
0000
0001
0010
0200
0000
0310
0010
,
1000
0010
0100
0001
0100
0010
1000
1000
,
0110
0000
1000
1000
0200
0000
0310
0100
,
1000
0001
0010
0100
1000
0000
0100
0100
,
0011
0000
0010
0100
1000
0000
0010
0010
,
1100
0000
0100
0010
0001
0000
0010
0010
,
1001
0000
0010
0010
0100
0000
0001
0010
,
0100
0000
0000
0010
0100
0000
0000
0000
,
1002
0000
0010
0103
0010
0000
1100
0000
,
0001
0000
0010
0000
1000
0000
0001
0100
0001
0000
0000
0000
0010
0000
1000
0000
,
1000
0000
0010
1000
0010
0000
0101
0000
,
0010
0000
1000
0000
0100
0000
0010
1000
0010
0000
0000
0000
0100
0000
0001
0000
,
0001
0010
1000
0010
0100
0001
0001
0010
,
0100
0100
0010
0010
1000
0010
0010
0100
,
0001
0001
0010
1000
0010
0000
0001
0000
,
0100
0000
0010
0000
0000
0000
0010
0000
1000
0000
0001
0010
0001
0000
0100
0010
,
0000
0000
0001
0010
0101
0000
1010
0000
,
0100
0001
0000
0001
0100
0000
0010
1000
,
1000
0010
0100
1000
0100
0000
0010
0000
,
0100
0001
0000
0001
0100
0000
0010
0100
,
0010
0000
1000
0001
1100
0000
0110
0000
,
0100
1000
0000
1000
0100
0000
0010
0100
,
0010
0000
0001
0010
0101
0000
0011
0000
,
0010
0100
0000
1000
0100
0000
0000
0010
,
0010
0100
0100
0000
0000
0000
0000
0000
;

//---------------dance-single - ----------------
#NOTES:
     dance-single:
     :
     Medium:
     5:
     0.346,0.300,0.084,0.009,0.000:
0010
0000
0100
0000
0001
0000
0100
0010
,
0010
0000
1000
0010
0010
0000
1001
0000
,
0010
0000
0100
0000
1000
0000
0010
0100
,
0010
0000
0001
0000
0010
0010
0110
0000
,
1000
0000
0001
0000
0100
0000
0010
1000
,
0010
0000
0000
0100
0100
0000
1010
0000
,
0001
0000
0100
0000
0010
0000
1000
0001
,
1000
0000
0000
0010
0010
0000
0010
0000
,
0100
0000
0001
0000
0100
0010
0000
0010
,
0001
0000
0010
0000
1000
0010
1000
0000
,
0010
0000
0100
0000
1000
0000
0010
0100
,
0010
0000
0000
0001
1000
0001
1000
0000
,
0010
0000
1000
0000
0020
0000
0130
0100
,
0100
0000
0001
0000
1000
0010
0010
0000
,
0001
0100
0100
0000
0010
0000
1000
0010
,
1000
0100
0010
0001
,
0010
0010
0110
0010
,
1001
0000
0010
0000
0100
0000
0001
0010
,
0001
0000
0010
1000
1000
0000
0010
1000
,
0010
0000
0100
0000
0001
0000
1000
0010
,
1000
0000
0100
0001
0001
0000
0010
0000
,
0100
0000
0001
1000
0000
1000
0010
0000
,
0100
0000
1000
0010
0000
0010
0100
0000
,
0001
0000
0100
0000
0010
1000
0000
1000
,
0010
0000
0100
0000
0010
0100
0010
0000
,
1001
0000
0010
0001
0001
0000
0010
0100
,
0010
0000
0010
0000
0001
0000
1000
0010
,
1000
0000
0100
0100
1000
0000
0010
0010
,
0100
0000
1000
0000
0010
0000
0100
0001
,
0100
0000
0010
0010
0010
0000
1000
0010
,
1000
0000
0100
0100
0100
0000
0010
1000
,
0010
0000
0100
0100
0100
0000
0001
0010
,
0001
0000
0000
0010
0010
0000
0000
0000
,
0110
0000
1000
0001
1000
0000
0010
0000
,
0100
0000
0001
0010
0001
0000
0010
0100
,
0100
0010
1000
0100
,
1000
0000
0010
0100
0010
0000
0100
0000
,
0100
0000
0001
0000
1000
0000
0010
0100
,
0000
0100
1000
0000
0100
0000
0010
0001
,
0000
0001
0010
0000
0110
0000
1000
0000
,
0110
0000
0000
1000
0001
0000
0010
0000
,
0010
0000
0100
0001
0100
0000
0010
0000
,
1000
0010
0000
0010
1000
0000
0100
0000
,
0100
0000
1000
0010
1000
0000
0001
0000
,
0100
1000
0000
0010
0100
0000
0010
0010
,
0010
0000
0100
0001
0100
0000
0010
0000
,
1000
0001
0000
0001
1000
0000
0010
0000
,
1000
0000
0010
0100
0010
0000
1000
0000
,
0001
0010
0000
0010
0100
0000
0000
0010
,
0010
0100
0100
0000
0000
0000
0000
0000
;

//---------------dance-single - ----------------
#NOTES:
     dance-single:
     :
     Easy:
     2:
     0.267,0.231,0.084,0.038,0.000: // measure 1
0010
1000
0100
0010
,  // measure 2
0010
0100
0001
0101
,  // measure 3
0010
1000
0010
0010
,  // measure 4
0100
1000
0100
1100
,  // measure 5
0010
0100
0001
0010
,  // measure 6
1001
0000
0010
0010
,  // measure 7
0001
0100
0010
1000
,  // measure 8
0001
0000
0010
0010
,  // measure 9
0100
0010
0100
0100
,  // measure 10
1000
0010
0200
0301
,  // measure 11
0010
0001
0100
0010
,  // measure 12
0100
0000
0010
0010
,  // measure 13
0100
1000
0100
0000
,  // measure 14
0010
0100
0001
0001
,  // measure 15
0010
0010
0100
0010
,  // measure 16
1000
0100
0010
0001
,  // measure 17
1000
1000
1000
1000
,  // measure 18
1001
0010
0001
0100
,  // measure 19
0100
0010
0010
0100
,  // measure 20
1001
0010
0001
0100
,  // measure 21
0100
0010
0010
1000
,  // measure 22
0010
0100
0001
0010
,  // measure 23
1000
0010
0100
0010
,  // measure 24
1000
0100
0010
0010
,  // measure 25
0100
0000
0001
0001
,  // measure 26
0010
0001
0001
0010
,  // measure 27
0010
0100
0010
1000
,  // measure 28
0010
1000
1000
0100
,  // measure 29
0100
0010
0100
0010
,  // measure 30
1000
0001
0001
0010
,  // measure 31
0100
0010
0010
1000
,  // measure 32
0010
0100
0100
0010
,  // measure 33
0010
0000
0010
0000
,  // measure 34
0110
0010
0010
1000
,  // measure 35
0001
0010
0100
0010
,  // measure 36
1000
0010
1001
0010
,  // measure 37
1000
0010
0010
0100
,  // measure 38
0001
0010
1000
0010
,  // measure 39
1000
0010
0001
0100
,  // measure 40
0001
0100
0010
0100
,  // measure 41
1001
0000
0010
0010
,  // measure 42
0010
0100
0001
1000
,  // measure 43
0010
0100
0002
0003
,  // measure 44
0010
0100
0010
0010
,  // measure 45
1000
1000
0020
0030
,  // measure 46
0100
0100
0010
1000
,  // measure 47
0001
0100
2000
3000
,  // measure 48
0100
0010
0001
0010
,  // measure 49
0100
1000
0010
0000
,  // measure 50
0100
0110
0000
0000
;
