#TITLE:All Night;
#SUBTITLE:;
#ARTIST:SO YOU;
#TITLETRANSLIT:;
#SUBTITLETRANSLIT:;
#ARTISTTRANSLIT:;
#CREDIT:;
#BANNER:All Night banner.png;
#BACKGROUND:All Night bg.png;
#LYRICSPATH:;
#CDTITLE:;
#MUSIC:All Night.mp3;
#OFFSET:-13.660;
#SAMPLESTART:59.520;
#SAMPLELENGTH:15.000;
#SELECTABLE:YES;
#BPMS:0.000=142.440,16.000=144.060;
#STOPS:12.000=0.800
;
#BGCHANGES:;

//---------------dance-single - ----------------
#NOTES:
     dance-single:
     :
     Hard:
     8:
     0.497,0.447,0.070,0.179,0.012:
1000
0001
0010
1000
0000
0100
0010
0100
,
0000
1000
0001
1000
0000
0010
0100
1000
,
0100
0010
0001
0010
0000
0100
1000
0100
,
0000
0100
1000
0100
0010
0100
0001
0010
,
0100
0010
0200
0000
0310
0000
1000
0100
,
0110
0010
0010
0001
0010
1000
0100
1000
,
0100
0010
0100
0020
0000
1000
0030
0100
,
0000
0010
0100
0001
0100
0001
0010
0100
,
1000
0100
0020
0000
0031
0000
0100
0000
,
0010
1000
1000
0100
0010
0000
0010
0100
,
0001
0100
0010
0200
0000
1300
0000
0001
,
0000
0010
0100
1000
0100
0010
0100
1000
,
0001
0000
0100
0001
0200
0000
0310
1000
,
0010
0020
0000
0130
1000
0100
1000
0010
,
0100
0000
0001
0100
0010
0000
0001
0100
,
1000
0200
0000
0301
0010
0001
0010
0100
,
0010
0000
0100
1000
0000
1000
0100
0010
,
0000
0010
0000
0100
0001
0010
1000
0010
,
0100
1000
0100
0020
0000
0100
0030
0100
,
0000
0001
0001
0010
0100
1000
0100
0020
,
0000
0000
0000
1000
1000
0000
1000
0000
,
0001
0000
0130
1000
0100
0000
0010
0100
,
0010
0000
1000
0001
1000
0000
0001
0010
,
0001
0000
0100
1000
0010
0000
0020
0000
,
0000
0030
0100
0100
0001
0000
0001
0010
,
0000
0010
0000
1000
1000
0000
0001
0100
,
0000
0100
0010
0100
0010
0000
0000
0000
,
1001
0100
1100
0010
0100
0001
0200
0000
,
0310
1000
0100
0010
0000
0001
0000
0100
,
0000
0000
0010
0000
0001
0000
0010
0000
0001
0000
0000
1000
0000
0000
0010
0000
,
0000
1000
0000
0000
0010
0000
0000
0000
0100
0000
1000
0000
0100
0000
0000
0000
,
1010
0001
0010
0100
0010
1000
0020
0000
,
0130
0001
0010
0100
0000
0100
0000
1000
,
0000
0000
0010
0000
0100
0000
1000
0000
0100
0000
0000
0001
0000
0000
0100
0000
,
0000
1000
0100
0000
0010
0000
0100
0010
,
0100
0001
0010
1000
0010
0100
1000
0100
,
0010
0001
0100
0010
1000
0001
0100
0000
,
2000
0000
3000
0100
0010
1000
0001
0100
,
0010
1000
0100
1000
0002
0000
0013
0100
,
0020
0000
1030
0000
0001
0000
0100
0010
,
0100
1000
0010
1000
0001
0100
0010
0200
,
0000
0301
0001
0010
0100
1000
0100
1000
,
0010
0000
0010
0100
0010
1000
0000
0002
,
0000
0000
0003
0100
0100
0010
0100
1000
,
0100
0000
0001
0000
0100
0010
0001
0010
,
0100
0000
1000
0000
0010
0100
1000
0100
,
1000
0000
0100
0100
0010
0100
0001
0100
,
0010
0000
0010
0000
0100
1000
0100
0100
,
0010
0000
0100
0010
0001
0010
0100
1000
,
0100
1000
0010
0100
,
1000
0001
1000
0000
0011
0000
0110
0000
,
1100
0000
0010
0010
0100
1000
0100
0010
,
0001
0000
0100
0010
0100
1000
0010
0100
,
2000
0000
3100
0000
0010
0100
0001
0010
,
0200
0000
0310
0000
1000
0100
0001
0100
,
1000
0100
0010
0100
0110
0000
1000
0010
,
0100
0001
0100
0010
0000
1000
0100
1000
,
0010
0001
0010
0100
0000
0010
0100
1000
,
0100
0010
0100
2000
3000
0001
0001
0010
,
0010
0100
0010
0000
1001
0000
1000
0100
,
1000
0100
0010
0002
0000
0013
0100
1000
,
0000
0010
0100
1000
0100
0010
0001
0100
,
0010
0100
1000
0200
0000
0010
0000
0001
,
0000
0010
0000
0310
1000
0000
0001
0100
,
0010
1000
0100
0010
0000
0010
0100
0010
,
0000
0100
0000
0001
0010
1000
0100
0010
,
0100
0001
0100
0010
0000
0020
0000
0000
,
0000
0000
0030
0000
;

//---------------dance-single - ----------------
#NOTES:
     dance-single:
     :
     Medium:
     5:
     0.344,0.341,0.016,0.125,0.000:
0100
0000
0001
0100
0000
0010
1000
0010
,
0000
0100
0001
0100
0000
0010
0000
0010
,
0100
0001
0100
0010
,
1000
0010
0010
0100
,
0001
0100
0001
0000
0010
0000
1000
0000
,
0010
0100
1000
0010
,
0100
1000
0100
0000
0020
0000
0130
0000
,
0100
0000
0001
0010
0001
0000
1000
0100
,
1000
0002
0103
0010
,
1000
0100
0010
0010
,
0100
0000
0001
0010
0000
1000
0000
0010
,
0000
0100
0010
0100
0010
0000
1000
0000
,
0010
0100
0100
0001
,
0010
0020
0000
0030
0100
0000
0010
0000
,
1000
0010
0100
0001
,
1000
2000
0000
3000
0010
0000
0100
0000
,
0001
0000
0100
0010
0000
0010
0001
0010
,
0000
0010
0000
0100
0010
0000
1000
0000
,
0001
0000
1000
0001
0000
0010
0000
0100
,
0000
0000
0110
0000
1000
0000
0010
2000
,
0000
0100
3100
0010
,
0100
0000
0001
0001
1000
0000
1000
1000
,
0100
0000
0010
0100
0010
0000
0001
1000
,
0001
0010
0100
0200
,
0000
0300
0010
0000
0010
0000
0100
0000
,
0001
0001
1000
0100
,
0010
0001
1001
0000
,
0010
0000
0010
0000
0100
0010
0002
0000
,
0000
0003
1000
0010
0000
0100
0000
0001
,
0000
0010
1000
0010
1000
0000
0010
0100
,
0000
0100
0010
0000
1000
0000
0001
0000
,
0100
0000
1000
0000
0010
0100
2000
0000
,
0000
0000
3001
0010
0000
0001
0000
0100
,
0000
0010
0100
0010
0100
0000
0001
1000
,
0000
1000
0001
0000
0010
0000
0100
0000
,
0010
1000
1000
0010
,
0100
0001
1000
0010
,
2000
0000
0000
3000
0100
0000
0010
0000
,
0100
0001
0200
0000
,
0320
0000
0130
0001
,
0010
0001
1000
0100
,
2000
0000
3100
0010
,
0100
0001
0100
0010
,
0002
0000
0013
0010
,
0100
0010
1000
0001
,
1000
1000
0010
0100
,
1000
0100
0010
0100
,
0010
0010
0010
0000
0100
0000
0001
0001
,
0001
0000
0010
0000
1000
0000
0010
0010
,
0010
0000
0100
0000
1000
0000
0010
1000
,
0010
0100
0000
0000
,
0000
0000
0100
0000
0010
0000
1000
0001
,
1000
0000
0010
0100
0010
0000
1000
0001
,
0001
0000
0010
0000
0001
0000
0100
0010
,
0010
0100
1000
0010
,
1000
0000
0010
0100
0010
0000
0100
0000
,
1000
0000
0001
0010
0000
0010
0100
1000
,
0000
0100
0010
0001
0000
0010
0000
0100
,
0000
1000
0100
0010
0000
0010
0000
0100
,
0000
0010
0010
0000
0100
0000
0001
0000
,
0010
1000
0010
0100
,
0200
0000
0000
0300
0010
0000
0100
0000
,
0001
0000
1000
0001
0000
0010
0000
0100
,
0000
1000
0010
0000
0100
0000
0001
0000
,
0001
0010
1000
0010
,
0002
0000
0000
0003
0100
0000
0010
0000
,
1000
0010
0100
0200
,
0000
0000
0000
0300
0000
0000
0000
0000
;

//---------------dance-single - ----------------
#NOTES:
     dance-single:
     :
     Easy:
     3:
     0.303,0.263,0.055,0.117,0.000: // measure 1
0010
0001
0010
1000
,  // measure 2
0010
0100
0001
0100
,  // measure 3
0010
1000
0010
0100
,  // measure 4
0010
0010
0010
0100
,  // measure 5
0001
0010
1000
0010
,  // measure 6
0001
0010
0100
1000
,  // measure 7
0100
0010
0100
0010
,  // measure 8
0010
0100
0101
0010
,  // measure 9
1000
1000
0010
0100
,  // measure 10
1000
0010
0001
0100
,  // measure 11
0010
1000
0010
0100
,  // measure 12
1000
0010
0100
0001
,  // measure 13
0100
0010
1000
0010
,  // measure 14
0200
0300
0010
0010
,  // measure 15
0100
1000
0010
0100
,  // measure 16
0002
0003
0010
0010
,  // measure 17
0001
0100
0010
0001
,  // measure 18
1000
1000
0100
1000
,  // measure 19
0010
0100
0010
0200
,  // measure 20
0300
0000
0010
0010
,  // measure 21
0200
0000
0301
0010
,  // measure 22
0001
0010
1000
1000
,  // measure 23
1000
0010
0100
0010
,  // measure 24
1000
0001
1000
0020
,  // measure 25
0000
0130
0100
0001
,  // measure 26
0010
0010
0100
0001
,  // measure 27
1000
0010
0100
0000
,  // measure 28
0110
0110
0100
0002
,  // measure 29
0000
1000
0003
0100
0000
0010
0000
0100
,  // measure 30
0000
0010
0100
0001
,  // measure 31
0100
0100
0010
1000
,  // measure 32
1001
1001
0100
0020
,  // measure 33
0000
1000
0030
0100
0000
0001
0000
1000
,  // measure 34
0000
0010
0000
0000
0100
0000
0010
0000
,  // measure 35
1000
0100
0001
0010
,  // measure 36
0100
0001
0010
1000
,  // measure 37
0100
1000
1000
0100
,  // measure 38
0002
0003
1000
0010
,  // measure 39
0010
0001
0020
0030
,  // measure 40
0200
0300
0010
1000
,  // measure 41
0010
0100
0001
0001
,  // measure 42
2000
3000
0010
0100
,  // measure 43
1000
0100
0010
0001
,  // measure 44
0020
0030
0100
0100
,  // measure 45
0010
0100
0001
0001
,  // measure 46
1000
0001
0100
1000
,  // measure 47
0100
0100
0010
1000
,  // measure 48
0010
0010
0100
0001
,  // measure 49
0100
0010
1000
0001
,  // measure 50
1000
0010
0100
1000
,  // measure 51
0100
0010
0100
0100
,  // measure 52
0100
0010
0100
0010
,  // measure 53
0001
0010
1000
0010
,  // measure 54
0100
0100
0001
0010
,  // measure 55
1000
1000
0010
0100
,  // measure 56
0001
0100
1001
0010
,  // measure 57
0001
0100
0100
0010
,  // measure 58
1000
0010
0000
0100
,  // measure 59
0100
0010
0000
0100
,  // measure 60
0100
0100
0110
1000
,  // measure 61
0001
0010
0100
1000
,  // measure 62
0020
0030
0100
0001
,  // measure 63
1000
0010
0100
0100
,  // measure 64
1000
0100
0010
0100
,  // measure 65
0001
0100
1000
0010
,  // measure 66
0200
0300
0010
0001
,  // measure 67
0010
1000
0010
0200
,  // measure 68
0000
0000
0300
0000
;
