#TITLE:A BAD THING;
#SUBTITLE:;
#ARTIST:PURFLES;
#TITLETRANSLIT:;
#SUBTITLETRANSLIT:;
#ARTISTTRANSLIT:;
#CREDIT:;
#BANNER:A Bad Thing banner.png;
#BACKGROUND:A Bad Thing bg.png;
#LYRICSPATH:;
#CDTITLE:;
#MUSIC:A Bad Thing.mp3;
#OFFSET:-6.560;
#SAMPLESTART:75.620;
#SAMPLELENGTH:15.000;
#SELECTABLE:YES;
#BPMS:0.000=76.040;
#STOPS:119.833=0.420
;
#BGCHANGES:;

//---------------dance-single - ----------------
#NOTES:
     dance-single:
     :
     Hard:
     7:
     0.348,0.339,0.179,0.205,0.051:
0110
0000
1000
1000
0100
0000
0010
0001
,
0010
0000
0000
0000
0000
0000
0100
0000
0000
0100
0000
0000
0010
1000
0010
0000
0100
0001
0100
0000
0000
0010
0000
0000
,
1002
0000
0013
0100
0010
0000
1000
0100
,
0012
0000
0103
1000
0100
0000
0010
0100
,
2100
0000
3010
0100
0001
0000
0010
0100
,
2010
0000
3100
0010
0100
0100
0001
0100
,
0010
0100
0001
1000
0010
0100
1000
0100
,
0010
0001
0010
0100
0001
0010
1000
0010
,
0100
0010
1000
0100
0001
0010
0200
0000
,
0310
1000
0100
1000
0010
0100
0020
0001
,
0031
0010
0100
0010
1000
0100
0010
0010
,
0100
1000
0010
0100
0001
0010
0001
0001
,
0010
0100
0010
1000
0100
0001
0002
0000
,
0103
1000
1000
0010
0100
0010
1000
0100
,
0020
0000
0000
0100
0130
0000
0001
0010
,
2000
0000
0000
0010
3010
0000
0100
0100
,
0002
0000
0000
0000
0000
0000
0000
0000
0000
0100
0000
0000
0103
0000
0000
0000
0000
0000
0010
0000
0000
0100
0000
1000
,
0000
0000
0000
0100
0000
0000
0010
0000
0000
0001
0000
0020
0000
0000
0000
0000
0000
0000
0130
0000
0000
1000
0000
0000
,
0200
0000
0010
0010
0310
0000
0001
0010
,
2000
0000
0000
0100
3100
0000
0010
0100
,
0020
0000
0000
0001
0031
0000
0100
0100
,
0010
0000
0000
1000
0000
0000
0100
0000
0000
0010
0000
0000
0001
1000
0001
0000
0100
0010
0100
0000
0000
0010
0000
0000
,
1001
1001
1001
0010
0100
0001
0010
1000
,
0011
0011
0011
0100
1000
0100
0020
0000
,
0130
1000
0200
0000
0310
0001
0020
0000
,
0130
0001
0100
0010
1000
0010
0100
0010
,
1100
1100
1100
0010
0100
0001
0100
1000
,
0110
0110
0110
0001
0010
1000
0020
0000
,
0031
1000
0200
0000
0310
1000
0020
0000
,
0130
1000
0100
0001
0000
0001
0010
0100
,
2001
0000
3010
0100
0010
0000
0001
0010
,
0201
0000
0310
1000
0010
0100
0100
0001
,
0210
0000
0301
0010
1000
0000
0100
0010
,
0201
0000
0310
1000
0100
0010
0001
0100
,
0100
0000
0000
0000
0000
0000
0000
0000
0000
0010
0000
0000
0000
0000
0000
0000
0000
0000
0001
0000
0000
0000
0000
0000
0010
0000
0000
0000
1000
0000
0000
0000
0000
0000
0000
0000
0000
0000
0000
0000
0000
0000
0000
0000
0000
0000
0000
0000
;

//---------------dance-single - ----------------
#NOTES:
     dance-single:
     :
     Medium:
     6:
     0.213,0.191,0.000,0.128,0.000:
1000
0000
0100
0010
0010
0000
1000
0000
,
0001
0000
0100
0010
0100
0100
0010
0010
,
2000
0000
3001
0000
0010
0000
0100
0010
,
0002
0000
0013
0000
0100
0000
0010
0100
,
0020
0000
1030
0000
0100
0000
1000
0010
,
0200
0000
0301
0000
0010
0000
0001
0001
,
0001
0000
0010
0000
0100
0000
0010
0100
,
0010
0000
1000
0000
0001
0000
0100
1000
,
0100
0010
1000
0100
,
0010
0100
0001
0010
,
0100
0000
0001
0000
0010
0000
0001
0100
,
0001
0000
0010
0000
1000
0000
0010
0100
,
0010
1000
0100
0001
,
0100
0010
0001
1000
,
0002
0000
0013
0100
,
2000
0000
3100
0010
,
0200
0000
1300
0010
,
0100
0000
0001
1000
0002
0000
0103
0000
,
2000
0000
3100
0010
,
0002
0000
1003
0010
,
0200
0000
0310
1000
,
0100
0000
0001
0000
1000
1000
0001
0001
,
0010
0010
0010
0000
1000
0000
0010
0000
,
1000
1000
1000
0000
0010
0000
0100
0000
,
0001
0010
0010
0100
,
0010
0001
0010
0000
1000
0100
1000
0000
,
0001
0001
0001
0000
0100
0000
0010
0000
,
0100
0100
0100
0000
0010
0000
1000
0000
,
0100
0001
0100
0000
0010
1000
0010
0000
,
0100
1000
0010
0100
,
2000
0000
3100
0000
0010
0000
0100
0001
,
0200
0000
0310
0000
0001
0000
0001
1000
,
0002
0000
0103
0000
0010
0000
0100
0010
,
0200
0000
1300
0000
0010
0000
0100
0001
,
0100
0010
0100
0000
;

//---------------dance-single - ----------------
#NOTES:
     dance-single:
     :
     Easy:
     3:
     0.182,0.177,0.102,0.094,0.000: // measure 1
1000
0100
0100
0001
,  // measure 2
0100
0001
0100
0100
,  // measure 3
0110
0001
1000
0001
,  // measure 4
1100
0010
0100
0010
,  // measure 5
0011
0100
0010
0100
,  // measure 6
1010
0100
0001
0100
,  // measure 7
0010
0010
1000
1000
,  // measure 8
0001
0001
0100
0100
,  // measure 9
0001
0010
0100
2000
,  // measure 10
3100
1000
0010
0200
,  // measure 11
0310
1000
0010
0100
,  // measure 12
0001
0100
0001
0010
,  // measure 13
1000
0001
0100
0020
,  // measure 14
1030
0100
0010
0002
,  // measure 15
2003
0000
3100
0000
,  // measure 16
0020
0000
0130
0000
,  // measure 17
0002
0000
0103
0000
,  // measure 18
0010
0010
0100
0100
,  // measure 19
0020
0000
0031
0000
,  // measure 20
2000
0000
3100
0000
,  // measure 21
0200
0000
0310
0000
,  // measure 22
1000
1000
0001
0001
,  // measure 23
0110
1000
0100
0010
,  // measure 24
1001
0010
0100
0010
,  // measure 25
0001
1000
0001
0100
,  // measure 26
0010
1000
0010
0100
,  // measure 27
1001
0010
0001
0010
,  // measure 28
1001
0100
1000
0100
,  // measure 29
0010
0100
0001
0100
,  // measure 30
0010
0010
0100
0010
,  // measure 31
0110
1000
0100
0001
,  // measure 32
1100
0001
0100
0001
,  // measure 33
0110
0001
0010
0100
,  // measure 34
1001
0010
0100
1000
,  // measure 35
0020
0000
0000
0030
0010
0000
0000
0000
;
