#TITLE:24 Hours;
#SUBTITLE:;
#ARTIST:SUNMI;
#TITLETRANSLIT:;
#SUBTITLETRANSLIT:;
#ARTISTTRANSLIT:;
#CREDIT:;
#BANNER:24 Hours banner.png;
#BACKGROUND:24 Hours bg.png;
#LYRICSPATH:;
#CDTITLE:;
#MUSIC:24 Hours.mp3;
#OFFSET:-10.040;
#SAMPLESTART:9.600;
#SAMPLELENGTH:15.000;
#SELECTABLE:YES;
#BPMS:0.000=126.000;
#STOPS:;
#BGCHANGES:;

//---------------dance-single - ----------------
#NOTES:
     dance-single:
     :
     Hard:
     8:
     0.476,0.466,0.309,0.068,0.638:
1000
0000
0001
0010
0000
0010
0100
0000
0000
1000
0000
0000
,
0010
0000
0000
1000
0000
0000
0011
0000
0001
0100
0000
0100
,
0000
0000
1000
0001
0000
0001
1000
0000
0000
0010
0000
1000
,
0100
0000
0100
0010
0000
0010
0001
0000
0000
1000
0000
0001
,
0010
0000
0010
0100
0000
0100
1000
0000
0000
0001
0000
0000
,
0100
0000
0000
1000
0000
0000
0110
0000
0100
1000
0000
0001
,
0010
0000
1000
0100
0000
0001
0010
0000
0000
0100
0000
0010
,
0100
0000
0100
0010
0000
1000
0001
0000
0000
0010
0000
1000
,
0100
0000
0000
0100
0000
0001
0010
0000
0000
0010
0000
0000
,
1100
0000
0000
0110
0000
0000
0011
0000
0000
0100
0000
0001
,
0010
0000
0000
0010
0000
1000
0100
0000
0000
0010
0000
0000
,
1100
0000
1001
0000
0000
0010
0001
0000
0010
0100
0000
1000
,
0100
0000
0000
0100
0000
0001
0010
0000
0000
0100
0000
0000
,
0011
0000
0000
0110
0000
0000
1100
0000
0000
0010
0000
0001
,
1000
0000
0000
0001
0000
1000
0100
0000
0000
0001
0000
0000
,
0110
0000
0110
0000
0000
0001
1000
0000
1001
0000
0000
0000
,
1000
0100
0010
0001
0010
0100
0000
1000
0100
1000
0000
0000
,
0100
0001
1000
0001
1000
0010
0000
0100
0010
0001
0000
0000
,
1010
0000
0000
0100
0000
0001
0010
1000
0100
0010
0000
0000
,
1001
0000
0000
0001
0010
0001
1000
0100
2000
0000
0000
3000
,
0100
0000
0001
0010
1000
0100
0000
0010
0100
0001
0000
0000
,
1000
0010
0001
0100
0010
1000
0000
0001
0010
0001
0000
0000
,
0110
0000
0000
1000
0000
0001
0010
0100
1000
0100
0000
0000
,
0011
0000
0000
0100
1000
0100
0001
0010
0002
0000
0003
0000
,
0110
0000
0000
0001
0000
0100
0010
0000
0010
0100
0000
0200
,
0000
0000
0000
1300
0000
0001
0100
0000
0010
1000
0000
0100
,
0001
0000
0000
0001
0000
0100
0010
0000
0000
1000
0000
0001
,
0010
0100
1000
0000
0000
1000
0010
0000
0200
0000
0300
0000
,
1001
0000
0000
0001
0000
1000
0100
0000
0010
0001
0000
0200
,
0000
0000
0000
0310
0000
1000
0010
0000
0100
0010
0000
1000
,
0001
0000
0000
1000
0000
0010
0100
0000
0000
0001
0000
1000
,
0100
0010
0001
0000
0010
0100
0010
0000
0100
1000
0000
1000
,
0010
0000
0001
1000
0000
1000
0001
0000
0000
0100
0000
0000
,
0010
0000
0000
1000
0000
0000
1001
0000
0001
0100
0000
0100
,
0000
0000
0001
1000
0000
1000
0001
0000
0000
0010
0000
0100
,
0010
0000
1000
0001
0000
0001
0100
0000
0010
0100
0000
0100
,
0010
0000
1000
0100
0000
0001
0010
0000
0100
0010
0000
0000
,
1000
0000
0000
0010
0000
0000
0101
0000
0100
1000
0000
0100
,
0001
0000
1000
0010
0000
0001
0100
0000
0000
0001
0000
1000
,
0010
0000
0100
0001
0000
0010
0100
0000
0000
1000
0000
0100
,
0001
0000
0000
0001
0000
0100
0010
0000
0000
1000
0000
0000
,
0110
0000
0000
1100
0000
0000
0011
0000
0000
0100
0000
0001
,
0010
0000
0000
0010
0000
1000
0100
0000
0000
0010
0000
0000
,
1010
0000
1010
0000
0000
0001
0100
0000
0001
0010
0000
0100
,
1000
0000
0000
0010
0000
0100
0001
0000
0000
0010
0000
0000
,
1001
0000
0000
0110
0000
0000
1001
0000
0000
0010
0000
1000
,
0100
0000
0000
0010
0000
0100
0001
0000
0000
0010
0000
0000
,
0110
0000
0110
0000
0000
1000
0001
0000
2002
0000
3003
0000
,
0010
0000
0010
0000
0000
0000
0000
0000
0000
0000
0000
0000
;

//---------------dance-single - ----------------
#NOTES:
     dance-single:
     :
     Medium:
     3:
     0.293,0.278,0.222,0.039,0.000:
1000
0010
0100
0010
,
0100
0001
0001
0100
,
0010
0010
1000
0010
,
0100
0001
1000
0010
,
0100
0001
0001
0010
,
0100
0100
0100
0010
,
1000
1000
1000
0010
,
1001
0010
1001
0010
,
0001
0010
0100
1000
,
1001
0100
1001
0010
,
0100
0001
0100
0010
,
1000
1000
0001
0001
,
1000
0100
0010
0001
,
0110
0110
0110
1000
,
0001
0010
0100
1000
,
0010
0010
0100
0100
,
0001
0010
0100
0100
,
0010
1000
0010
0010
,
0110
0000
1000
0010
,
1001
0010
0010
0010
,
0100
0010
1000
0001
,
0010
0100
0001
0001
,
0110
0000
1000
0100
,
1100
0010
0010
0010
,
0001
0100
0010
1000
,
0020
0030
0100
0100
,
1010
0000
0101
0000
,
0100
0010
0200
0000
,
0310
1000
0010
0100
,
0002
0003
0010
0010
,
0101
0010
0110
0100
,
1000
0010
0100
0001
,
1001
0010
0100
1000
,
0010
1000
1000
0010
,
0100
0010
0001
0100
,
0010
1000
0010
0100
,
1001
0100
0010
0001
,
0100
1000
1000
0010
,
0100
0100
0100
0010
,
0001
0001
0001
0010
,
0110
1000
0110
0010
,
0001
1000
0001
0100
,
1001
0010
1001
0010
,
0100
0100
0010
0010
,
1010
0100
0001
0100
,
1000
1000
1000
0010
,
0100
0001
0200
0300
,
0010
0010
0100
0100
,
1001
0000
0000
0000
;

//---------------dance-single - ----------------
#NOTES:
     dance-single:
     :
     Easy:
     2:
     0.196,0.209,0.010,0.029,0.000: // measure 1
0020
0030
0010
0100
,  // measure 2
0010
0000
1000
0000
,  // measure 3
0001
0001
0010
0000
,  // measure 4
0100
0100
0010
0000
,  // measure 5
1000
0100
0010
0001
,  // measure 6
0020
0030
0100
0000
,  // measure 7
0010
0010
0010
0000
,  // measure 8
1000
1000
1000
0000
,  // measure 9
0001
0000
0010
0000
,  // measure 10
0100
0010
0001
0010
,  // measure 11
0100
0000
1000
0000
,  // measure 12
0100
0000
0100
0000
,  // measure 13
0010
0000
1000
0000
,  // measure 14
0010
0100
0010
0100
,  // measure 15
0001
0000
0001
0000
,  // measure 16
0010
0000
0100
0000
,  // measure 17
0010
0000
1000
1000
,  // measure 18
0010
0000
1000
1000
,  // measure 19
0001
0000
0100
0100
,  // measure 20
0010
1000
1000
0000
,  // measure 21
0010
0010
0100
0100
,  // measure 22
0001
1000
0001
1000
,  // measure 23
0010
0000
0100
0100
,  // measure 24
0001
0010
0010
0000
,  // measure 25
1000
0000
0100
0010
,  // measure 26
0001
0000
0010
0010
,  // measure 27
0001
0000
0010
0000
,  // measure 28
0100
0100
0020
0030
,  // measure 29
1000
0000
0001
1000
,  // measure 30
1000
0000
0010
0100
,  // measure 31
0010
0000
1000
0000
,  // measure 32
0010
0001
0100
0010
,  // measure 33
1000
0100
0010
0001
,  // measure 34
0010
0100
0100
0010
,  // measure 35
1000
0000
1000
0000
,  // measure 36
0001
0000
0001
0000
,  // measure 37
0100
0010
1000
0100
,  // measure 38
0001
0100
0010
1000
,  // measure 39
0010
0010
0010
0000
,  // measure 40
0100
0100
0100
0000
,  // measure 41
0001
0000
1000
0000
,  // measure 42
0010
0010
0010
0100
,  // measure 43
0001
0000
0010
0000
,  // measure 44
0100
0000
1000
0000
,  // measure 45
0010
0000
1000
0000
,  // measure 46
0100
0100
0100
0000
,  // measure 47
0010
0000
1000
0000
,  // measure 48
0010
0000
0100
0000
,  // measure 49
1001
0000
0000
0000
;
