#TITLE:1 Thing;
#SUBTITLE:;
#ARTIST:Amerie;
#TITLETRANSLIT:;
#SUBTITLETRANSLIT:;
#ARTISTTRANSLIT:;
#CREDIT:;
#BANNER:1 Thing banner.png;
#BACKGROUND:1 Thing bg.png;
#LYRICSPATH:;
#CDTITLE:;
#MUSIC:1 Thing.mp3;
#OFFSET:-10.260;
#SAMPLESTART:48.640;
#SAMPLELENGTH:15.000;
#SELECTABLE:YES;
#BPMS:0.000=100.060;
#STOPS:;
#BGCHANGES:;

//---------------dance-single - ----------------
#NOTES:
     dance-single:
     :
     Hard:
     8:
     0.447,0.402,0.300,0.014,0.502:
1001
0000
0010
0000
0100
0001
0100
0000
,
0110
0000
1000
0000
0100
1000
0100
0000
,
0011
0000
0100
0000
0010
0001
0010
0000
,
0110
0000
1000
0000
0000
0010
0000
0000
0100
0000
0001
0000
1000
0000
0010
0000
,
0100
0000
0000
0000
0001
0000
0000
0000
1000
0001
1000
0001
1000
0000
0100
0000
,
0010
0000
0000
0000
1000
0000
0000
0000
0010
1000
0001
1000
0001
0000
0010
0000
,
0100
0000
0000
0000
0001
0000
0000
0000
0010
1000
0010
1000
0010
0000
0100
0000
,
0001
0000
0010
0000
0000
1000
0000
0000
0010
0000
0100
0000
0001
0000
0100
0000
,
0010
0000
0000
0000
1001
0000
0000
0100
0010
0000
0001
1000
0000
0001
1000
0000
,
0100
0000
0000
0000
0010
1000
0000
0001
0100
0000
1000
0010
0000
0000
0100
0000
,
0011
0000
0000
0000
0100
0010
0000
0001
0010
0100
1000
0100
0000
0100
0010
0000
,
1001
0000
0000
0010
0000
0010
0000
0000
0100
0000
1000
0000
0001
0000
0100
0000
,
0110
0000
0000
0000
0001
0000
0000
0100
1000
0100
0010
0001
0010
0100
1000
0000
,
0011
0000
0000
0100
0000
0100
0000
0010
1000
0000
0100
0000
0001
0010
0001
0000
,
0110
0000
0000
0000
1000
0100
0010
0001
0000
0010
0100
0000
1000
0000
1000
0000
,
0110
0000
0000
0001
0010
0001
0000
0000
0010
0100
0010
0000
0000
0000
1001
0000
,
0110
0000
1000
0100
0000
0100
0000
0001
0100
0000
0001
0000
1000
0010
0000
0000
,
0101
0000
0010
1000
0000
1000
0000
0100
1000
0000
0010
0000
0100
0010
0001
0010
,
0100
0000
0010
0100
0000
0100
0000
0010
0100
0000
0001
1000
0001
1000
0000
0000
,
0110
0000
0001
0100
0000
1000
0000
0010
0100
0000
0001
1000
0000
1000
0001
0000
,
1010
0000
0100
0001
0000
0001
0000
0100
0010
0000
1000
0000
0001
0010
0000
0000
,
1100
0000
0001
0010
0000
0100
0000
1000
0010
1000
0010
0000
0100
0001
0000
0000
,
0110
0000
1000
0001
0000
0001
0000
0010
0100
0001
1000
0000
0001
0010
0000
0000
,
1000
0000
0010
0100
0000
0100
0000
0010
0001
0000
0010
0100
0000
0100
0010
0000
,
2001
0000
3100
0001
0100
1000
0010
0100
,
0010
0000
0000
1000
0001
1000
0001
1000
0001
0000
0010
0100
0000
0000
0100
0000
,
0012
0000
0103
1000
0100
0010
0001
0100
,
0010
0000
1000
0001
0000
1000
0000
0010
0100
0000
1000
0001
0000
0001
1000
0000
,
0010
0000
0000
0000
0100
0001
0100
0001
0000
0000
0010
0000
1000
0010
0000
0001
,
1000
0001
0010
0100
1000
0000
0010
0100
0010
0000
1000
0000
0001
0010
0001
0000
,
0100
0000
0000
0001
0010
0100
1000
0100
0010
0000
0100
0001
0000
0000
0001
0000
,
0010
1000
0001
0100
0010
1000
0000
0000
,
0110
0000
0001
1000
0000
1000
0000
0010
0100
0000
0001
0000
0010
1000
0000
0000
,
1100
0000
0010
0001
0000
0001
0000
0010
0100
0000
0010
0000
1000
0001
0000
0000
,
0011
0000
0010
1000
0000
0100
0000
0001
0010
0000
0100
1000
0100
0010
0000
0000
,
0110
0000
1000
0001
0000
0001
0000
0010
0100
0000
0001
1000
0000
1000
0001
0000
,
1010
0000
0100
0001
0000
0001
0000
0010
1000
0000
0010
0000
0100
0001
0000
0000
,
0110
0000
1000
0100
0000
0100
0000
0001
0010
0100
1000
0000
0010
0100
0000
0000
,
0011
0000
0010
0100
0000
0100
0000
0010
1000
0001
0100
0000
0001
0100
0000
0000
,
0010
0000
1000
0001
0000
0001
0000
0100
0010
0000
1000
0001
0000
0001
1000
0000
,
0010
0000
1100
0000
0000
0110
0000
0000
0011
0000
0100
1000
0000
1000
0100
0000
,
0010
0000
0110
0000
0000
0011
0000
0000
0110
0000
0001
1000
0000
1000
0001
0000
,
0100
0000
1010
0000
0000
1100
0000
0000
0101
0000
0010
1000
0000
1000
0010
0000
,
0100
0000
0011
0000
0000
1100
0000
0000
0011
0000
0100
0010
0000
0010
0100
0000
,
1001
0000
0010
0000
0100
0001
1000
0000
,
0110
0000
1000
0000
0100
1000
0100
0000
,
0011
0000
0100
0000
0010
0100
0010
0000
,
1001
0000
0010
0000
0000
1000
0000
0000
0010
0000
0100
0000
0001
0000
0100
0000
,
0010
0000
0000
0000
;

//---------------dance-single - ----------------
#NOTES:
     dance-single:
     :
     Medium:
     5:
     0.258,0.251,0.091,0.000,0.000:
1000
0000
0100
0000
0001
0100
0100
0000
,
0010
0000
1000
0000
0010
0100
0100
0000
,
0001
0000
1000
0000
0010
0100
0100
0000
,
0001
0010
0100
1000
,
1001
0000
0010
0000
1000
0100
1000
0100
,
1000
0000
0100
0000
0001
0010
0001
0010
,
0001
0000
0010
0000
1000
0001
1000
0001
,
1000
0000
0010
0000
0100
0010
0100
0000
,
0011
0000
0010
0000
0100
0000
1000
0010
,
0110
0000
1000
0000
0010
0000
0100
1000
,
1100
0000
0010
0000
0100
0000
0001
0100
,
0101
0000
0010
0010
0100
0100
0010
0000
,
1001
0000
0010
0000
0100
0000
0001
0100
,
1100
0000
0010
0000
0100
0000
0010
0010
,
0110
0000
1000
0000
0100
0000
0001
0100
,
0001
0000
0010
0000
0100
0100
0000
0010
,
1001
0000
0010
0000
0100
1000
0100
0000
,
0010
0000
0100
0000
0001
1000
0001
0000
,
0010
0000
1000
0000
0001
0100
0001
0000
,
0010
0000
1000
0100
1000
0000
0010
0010
,
0100
0000
0010
0000
1000
0010
1000
0000
,
0100
0000
1000
0000
0010
0001
0010
0000
,
0100
0010
0010
0000
0010
0100
0100
0000
,
0001
0010
0100
1000
0100
0000
0010
0000
,
0101
0010
1000
1000
,
0010
0000
0100
0000
0001
1000
0001
1000
,
0001
0010
0100
1000
,
0010
0000
1000
0010
0010
0000
0100
0000
,
0110
1000
0100
0001
,
0001
0000
0100
0000
0010
1000
0010
0000
,
0100
0000
0001
0000
1000
0001
1000
0000
,
0010
0000
0100
0000
0010
0010
0000
0000
,
1001
0000
0010
0000
0100
0001
0100
0000
,
0010
0000
1000
0000
0100
1000
0100
0000
,
0010
0000
0100
0000
0001
0010
0001
0000
,
0010
0000
0100
0010
0010
0000
1000
0000
,
0010
0000
0100
0000
1000
0010
1000
0000
,
0010
0000
0100
0000
1000
0001
1000
0000
,
0010
0001
0001
0000
1000
0100
0100
0000
,
0010
0100
0010
0100
0010
0000
0001
0000
,
0010
0100
0000
1000
0000
0010
0100
0000
,
0001
1000
0000
0010
0000
0100
0001
0000
,
0010
0100
0000
0001
0000
0100
0010
0000
,
1000
0100
0000
1000
0000
0010
0100
0000
,
1001
0000
0100
0000
0010
0000
1000
0001
,
1000
0000
0010
0000
0001
0000
0100
0010
,
0100
0000
0001
0000
0010
0000
0100
0010
,
0100
0000
1000
0000
0010
0000
0100
0010
,
0100
0000
0000
0000
;

//---------------dance-single - ----------------
#NOTES:
     dance-single:
     :
     Easy:
     3:
     0.210,0.201,0.133,0.014,0.000: // measure 1
0010
0100
0010
0010
,  // measure 2
0001
1000
0001
0001
,  // measure 3
0010
0100
1000
1000
,  // measure 4
0010
0100
0010
0010
,  // measure 5
0100
1000
0100
0110
,  // measure 6
0010
0100
0001
0011
,  // measure 7
0010
1000
0100
1100
,  // measure 8
0010
0100
0010
0010
,  // measure 9
1001
0010
0001
0001
,  // measure 10
0010
0100
1000
1000
,  // measure 11
0010
0100
0010
0010
,  // measure 12
0100
1000
0010
0100
,  // measure 13
0001
0010
0001
0001
,  // measure 14
0100
0010
1000
1000
,  // measure 15
0010
0100
0010
0010
,  // measure 16
0100
1000
0100
0010
,  // measure 17
1001
0010
0001
0100
,  // measure 18
1001
0010
0100
1000
,  // measure 19
0110
0001
0010
0001
,  // measure 20
0100
0100
0100
0010
,  // measure 21
1001
0010
0001
0010
,  // measure 22
1001
0100
1000
0100
,  // measure 23
0110
1000
0100
0010
,  // measure 24
0100
0001
0100
0010
,  // measure 25
2000
0000
0100
3100
,  // measure 26
0010
0100
0010
0010
,  // measure 27
0002
0000
0010
0013
,  // measure 28
0100
0010
0100
0100
,  // measure 29
0010
1000
0010
0010
,  // measure 30
0100
0001
0010
0010
,  // measure 31
1000
0010
0100
0100
,  // measure 32
1000
0010
0100
0000
,  // measure 33
0110
1000
0001
0001
,  // measure 34
0110
0100
0010
0001
,  // measure 35
1001
0010
0100
1000
,  // measure 36
0010
0100
0001
1000
,  // measure 37
0110
1000
0001
1000
,  // measure 38
0110
0001
1000
0001
,  // measure 39
1001
0010
0001
0100
,  // measure 40
0010
1000
0010
0100
,  // measure 41
0010
0010
0010
0010
,  // measure 42
0100
0100
0100
0100
,  // measure 43
0001
0001
0001
0001
,  // measure 44
1000
0010
0100
0001
,  // measure 45
0010
0010
0100
0100
,  // measure 46
1001
0010
0001
0010
,  // measure 47
1001
0100
0010
0100
,  // measure 48
1000
1000
1000
0010
,  // measure 49
1001
0000
0000
0000
;
