#TITLE:MAXIMIZER;
#SUBTITLE:;
#ARTIST:CLI-MAX S.;
#TITLETRANSLIT:;
#SUBTITLETRANSLIT:;
#ARTISTTRANSLIT:;
#CREDIT:;
#BANNER:MAXIMIZER.png;
#BACKGROUND:MAXIMIZER-bg.png;
#LYRICSPATH:;
#CDTITLE:./CDTITLES/DANCE DANCE REVOLUTION HOME VERSION.PNG;
#MUSIC:MAXIMIZER.mp3;
#OFFSET:-0.075;
#SAMPLESTART:18.320;
#SAMPLELENGTH:15.000;
#SELECTABLE:YES;
#DISPLAYBPM:190.000;
#BPMS:0.000=188.240,12.000=198.900,16.000=189.970,80.000=189.730,142.000=190.120;
#STOPS:16.000=0.633
,80.000=0.287
,142.000=0.640
;
#BGCHANGES:;

//---------------dance-single - ----------------
#NOTES:
     dance-single:
     :
     Easy:
     6:
     0.356,0.414,0.093,0.321,0.000:
0000
0000
0000
0000
,
0000
0000
0000
0000
,
0000
0000
0000
0000
,
0000
0000
0000
0000
,
1000
0000
0001
0001
,
0100
0000
0100
0100
,
2000
3000
0002
0003
,
1000
0001
1000
0000
,
0001
0000
1000
1000
,
0010
0000
0001
0001
,
0010
0000
0100
0000
,
0010
0100
0110
0000
,
0020
0030
1000
0000
,
0200
0300
0001
0000
,
1000
0000
0001
0000
,
0010
0100
0001
0000
,
1000
0000
0001
0001
,
1000
0000
0001
0000
,
0100
1000
0001
0000
,
2000
3000
0002
0003
,
1001
0000
0000
0000
,
0020
0030
1000
0100
,
0200
0300
0001
0100
,
0001
1000
0001
2000
,
0000
3001
0100
0002
,
0000
1003
0100
0020
,
0030
2002
3003
0200
,
0300
1000
0002
1003
,
0000
0100
1000
0100
,
0000
0001
1000
0001
,
0000
0010
0001
0010
,
0000
0000
0010
0000
0010
0000
0000
1001
,
0000
0000
0000
0000
0100
0000
0000
0110
,
0000
0000
0000
0000
0010
0000
0000
0220
,
0000
0000
0330
0000
,
0000
0000
1001
0000
,
0001
0001
0001
0000
,
1000
1000
1000
0000
,
0010
0000
0100
0000
,
0010
1000
0001
0000
,
0100
0100
0100
0000
,
0010
0010
0010
0000
,
1000
0100
0001
1000
,
0001
0100
1001
0000
,
2000
3000
0100
0000
,
0020
0030
0100
0000
,
0001
0001
1000
1000
,
0010
1000
1000
0002
,
0103
0200
0301
1000
,
0000
0001
0000
0001
,
1000
0001
1000
0010
,
0010
0100
0002
0000
,
0103
0000
2000
0000
,
3100
0000
0020
0000
,
0000
0030
0200
0000
,
0000
0300
0000
0000
,
0010
0100
0001
0001
,
1000
1000
0100
0100
,
0001
0001
1000
1000
,
0100
0001
1000
0001
,
0100
0010
0010
0010
,
1000
0100
0100
0100
,
0001
0100
0001
0001
,
1000
0000
1000
0000
0001
0000
0000
1000
,
0000
0001
2000
3100
,
0100
0001
0002
0103
,
0100
1000
0001
1000
,
1000
0100
0001
1000
,
0001
0100
2000
0100
,
3100
0010
0002
0100
,
0103
1000
0002
1000
,
2003
0001
3010
0001
,
0100
1000
0100
0110
;

//---------------dance-single - ----------------
#NOTES:
     dance-single:
     :
     Medium:
     7:
     0.439,0.452,0.155,0.186,0.000:
0000
0000
0000
0000
,
0000
0000
0000
0000
,
0000
0000
0000
0000
,
0000
0000
0000
0000
,
0110
0000
0010
0000
0010
0000
0010
0001
,
1000
0000
1000
0000
0001
0100
0001
0000
,
0100
0000
0100
0000
0100
0010
0100
0000
,
1000
0100
1000
0000
0001
0000
0000
0000
,
0001
0100
1000
0100
,
0001
0000
0100
0000
1000
0001
1000
0000
,
0001
0100
1000
0010
,
0001
0100
1001
0000
,
0100
1000
2000
3000
,
0100
0010
0002
0003
,
1000
0001
1000
0000
0001
0100
0001
0000
,
0010
0010
0110
0000
,
0001
0000
0001
0000
0001
1000
0001
0000
,
0100
0000
0100
0000
0010
0100
0001
0000
,
1000
0000
1000
0000
1000
0001
1000
0000
,
0001
0010
0001
1000
0100
0000
0000
0000
,
1001
0000
0001
0000
0010
0000
1000
0001
,
0000
0100
0000
0010
0000
1000
0001
0100
,
0000
0010
0000
0100
0000
0001
0010
0100
,
0000
0001
0000
0101
0000
0000
0000
1000
,
0000
0001
0000
0100
0001
0010
0000
1000
,
0000
0100
0000
1000
0010
0100
0000
0001
,
0000
1000
0000
0001
0010
0100
0000
1000
,
0000
0001
0000
1000
0200
0000
0300
1000
,
0000
0010
0000
0100
0001
0010
0000
0001
,
0000
0001
0000
0010
0100
1000
0000
0010
,
0000
0001
0000
1000
0001
0100
0000
0001
,
0000
1000
0000
0000
0010
0000
0000
0101
,
0000
0000
0000
0000
1000
0000
0000
1100
,
0000
0000
0000
0000
0010
0000
0000
0220
,
0000
0000
0000
0000
,
0000
0330
1001
0000
,
1001
0100
0001
0100
,
1000
0000
1000
0000
0001
0100
0001
0000
,
1000
0100
1000
0100
,
0001
0000
0001
0000
1000
0010
1000
0000
,
0010
0010
1000
0010
,
0100
0100
0001
0100
,
0001
0100
1000
0100
,
0001
0010
0100
0000
1001
0000
0000
0000
,
0002
0003
0100
0100
,
2000
3000
0010
0010
,
1000
0000
0001
0001
,
0010
1000
0001
0200
,
0300
0001
0001
0020
,
0030
1000
1000
0010
,
0000
0001
0001
1000
,
0001
0100
0002
0000
,
0000
0000
2003
0000
,
0000
0000
3200
0000
,
0000
0000
0020
0000
,
0000
0000
0330
0000
,
0001
0000
1000
0000
1000
0001
0000
0100
,
0000
0020
0000
1030
0000
0100
0000
0100
,
0000
1000
0001
1000
0000
0001
0000
1000
,
0000
0010
0000
0200
0000
0301
0000
1000
,
0000
2002
0000
3003
0000
0001
0000
0001
,
0000
0100
0000
1000
0000
0001
0000
0100
,
0000
0001
1000
0001
0000
0100
0000
0100
,
0000
0100
0000
0001
0100
0000
0000
1001
,
0000
0000
1010
0000
0010
0100
0000
0010
,
0000
0001
0000
0001
0000
0010
0000
0100
,
0000
1000
0001
1000
0000
0100
0000
0001
,
0000
0100
0000
0010
0000
1000
0000
0100
,
0000
0002
0000
0103
0000
1000
0000
1000
,
0000
0001
0000
0001
0000
0010
0000
1000
,
0000
0100
1000
0001
0000
0001
0000
1000
,
0000
1000
0000
0001
0000
0100
0000
0100
,
0000
1000
0010
0100
0000
0000
1001
0000
;

//---------------dance-single - ----------------
#NOTES:
     dance-single:
     :
     Hard:
     8:
     0.586,0.678,0.248,0.124,0.021:
0000
0000
0000
0000
,
0000
0000
0000
0000
,
0000
0000
0000
0000
,
0000
0000
0000
0000
,
1001
1000
0001
0010
,
0100
0000
1000
0000
0010
0100
0001
1000
,
0001
0100
0010
0100
,
0001
0000
0100
0000
0010
1000
0001
1000
,
0001
0001
1000
0010
,
0100
0000
1000
0000
0010
0100
0001
1000
,
0100
0010
0001
1000
0000
0001
0000
1000
,
0000
0001
0000
0001
0010
0100
1000
0000
,
0001
0000
0000
0000
1000
0000
0000
0000
0001
0100
0001
0100
0001
0000
0000
0000
,
1000
0000
0000
0000
0001
0000
0000
0000
1000
0010
1000
0010
1000
0000
0000
0000
,
1000
0100
0010
0100
,
1000
0000
0100
0000
0010
0001
1000
0001
,
1000
1000
0001
0010
,
0100
0000
0001
0000
0010
0100
1000
0001
,
0100
0001
1000
0001
0000
0011
0000
1001
,
0000
1001
0000
1001
0000
0110
0000
2002
,
3003
1000
0000
1000
0000
0010
1000
0001
,
0000
0100
0000
0001
0000
1000
0100
0010
,
0000
0001
0000
0001
0000
0010
0100
1000
,
0000
0100
0000
0001
0000
1000
0001
1000
,
0000
1000
0000
0010
1000
0001
0000
0100
,
0000
0001
0000
1000
0100
0010
0000
0001
,
0000
0001
0000
0010
0001
0100
0000
0100
,
0000
0001
0000
1000
0020
0000
0031
0000
,
0100
0000
0010
0100
0001
0000
0001
0000
,
0100
0000
0010
1000
0100
0000
0010
0000
,
0001
0000
1000
0001
0100
0000
0010
0000
,
1000
0000
0100
1000
1100
0000
0000
0101
,
0000
0000
1001
0000
0010
0000
0000
1010
,
0000
0000
0100
0000
0010
0000
0010
0100
,
0020
0200
0000
0000
0000
0000
0000
0000
,
0000
0330
1001
0000
,
0010
0010
0001
0001
,
0100
0100
1000
1000
,
0010
0000
0001
0000
0001
1000
0010
0100
,
0001
0000
0100
0000
0100
0010
0100
0010
,
1000
0000
0100
0000
0010
0001
1000
0100
,
0010
0000
0010
0000
0010
1000
0010
0100
,
0010
1000
0001
0100
0010
1000
0100
0010
,
0001
1000
1001
0001
,
0001
0000
0001
0100
0000
0100
0000
0010
,
0000
0010
0000
0010
0000
0001
1000
0100
,
1100
0000
1100
0000
1000
0100
1000
0100
,
0001
0100
0001
0100
0001
0000
0001
0000
,
0001
0010
0000
0010
0000
0100
0000
0100
,
0000
0100
0000
0001
1000
0010
1010
0000
,
1010
0000
0010
1000
0010
1000
0010
0001
,
0010
0001
0010
0000
0012
0000
0000
0000
,
0010
1003
0200
0000
,
0010
1000
0302
0000
,
0000
0003
0000
0000
,
0000
0000
0000
0010
0000
0000
0000
0000
,
0101
0000
1100
0000
0010
0100
0010
0000
,
1000
0001
0100
0000
0001
1000
0010
0000
,
0100
0001
0010
0000
0100
1000
0001
0000
,
1000
0100
1000
0000
0001
1000
0100
0000
,
1000
0001
0100
0000
0010
1000
0100
0000
,
0010
0100
1000
0000
0001
0100
0001
0000
,
0100
1000
0100
0000
1000
0010
1000
0000
,
0010
0001
0010
0000
2002
0000
3003
0202
,
0000
0303
0110
0000
1000
0001
1000
0010
,
1000
0100
1000
0010
0100
0001
0010
0100
,
0010
0100
1000
0100
0010
0001
0010
0100
,
1000
0001
1000
0010
0100
0010
0100
0001
,
0010
0001
0100
0010
1000
0100
1000
0100
,
0010
0001
1000
0010
1000
0001
0100
0010
,
0100
0001
1000
0010
0100
0001
0010
0100
,
1000
0001
0100
0010
1000
0010
0100
0010
,
0001
0010
0100
0010
0000
0000
1001
0000
;

//---------------dance-double - ----------------
#NOTES:
     dance-double:
     :
     Easy:
     5:
     0.300,0.377,0.072,0.041,0.000:
00000000
00000000
00000000
00000000
,
00000000
00000000
00000000
00000000
,
00000000
00000000
00000000
00000000
,
00000000
00000000
00000000
00000000
,
00011000
00001000
00000000
00010000
,
00000000
00001000
00000100
00000001
,
00000000
00001000
00000000
00000001
,
00000000
00000001
00000100
00001000
,
00000000
00010000
00000000
00010000
,
00000000
00010000
01000000
10000000
,
00000000
00010000
00010000
01000000
,
00100000
00100000
00100000
00000000
,
10010000
00000000
01000000
00000000
,
01000000
00010000
00001000
00001000
,
00010000
00000000
00001000
00000000
,
00000010
00000001
00000100
00000100
,
00000010
00000000
00001000
00000000
,
00000001
00000010
00001000
00010000
,
00010000
00000000
00100000
00000000
,
01000000
01000000
00010000
00010000
,
10000000
00000000
00000000
00000000
,
01000000
00000000
00010000
00001000
,
00001000
00000000
00001000
00000000
,
00010000
00010000
00001000
00000010
,
00000001
00000000
00000001
00000000
,
00000100
00000000
00000100
00000100
,
00000100
00000000
00001000
00000000
,
00001000
00000000
00001000
00001000
,
00000000
00010000
00000000
00010000
,
00000000
01000000
10000000
00010000
,
00000000
00100000
00000000
01000000
,
00000000
00100000
00100000
00100000
,
00000000
00000000
10000000
10000000
,
00010000
00010000
00000000
10000000
,
00100000
00010000
00001000
00001000
,
00000010
00000001
00001001
00000000
,
00000010
00000000
00000000
00000000
,
00000100
00000000
00000000
00000000
,
00001000
00000000
00000000
00000000
,
00010000
00000000
00000000
00000000
,
00100000
00000000
01000000
01000000
,
01000000
00000000
00010000
00010000
,
00010000
00000000
10000000
10000000
,
10000000
00100000
00010000
00001000
,
00011000
00000000
00000100
00000000
,
00000010
00000000
00000001
00000100
,
00001000
00000000
00010000
00000000
,
01000000
10000000
10000000
00010000
,
00000000
10000000
00000000
01000000
,
00000000
00010000
00010000
00001000
,
00000000
00000010
00000000
00000001
,
00000001
00000001
00000002
00000000
,
00000000
00000000
00000000
00000000
,
00000000
00000000
00002000
00000003
,
00000000
00000000
00000000
00000000
,
00000000
00000000
00000020
00000000
,
00000000
00003030
00000100
00000100
,
00000001
00000001
00000100
00000100
,
00001000
00010000
00010000
00010000
,
00100000
00100000
01000000
01000000
,
00010000
10000000
01000000
01000000
,
00010000
00010000
00001000
00001000
,
00000010
00000100
00001000
00001000
,
00000001
00000000
00000001
00000000
00001001
00000000
00000000
00000100
,
00000000
00001001
00000110
00000010
,
00000100
00000100
00000001
00000001
,
00000010
00000100
00001000
00001000
,
00010000
00010000
00100000
00100000
,
01000000
01000000
10000000
10000000
,
00010000
00010000
00100000
01000000
,
10000000
00010000
10000000
10000000
,
01000000
01000000
00010000
00001000
,
00000010
00000002
00000000
00001003
;

//---------------dance-double - ----------------
#NOTES:
     dance-double:
     :
     Medium:
     7:
     0.447,0.489,0.145,0.093,0.000:
00000000
00000000
00000000
00000000
,
00000000
00000000
00000000
00000000
,
00000000
00000000
00000000
00000000
,
00000000
00000000
00000000
00000000
,
00010000
00010000
10000000
01000000
,
00010000
00001000
00000100
00000001
,
00000010
00000100
00001000
00000001
,
00000100
00001000
00100000
01000000
,
10000000
00000000
00010000
00000000
10000000
00010000
10000000
00000000
,
00100000
01000000
00010000
00100000
,
00001000
00010000
00000100
00000010
,
00000001
00000000
00000001
00000000
00000010
00000100
00000010
00000000
,
00001001
00000000
00000010
00000000
00000100
00000010
00000100
00000000
,
00000001
00000010
00001000
00010000
,
01010000
00100000
00010000
10000000
,
00100000
00000000
01000000
00000000
00010000
00100000
01000000
00000000
,
01000000
10000000
00100000
00010000
,
00001000
00000010
00000001
00001000
,
00001000
00000010
00000100
00000001
,
00000001
00000000
00001000
00000010
00000000
00000010
00000000
00000010
,
00000000
00000010
00000000
00000010
00000000
00000100
00000000
00001100
,
00000000
00000001
00000000
00000100
00000000
00001000
00010000
01000000
,
00000000
10000000
00000000
10000000
00000000
00010000
00100000
01000000
,
00000000
10000000
00000000
00010000
00000000
00100000
00010000
01000000
,
00000000
01000000
00000000
00100000
10000000
01000000
00000000
00010000
,
00000000
00001000
00000000
00000100
00000001
00000010
00000000
00000100
,
00000000
00001000
00000000
00000001
00000100
00001000
00000000
00010000
,
00000000
00010000
00000000
01000000
20000000
00000000
30000000
00010000
,
00000000
00100000
00000000
01000000
10000000
00100000
00000000
00010000
,
00000000
00010000
00000000
00001000
00000100
00000001
00000000
00000010
,
00000000
00000100
00000000
00001000
00000001
00000100
00000000
00001000
,
00000000
00011000
00000000
00000000
01100000
00000000
00000000
00010000
,
00000000
00000000
00000000
10000000
01000000
00000000
00000000
01010000
,
00000000
00000000
10000000
00100000
02000000
00000000
00000000
00000000
,
00000000
00000000
00000000
00000000
,
00000000
00000000
00000000
00000000
03002000
00000000
00000000
00003000
,
00010000
00010000
00010000
00010000
,
00000100
00000010
00000001
00000100
,
00001000
00010000
01000000
10000000
,
00010000
00000000
00010000
00000000
00010000
00000000
00010000
10000000
,
01000000
00000000
00010000
00000000
00001000
00000000
00001000
00000100
,
00000001
00000000
00000010
00000000
00000001
00000000
00000001
00001000
,
00000100
00000000
00000010
00000000
00000001
00000100
00000010
00000000
,
00001100
00010000
00011000
01000000
,
00110000
00000000
10000000
00100000
00000000
01000000
00000000
00010000
,
00000000
10000000
00000000
00100000
00000000
00010000
00001000
00000000
,
00000010
00000001
00000001
00001000
,
00000100
00000000
00000100
00000000
00000100
00000010
00000100
00000000
,
00001000
00000000
00000001
00000010
00000000
00000100
00000000
00000100
,
00000000
00000100
00000000
00001000
00010000
00000000
00100000
00000000
,
01000000
10000000
00010000
00100000
,
00100000
00000000
00100000
02000000
00200000
00000000
00000000
00000000
,
00000000
00000000
00000000
00000000
,
00000000
03300000
20020000
00000000
,
00000000
00000000
00000000
00000000
,
00000000
30030000
00000000
00202000
00000000
00000000
00000000
00000000
,
00000000
00000000
00303000
00000000
00010000
00001000
00000000
00000100
,
00000000
00000001
00000000
00000001
00000000
00000010
00000000
00000010
,
00000000
00000010
00000100
00001000
00000000
00001000
00000000
00000001
,
00000000
00000001
00000000
00000100
00000000
00001000
00000000
00010000
,
00000000
00010000
01000000
10000000
00000000
00010000
00000000
00010000
,
00000000
10000000
00000000
01000000
00000000
00010000
00000000
00001000
,
00000000
00001000
00000100
00000001
00000000
00000001
00000000
00000010
,
00000000
00000100
00000010
00000000
00001001
00000000
00000010
00000100
,
00000000
00000000
00001001
00000000
00000010
00000100
00000000
00001000
,
00000000
00000001
00000000
00000010
00000000
00001000
00000000
00001000
,
00000000
00010000
00100000
01000000
00000000
00010000
00000000
10000000
,
00000000
00100000
00000000
00100000
00000000
01000000
00000000
01000000
,
00000000
00010000
00100000
01000000
00000000
10000000
00000000
00100000
,
00000000
00010000
00000000
00001000
00000000
00000010
00000000
00000001
,
00000000
00001000
00000001
00001000
00000000
00000001
00000000
00000010
,
00000000
00000100
00000000
00001000
00000000
00100000
00000000
01000000
,
00000000
00010000
00100000
01000000
00000000
00000000
10010000
00000000
;

//---------------dance-double - ----------------
#NOTES:
     dance-double:
     :
     Hard:
     8:
     0.543,0.602,0.207,0.166,0.000:
00000000
00000000
00000000
00000000
,
00000000
00000000
00000000
00000000
,
00000000
00000000
00000000
00000000
,
00000000
00000000
00000000
00000000
,
00001001
00000100
00000010
00000001
,
00000100
00000000
00000100
00000000
00000010
00001000
00000001
00000000
,
00000100
00001000
00010000
01000000
,
10000000
00000000
00010000
00000000
00100000
01000000
00100000
00000000
,
00010000
10000000
00100000
00010000
,
00001000
00000000
00000010
00000000
00000001
00001000
00000100
00000000
,
00000010
00000001
00001000
00000001
,
00000100
00001000
00010000
00000000
00001000
00010000
01000000
00000000
,
10010000
00000000
00100000
00000000
01000000
00100000
01000000
00000000
,
00010000
10000000
00200000
01300000
,
10010000
00000000
10000000
00000000
00100000
00010000
00001000
00000000
,
00000010
00000000
00000001
00000000
00001000
00000010
00000100
00000000
,
00000001
00000010
00001000
00010000
,
00100000
00000000
10000000
00000000
00010000
01000000
00100000
00000000
,
00010000
00001000
00000010
00000001
,
00000100
00000010
00001000
00000001
00000100
00000010
00001000
00000000
,
00001100
00010000
00000000
00001000
00000000
01000000
00100000
01000000
,
00000000
00010000
00000000
10000000
00000000
00100000
01000000
00010000
,
00000000
10000000
00000000
01000000
00000000
00010000
00001000
00010000
,
00000000
00000100
00000000
00000010
00000000
00000001
00001000
00000010
,
00000000
00000100
00000000
00000001
00000010
00000100
00000000
00001000
,
00000000
00100000
00000000
01000000
00010000
00100000
00000000
01000000
,
00000000
10000000
00000000
00100000
00010000
00001000
00000000
00000010
,
00000000
00000010
00000000
00000010
00000002
00000000
00001003
00000010
,
00000000
00000100
00000000
00000001
00001000
00000010
00000000
00000100
,
00000000
00001000
00000000
00100000
00010000
10000000
00000000
10000000
,
00000000
00100000
00000000
00010000
00100000
10000000
00000000
00010000
,
00000000
00100000
01000000
00100000
00010000
10000000
00000000
02200000
,
00000000
00000000
03300000
00000000
10010000
00000000
00000000
00100000
,
00001000
00000000
00000000
00000000
00011000
00000000
00000000
00000220
,
00000000
00000300
00000001
00000001
,
00000001
00000001
00000230
00000000
,
00000310
00001000
00000001
00000100
,
00001000
00000000
00010000
00000000
01000000
00000000
10000000
00010000
,
10000000
00100000
01000000
00010000
,
00001000
00000000
00000010
00000000
00000100
00000000
00000001
00002000
,
00000002
00000000
00000000
00000000
00000000
00003000
00001003
00000020
,
00000200
00000000
00000000
00000000
00000030
00000000
00000301
00000010
,
00000100
00000000
00000100
00001000
00000010
00000000
00000100
00000000
,
00000101
00001100
00010100
00011000
,
01010000
00000000
00100000
01000000
00000000
10000000
00000000
10000000
,
00000000
00010000
00100000
01000000
10000000
00100000
01000000
00010000
,
10000000
00000000
01000000
00000000
00000000
01100000
00000000
10010000
,
00000000
00100000
01000000
10000000
00010000
00100000
01000000
00000000
,
10000000
00100000
00000000
00010000
00000000
00001000
00000000
00000010
,
00000000
00000010
00000000
00000010
00000001
00000100
00000010
00000000
,
00001000
00000000
00000000
00000101
00000000
00001100
00000000
00000000
,
00000010
00000100
00000010
00000200
00000002
00000000
00000000
00000000
,
00000000
00000000
00000000
00000000
,
00000000
00000000
00000303
00002000
00020000
00000000
00000000
00000000
,
00000000
00000000
00000000
00000000
,
00000000
00033000
00000000
01100000
00000000
10000000
00010000
01000000
,
00100000
10000000
01000000
00100000
01000000
10000000
00000000
00010000
,
00000000
10000000
00100000
01000000
00000000
00010000
10000000
01000000
,
00000000
00100000
00010000
01000000
00000000
00001000
00010000
00000100
,
00000000
00000010
00000001
00001000
00000000
00000010
00000100
00000001
,
00000000
00000010
00000100
00001000
00000000
00000001
00000100
00001000
,
00000000
00010000
01000000
10000000
00000000
00100000
01000000
00010000
,
00000000
00100000
01000000
10000000
00000000
00100000
01000000
00010000
,
10000000
00100000
01000000
00000000
10010000
00000000
00100000
00010000
,
00000000
00001000
00000010
00000000
00001001
00000100
00000010
00000000
,
00000001
00001000
00000100
00000000
00000010
00000001
00000100
00000000
,
00000010
00010000
00001000
00000000
01000000
00100000
01000000
00000000
,
00010000
10000000
01000000
00000000
00100000
00010000
01000000
00000000
,
00100000
10000000
01000000
00000000
00100000
01000000
10000000
00000000
,
00100000
00010000
00001000
00000000
00000010
00001000
00010000
00000000
,
00001000
00000100
00000001
00000000
00000001
00001000
00000100
00000010
,
00000001
00000100
00001000
00010000
00001000
01000000
00010000
00100000
,
01000000
10000000
00100000
02000000
00000000
00000000
03010000
00000000
;

//---------------dance-single - ----------------
#NOTES:
     dance-single:
     :
     Beginner:
     2:
     0.238,0.452,0.135,0.000,0.000:
0000
0000
0000
0000
,
0000
0000
0000
0000
,
0000
0000
0000
0000
,
0000
0000
0000
0000
,
0000
0000
0000
0000
,
0001
0001
0001
0000
,
0000
0000
0000
0000
,
1000
1000
1000
0000
,
0000
0000
0000
0000
,
0010
0010
0010
0000
,
1000
0000
0001
0000
,
0100
0100
0100
0000
,
0000
0000
1000
1000
,
1000
1000
1000
0000
,
0000
0000
0000
0000
,
0001
0001
0001
0000
,
0000
0000
0000
0000
,
0010
0010
0010
0000
,
0001
0000
1000
0000
,
0100
0100
0100
0000
,
0000
1000
0000
0010
,
0000
1000
0000
0001
,
0000
0100
0000
1000
,
0000
0001
0000
1000
,
0000
0100
0000
0001
,
0000
1000
0000
0010
,
0000
0001
0000
0001
,
0000
1000
1000
1000
,
0000
0001
0000
0010
,
0000
0001
0000
1000
,
0000
0100
0000
0001
,
0000
1000
0000
0001
,
0000
0100
0000
1000
,
0000
0001
0000
0010
,
0000
1000
0000
1000
,
0000
0001
0001
0000
,
0010
0000
0000
0000
,
0000
0000
0000
0000
,
0100
0000
0000
0000
,
0000
0000
0000
0000
,
1001
0000
0000
0000
,
1001
0000
0000
0000
,
1001
0000
0110
0000
,
1001
1001
1001
1001
,
0000
0000
0000
0000
,
0001
0001
0001
0001
,
0000
0000
0000
0000
,
0100
0100
0100
0000
,
0000
0000
0000
1000
,
1000
1000
1000
0000
,
0000
0000
0000
0001
,
0001
0001
0000
0000
,
0000
0000
0100
0100
,
0100
0100
0000
0000
,
0000
0000
1000
1000
,
1000
1000
0000
0000
,
1001
1001
0000
0001
,
0001
0001
0001
0000
,
0100
0000
1000
1000
,
1000
1000
1000
0000
,
0100
0000
0010
0010
,
0010
0010
0010
0000
,
0100
0100
0100
0100
,
0100
0100
0100
0000
,
0110
0110
0000
1000
,
1000
1000
1000
0000
,
0100
0000
0001
0001
,
0001
0001
0001
0000
,
0100
0000
0010
0010
,
0010
0010
0010
0000
,
0100
0100
0100
0100
,
0100
0100
0100
0000
,
0010
0010
0000
1001
;

//---------------dance-double - ----------------
#NOTES:
     dance-double:
     :
     Challenge:
     1:
     0.846,0.866,0.569,0.155,0.181:
00000000
00000000
00000000
00000000
,
00000000
00000000
00000000
00000000
,
00000000
00000000
00000000
00000000
,
00000000
00000000
00000000
00000000
,
00000010
00000001
00000010
00000100
00010000
00000010
00000100
00000001
,
00000000
00000001
00000000
00000100
00000010
00010000
00100000
10000000
,
01000000
00100000
00001000
01000000
00100000
10000000
01000000
00010000
,
00000000
00010000
00000000
00001000
00010000
01000000
00100000
00001000
,
00010000
00100000
10000000
01000000
00010000
00001000
00010000
00000100
,
00000000
00000100
00000000
00000010
00000001
00000100
00001000
00000100
,
00000010
00010000
00001000
00011000
00000000
10010000
00000000
01100000
,
00000000
10010000
00000000
00100000
01000000
00000000
10010000
00000000
,
01000000
00000000
00100000
00000000
00001000
00000000
00010000
00000000
01000000
10000000
01000000
10000000
00100000
00000000
01000000
00000000
,
00001000
00000000
00010000
00000000
00000100
00000000
00000010
00000000
00000001
00001000
00000001
00001000
00000100
00000000
00000000
00000000
,
00000010
00000001
00000100
00001000
00010000
00000100
00010000
00001000
,
01000000
00100000
10000000
01000000
00100000
00001000
00010000
00100000
,
10000000
00010000
00100000
01000000
10000000
00100000
01001000
00010000
,
00000100
00000010
00000001
00000100
00001000
00000100
00000010
00010000
,
00001000
00000010
00001000
00011000
00000000
00001001
00000000
00000110
,
00000000
00001001
00000000
00000010
00000100
00000000
00001001
00000000
,
00000100
00000010
00000001
00000100
00001000
00010000
00000100
00001000
,
00000000
00000001
00000010
00000100
00010000
00000100
00000010
00000001
,
00000000
00000100
00000010
00010000
00001000
00100000
01000000
10000000
,
00000000
00100000
10000000
01000000
00001000
01000000
10000000
00100000
,
01000000
00001000
00010000
00100000
10000000
01000000
00000000
00100000
,
00001000
00010000
00001000
00000010
00000001
00000100
00000000
00001000
,
00010000
00001000
00000100
00000010
00001000
00000100
00000000
00000001
,
00000100
00000010
00000001
00000100
00002002
00003003
00001001
00000100
,
00000010
00000001
00000100
00000010
00010000
00001000
01000000
00100000
,
00010000
00001000
00100000
01000000
10000000
01000000
00100000
00010000
,
01000000
00001000
00010000
00000100
00010000
00001000
00100000
00001000
,
00010000
00000010
00000001
00000100
00000210
00000000
00000310
00010010
,
00000000
00000000
00010000
00001000
01002000
00000000
01003000
01100000
,
00000000
00000000
00100000
00010000
00021000
00000000
00031000
01001000
,
00000000
00000000
00100000
10000000
01000000
00010000
00001000
00000100
,
00000001
00000010
00000200
00000000
00000320
00000000
00000000
00000000
,
00000031
00000000
00000100
00000000
00000001
00000000
00000010
00000000
00001000
00010000
00001000
00000000
00100000
00000000
00000000
00000000
,
01000000
00000000
10000000
00000000
00100000
00000000
01000000
00000000
00001000
00010000
00001000
00000000
00100000
00000000
00000000
00000000
,
01000000
00000000
10000000
00000000
00100000
00000000
00010000
00000000
00001000
00000010
00001000
00000000
00010000
00000000
00000000
00000000
,
00001000
00010000
00001000
00000000
01000000
00000000
00001000
00000000
00010000
00001000
00010000
00000000
00000100
00000000
00000010
00000000
,
00000001
00000000
00000000
00000000
00001000
00000000
00000001
00000000
00000100
00000001
00000100
00000000
00001000
00010000
00001000
00010000
,
00000100
00000000
00000000
00000000
00000010
00000000
00001000
00000000
00010000
00001000
00010000
00000000
01000000
10000000
01000000
10000000
,
00100000
00000000
00000000
00000000
01000000
00000000
00010000
00000000
00100000
00001000
00100000
00000000
00001000
00010000
00001000
00010000
,
00000010
00000100
00001001
00000000
,
00001001
00000001
00000101
00000110
00000000
00010010
00000000
00011000
,
00001000
00011000
00010000
00011000
00001000
00010000
01000000
01000000
,
01100000
00000000
10010000
00000000
00000000
20000000
01000000
32000000
,
00100000
03200000
00001000
00302000
00010000
00013000
00011000
00001000
,
00001100
00000101
00000000
00000110
00000000
00001001
00000001
00001001
,
00001000
00001001
00000001
00000100
00001000
00001000
00011000
00000000
,
10010000
00000000
00000000
00020000
01000000
02030000
00100000
03200000
,
10000000
20300000
00010000
30010000
10010000
00000000
11000000
01100000
,
00000000
00101000
00000000
00011000
00000000
00010010
00000000
00000110
,
00000000
00000010
00001000
00000100
00001100
00000000
00000101
00000000
,
00000000
00000010
00000000
00000001
00000000
00000100
00000000
00001000
,
00000000
00000000
00000000
00011000
00000000
00000000
00000000
00000000
00000000
00010000
00000000
00001000
00000000
00100000
00000000
00010000
00000000
01000000
00000000
00001000
00000000
00010000
00000000
00000010
,
00000000
00001000
00000000
00000100
00000000
00010000
00000000
00001000
00000000
00100000
00000000
00000000
01000000
00000000
00000000
10000000
00000000
00000000
00100000
00000000
00000000
01000000
00000000
00000000
,
00001000
00010000
00100000
00010000
00000010
00010000
00100000
10000000
,
01000000
00100000
00001000
01001000
00000000
01000000
00100000
00010000
,
00001000
00000010
00001000
00100000
00001000
00000010
00000001
00001000
,
00000100
00000010
00001000
00011000
00000000
00010000
01000000
10000000
,
00010000
00100000
10000000
00100000
00010000
01000000
00001000
00000100
,
00001000
01000000
00001000
00011000
00000000
00010000
00100000
00001000
,
00010000
00000100
00000010
00000100
00010000
01000000
00010000
00000100
,
00000010
00001000
00010000
00010100
00000000
00000100
00000010
00000001
,
00000100
00000000
00000001
00001000
00000010
00000000
00010000
00000000
00000100
00000000
00000010
00000000
00000001
00000000
00000100
00000000
,
00001000
00010000
00001000
00101000
00100000
10000000
00100000
00010000
,
10000000
01000000
00100000
00000000
00001000
00000000
00010000
00000000
01000000
00000000
00100000
00000000
00001000
00000000
00010000
00000000
,
00000010
00000100
00000001
00000011
00000010
00000100
00010000
00001000
,
01000000
00100000
10000000
00000000
01000000
00000000
00010000
00000000
00001000
00000000
00000100
00000000
00000001
00000000
00000010
00000000
,
00000100
00000000
00001000
00000000
00000001
00000000
00000100
00000000
00000001
00001000
00000001
00000000
00001000
00000001
00000100
00000000
,
00000010
00001000
00000100
00000000
00000010
00000000
00000010
00000000
00000100
00010000
00000100
00000000
00010000
00001000
01000000
00000000
,
00100000
00010000
00001000
00000000
01000000
00000000
01000000
00000000
00000000
00000000
00000000
00000000
10010000
00000000
00000000
00000000
;

//---------------dance-double - ----------------
#NOTES:
     dance-double:
     :
     Beginner:
     1:
     0.228,0.377,0.104,0.000,0.000:
00000000
00000000
00000000
00000000
,
00000000
00000000
00000000
00000000
,
00000000
00000000
00000000
00000000
,
00000000
00000000
00000000
00000000
,
00000000
00000000
00000000
00000000
,
00000001
00000001
00000001
00000000
,
00000000
00000000
00000000
00000000
,
00001000
00001000
00001000
00000000
,
00000000
00000000
00000000
00000000
,
00000100
00000100
00000100
00000000
,
00010000
00000000
00001000
00000000
,
01000000
01000000
01000000
00000000
,
00000000
00000000
00100000
00100000
,
00100000
00100000
00100000
00000000
,
00000000
00000000
00000000
00000000
,
10000000
10000000
10000000
00000000
,
00000000
00000000
00000000
00000000
,
01000000
01000000
01000000
00000000
,
00010000
00000000
00001000
00000000
,
00000100
00000100
00000100
00000000
,
00000000
00000001
00000000
00000010
,
00000000
00000100
00000000
00001000
,
00000000
00000001
00000000
00000010
,
00000000
00000100
00000000
00001000
,
00000000
00000001
00000000
00000100
,
00000000
00001000
00000000
00010000
,
00000000
01000000
00000000
10000000
,
00000000
00100000
00100000
00100000
,
00000000
01000000
00000000
01000000
,
00000000
00010000
00000000
10000000
,
00000000
00010000
00000000
10000000
,
00000000
01000000
00000000
01000000
,
00000000
00010000
00000000
00001000
,
00000000
00010000
00000000
00001000
,
00000000
00000100
00000000
00000100
,
00000000
00000001
00000010
00000000
,
00000010
00000000
00000000
00000000
,
00000000
00000000
00000000
00000000
,
00001000
00000000
00000000
00000000
,
00000000
00000000
00000000
00000000
,
00011000
00000000
00000000
00000000
,
00011000
00000000
00000000
00000000
,
00010000
00000000
01000000
00000000
,
10010000
00000000
10010000
00000000
,
00000000
00000000
00000000
00000000
,
01000000
01000000
01000000
01000000
,
00000000
00000000
00000000
00000000
,
00010000
00010000
00010000
00000000
,
00000000
00000000
00000000
00001000
,
00001000
00001000
00001000
00000000
,
00000000
00000000
00000000
00000100
,
00000100
00000100
00000000
00000000
,
00000000
00000000
00000001
00000001
,
00000001
00000001
00000000
00000000
,
00000000
00000000
00001000
00001000
,
00001000
00001000
00000000
00000000
,
00001001
00001001
00000000
00000010
,
00000100
00000010
00000100
00000000
,
00001001
00000000
00000100
00000100
,
00010000
00010000
00001000
00000000
,
00011000
00000000
00010000
00001000
,
00001000
01000000
01000000
00000000
,
00010000
10000000
00010000
00000000
,
10000000
00010000
10000000
00000000
,
01100000
00000000
00000000
10000000
,
10000000
10000000
10000000
00000000
,
00100000
00000000
00010000
00010000
,
00010000
00010000
00010000
00000000
,
00001000
00000000
00000010
00000010
,
00000010
00000010
00000010
00000000
,
00000001
00000001
00000001
00000001
,
00001000
00001000
00001000
00000000
,
00000100
00000100
00000000
00001001
;

//---------------dance-single - ----------------
#NOTES:
     dance-single:
     :
     Challenge:
     1:
     0.902,0.979,0.642,0.207,0.264: // measure 1
0000
0000
0000
0000
,  // measure 2
0000
0000
0000
0000
,  // measure 3
0000
0000
0000
0000
,  // measure 4
0000
0000
0000
0000
,  // measure 5
1000
0100
1000
0000
0001
0000
0101
0000
0000
0000
1010
0000
0000
0000
1100
0000
,  // measure 6
0000
0011
0001
1000
0100
0010
0001
1000
,  // measure 7
0001
0010
0001
0000
1000
0000
1100
0000
0000
0000
0011
0000
0000
0000
0101
0000
,  // measure 8
0000
1010
1000
0001
0100
0001
1000
0010
,  // measure 9
0100
1000
0100
0000
0001
0000
0011
0000
0000
0000
1100
0000
0000
0000
1010
0000
,  // measure 10
0000
0101
0001
1000
0010
1000
0001
0010
,  // measure 11
0100
0001
0100
0000
1000
0000
1010
0000
0000
0000
0101
0000
0000
0000
0011
0000
,  // measure 12
0000
1100
0000
1000
0001
0000
1001
0000
,  // measure 13
1000
0000
0100
0000
1000
0000
0001
0000
0010
0100
1000
0001
0100
0000
0001
0000
,  // measure 14
1000
0000
0010
0000
0100
0000
0010
0000
1000
0100
0010
0001
0200
0000
0000
0000
,  // measure 15
0301
0010
0100
0000
0001
0000
0100
0000
1000
0000
0010
0000
0100
0000
1000
0000
,  // measure 16
0100
0001
0010
0100
1000
0010
0100
0010
,  // measure 17
1000
0100
0010
0000
0001
0000
0100
0000
0010
0000
0100
0000
0001
0000
1000
0000
,  // measure 18
0010
0100
0001
1000
0100
1000
0010
0100
,  // measure 19
0001
1000
0010
0000
0100
0000
0110
0000
0000
0000
1001
0000
0000
0000
0101
0000
,  // measure 20
0000
1100
0000
1000
0001
0000
1001
0000
,  // measure 21
1000
0100
1000
0010
0100
1000
0100
0001
,  // measure 22
0010
0100
1000
0001
0100
0001
0010
0100
,  // measure 23
0001
0100
1000
0010
0100
0001
1000
0100
,  // measure 24
0010
0100
1000
0001
0100
0010
0100
0001
,  // measure 25
1000
0010
1000
0100
0010
1000
0010
0001
,  // measure 26
0100
0010
1000
0001
0010
0001
0100
0010
,  // measure 27
0001
0010
1000
0100
0010
0001
1000
0010
,  // measure 28
0100
0010
1000
0001
2002
3003
1001
0100
,  // measure 29
0010
0001
1000
0010
1000
0001
0100
0010
,  // measure 30
1000
0100
0010
0001
1000
0100
1000
0001
,  // measure 31
1000
0001
0010
0100
1000
0001
0010
0001
,  // measure 32
1000
0001
0100
0010
2010
0000
3001
1001
,  // measure 33
0000
0000
0100
0010
0012
0000
1003
1001
,  // measure 34
0000
0000
0010
0100
1002
0000
0103
0110
,  // measure 35
0000
0000
0001
1000
0100
0100
0010
0010
,  // measure 36
0001
1000
0200
0000
0320
0000
0000
0000
,  // measure 37
0031
0000
1000
0000
0100
0000
1000
0000
0010
0100
0001
0010
0100
0000
1000
0000
,  // measure 38
0001
0000
1000
0000
0100
0000
0010
0000
0001
1000
0010
0100
0010
0000
1000
0000
,  // measure 39
0100
0000
0010
0000
0100
0000
1000
0000
0001
1000
0010
0100
0001
0000
0010
0000
,  // measure 40
0100
1000
0100
1000
0001
0000
0100
0000
0001
0010
0001
0010
0100
0000
1000
0000
,  // measure 41
1001
0000
0000
0000
0010
0000
0100
0000
0001
0010
0001
0100
0001
0010
0100
1000
,  // measure 42
0100
0000
0000
0000
1000
0000
0001
0000
1000
0001
1000
0100
1000
0010
0100
0001
,  // measure 43
0010
0000
0000
0000
0100
0000
0010
0000
0001
1000
0001
1000
0010
0100
0001
0010
,  // measure 44
0100
0010
1001
0000
,  // measure 45
0011
0001
1000
1100
0100
0110
0010
1010
,  // measure 46
0010
0011
0001
1001
1000
0100
0100
0100
,  // measure 47
1001
0000
1001
0000
0000
0020
0031
0020
,  // measure 48
0130
0020
1030
0010
0100
0100
1001
0001
,  // measure 49
0100
0110
0010
0011
0010
1010
1000
1001
,  // measure 50
0001
0101
0100
0010
0010
0010
1001
0000
,  // measure 51
1001
0000
0000
0200
1300
0200
0310
0200
,  // measure 52
0301
0100
0010
0010
1001
0000
1000
1100
,  // measure 53
0000
0011
0000
1001
0000
0101
0000
1010
,  // measure 54
0000
0110
1000
0001
0110
0000
1001
0000
,  // measure 55
0000
1000
0000
0001
0000
1100
0000
0101
,  // measure 56
0000
0000
0000
1001
0000
0000
0000
0000
0000
1001
0000
0000
1000
0000
0100
0000
0010
0000
0001
0000
0100
0000
0010
0000
,  // measure 57
1000
0000
0100
0000
0010
0000
0001
0000
0100
0000
0010
0000
1000
0000
0000
0100
0000
0000
0010
0000
0000
0100
0000
0000
,  // measure 58
0001
0010
0100
1000
0010
0001
0100
0010
,  // measure 59
0001
2000
0010
3100
0000
0001
0100
1000
,  // measure 60
0010
0100
1000
0010
0001
0100
0001
0010
,  // measure 61
1000
0020
0100
0031
0000
1000
0100
1000
,  // measure 62
0001
0010
1000
0001
0100
0001
1000
0010
,  // measure 63
0001
0200
0010
1300
0000
0001
0010
1000
,  // measure 64
0100
0001
0010
0100
1000
0001
0010
0001
,  // measure 65
1000
0002
0010
0103
0000
0010
1000
0001
,  // measure 66
0010
0001
0100
0010
1000
0001
0010
1000
,  // measure 67
0100
2000
0010
3001
0100
0010
0001
0100
,  // measure 68
1000
0010
0100
1000
0010
0001
0010
0100
,  // measure 69
1000
0002
0100
1003
0010
0100
0001
1000
,  // measure 70
0100
1000
0010
0001
1000
0100
0001
0010
,  // measure 71
0100
0000
1000
0000
0001
0000
0100
0000
0001
1000
0001
0010
0100
0010
0001
0000
,  // measure 72
1000
0100
0010
0001
0100
0000
0100
0000
0010
1000
0010
0100
0001
0010
0100
1000
,  // measure 73
0001
0010
0100
0000
0010
0000
0010
0000
0000
0000
0000
0000
1001
0000
0000
0000
;

//---------------dance-double - Challenge Edit----------------
#NOTES:
     dance-double:
     Challenge Edit:
     Edit:
     10:
     0.846,0.842,0.569,0.155,0.181:
00000000
00000000
00000000
00000000
,
00000000
00000000
00000000
00000000
,
00000010
00000001
00000010
00000100
00010000
00000010
00000100
00000001
,
00000000
00000001
00000000
00000100
00000010
00010000
00100000
10000000
,
01000000
00100000
00001000
01000000
00100000
10000000
01000000
00010000
,
00000000
00010000
00000000
00001000
00010000
01000000
00100000
00001000
,
00010000
00100000
10000000
01000000
00010000
00001000
00010000
00000100
,
00000000
00000100
00000000
00000010
00000001
00000100
00001000
00000100
,
00000010
00010000
00001000
00011000
00000000
10010000
00000000
01100000
,
00000000
10010000
00000000
00100000
01000000
00000000
10010000
00000000
,
01000000
00000000
00100000
00000000
00001000
00000000
00010000
00000000
01000000
10000000
01000000
10000000
00100000
00000000
01000000
00000000
,
00001000
00000000
00010000
00000000
00000100
00000000
00000010
00000000
00000001
00001000
00000001
00001000
00000100
00000000
00000000
00000000
,
00000010
00000001
00000100
00001000
00010000
00000100
00010000
00001000
,
01000000
00100000
10000000
01000000
00100000
00001000
00010000
00100000
,
10000000
00010000
00100000
01000000
10000000
00100000
01001000
00010000
,
00000100
00000010
00000001
00000100
00001000
00000100
00000010
00010000
,
00001000
00000010
00001000
00011000
00000000
00001001
00000000
00000110
,
00000000
00001001
00000000
00000010
00000100
00000000
00001001
00000000
,
00000100
00000010
00000001
00000100
00001000
00010000
00000100
00001000
,
00000000
00000001
00000010
00000100
00010000
00000100
00000010
00000001
,
00000000
00000100
00000010
00010000
00001000
00100000
01000000
10000000
,
00000000
00100000
10000000
01000000
00001000
01000000
10000000
00100000
,
01000000
00001000
00010000
00100000
10000000
01000000
00000000
00100000
,
00001000
00010000
00001000
00000010
00000001
00000100
00000000
00001000
,
00010000
00001000
00000100
00000010
00001000
00000100
00000000
00000001
,
00000100
00000010
00000001
00000100
00002002
00003003
00001001
00000100
,
00000010
00000001
00000100
00000010
00010000
00001000
01000000
00100000
,
00010000
00001000
00100000
01000000
10000000
01000000
00100000
00010000
,
01000000
00001000
00010000
00000100
00010000
00001000
00100000
00001000
,
00010000
00000010
00000001
00000100
00000210
00000000
00000310
00010010
,
00000000
00000000
00010000
00001000
01002000
00000000
01003000
01100000
,
00000000
00000000
00100000
00010000
00021000
00000000
00031000
01001000
,
00000000
00000000
00100000
10000000
01000000
00010000
00001000
00000100
,
00000001
00000010
00000200
00000000
00000320
00000000
00000000
00000000
,
00000031
00000000
00000100
00000000
00000001
00000000
00000010
00000000
00001000
00010000
00001000
00000000
00100000
00000000
00000000
00000000
,
01000000
00000000
10000000
00000000
00100000
00000000
01000000
00000000
00001000
00010000
00001000
00000000
00100000
00000000
00000000
00000000
,
01000000
00000000
10000000
00000000
00100000
00000000
00010000
00000000
00001000
00000010
00001000
00000000
00010000
00000000
00000000
00000000
,
00001000
00010000
00001000
00000000
01000000
00000000
00001000
00000000
00010000
00001000
00010000
00000000
00000100
00000000
00000010
00000000
,
00000001
00000000
00000000
00000000
00001000
00000000
00000001
00000000
00000100
00000001
00000100
00000000
00001000
00010000
00001000
00010000
,
00000100
00000000
00000000
00000000
00000010
00000000
00001000
00000000
00010000
00001000
00010000
00000000
01000000
10000000
01000000
10000000
,
00100000
00000000
00000000
00000000
01000000
00000000
00010000
00000000
00100000
00001000
00100000
00000000
00001000
00010000
00001000
00010000
,
00000010
00000100
00001001
00000000
,
00001001
00000001
00000101
00000110
00000000
00010010
00000000
00011000
,
00001000
00011000
00010000
00011000
00001000
00010000
01000000
01000000
,
01100000
00000000
10010000
00000000
00000000
20000000
01000000
32000000
,
00100000
03200000
00001000
00302000
00010000
00013000
00011000
00001000
,
00001100
00000101
00000000
00000110
00000000
00001001
00000001
00001001
,
00001000
00001001
00000001
00000100
00001000
00001000
00011000
00000000
,
10010000
00000000
00000000
00020000
01000000
02030000
00100000
03200000
,
10000000
20300000
00010000
30010000
10010000
00000000
11000000
01100000
,
00000000
00101000
00000000
00011000
00000000
00010010
00000000
00000110
,
00000000
00000010
00001000
00000100
00001100
00000000
00000101
00000000
,
00000000
00000010
00000000
00000001
00000000
00000100
00000000
00001000
,
00000000
00000000
00000000
00011000
00000000
00000000
00000000
00000000
00000000
00010000
00000000
00001000
00000000
00100000
00000000
00010000
00000000
01000000
00000000
00001000
00000000
00010000
00000000
00000010
,
00000000
00001000
00000000
00000100
00000000
00010000
00000000
00001000
00000000
00100000
00000000
00000000
01000000
00000000
00000000
10000000
00000000
00000000
00100000
00000000
00000000
01000000
00000000
00000000
,
00001000
00010000
00100000
00010000
00000010
00010000
00100000
10000000
,
01000000
00100000
00001000
01001000
00000000
01000000
00100000
00010000
,
00001000
00000010
00001000
00100000
00001000
00000010
00000001
00001000
,
00000100
00000010
00001000
00011000
00000000
00010000
01000000
10000000
,
00010000
00100000
10000000
00100000
00010000
01000000
00001000
00000100
,
00001000
01000000
00001000
00011000
00000000
00010000
00100000
00001000
,
00010000
00000100
00000010
00000100
00010000
01000000
00010000
00000100
,
00000010
00001000
00010000
00010100
00000000
00000100
00000010
00000001
,
00000100
00000000
00000001
00001000
00000010
00000000
00010000
00000000
00000100
00000000
00000010
00000000
00000001
00000000
00000100
00000000
,
00001000
00010000
00001000
00101000
00100000
10000000
00100000
00010000
,
10000000
01000000
00100000
00000000
00001000
00000000
00010000
00000000
01000000
00000000
00100000
00000000
00001000
00000000
00010000
00000000
,
00000010
00000100
00000001
00000011
00000010
00000100
00010000
00001000
,
01000000
00100000
10000000
00000000
01000000
00000000
00010000
00000000
00001000
00000000
00000100
00000000
00000001
00000000
00000010
00000000
,
00000100
00000000
00001000
00000000
00000001
00000000
00000100
00000000
00000001
00001000
00000001
00000000
00001000
00000001
00000100
00000000
,
00000010
00001000
00000100
00000000
00000010
00000000
00000010
00000000
00000100
00010000
00000100
00000000
00010000
00001000
01000000
00000000
,
00100000
00010000
00001000
00000000
01000000
00000000
01000000
00000000
00000000
00000000
00000000
00000000
10010000
00000000
00000000
00000000
;

//---------------dance-double - Beginner Edit----------------
#NOTES:
     dance-double:
     Beginner Edit:
     Edit:
     1:
     0.228,0.366,0.104,0.000,0.000:
00000000
00000000
00000000
00000000
,
00000000
00000000
00000000
00000000
,
00000000
00000000
00000000
00000000
,
00000001
00000001
00000001
00000000
,
00000000
00000000
00000000
00000000
,
00001000
00001000
00001000
00000000
,
00000000
00000000
00000000
00000000
,
00000100
00000100
00000100
00000000
,
00010000
00000000
00001000
00000000
,
01000000
01000000
01000000
00000000
,
00000000
00000000
00100000
00100000
,
00100000
00100000
00100000
00000000
,
00000000
00000000
00000000
00000000
,
10000000
10000000
10000000
00000000
,
00000000
00000000
00000000
00000000
,
01000000
01000000
01000000
00000000
,
00010000
00000000
00001000
00000000
,
00000100
00000100
00000100
00000000
,
00000000
00000001
00000000
00000010
,
00000000
00000100
00000000
00001000
,
00000000
00000001
00000000
00000010
,
00000000
00000100
00000000
00001000
,
00000000
00000001
00000000
00000100
,
00000000
00001000
00000000
00010000
,
00000000
01000000
00000000
10000000
,
00000000
00100000
00100000
00100000
,
00000000
01000000
00000000
01000000
,
00000000
00010000
00000000
10000000
,
00000000
00010000
00000000
10000000
,
00000000
01000000
00000000
01000000
,
00000000
00010000
00000000
00001000
,
00000000
00010000
00000000
00001000
,
00000000
00000100
00000000
00000100
,
00000000
00000001
00000010
00000000
,
00000010
00000000
00000000
00000000
,
00000000
00000000
00000000
00000000
,
00001000
00000000
00000000
00000000
,
00000000
00000000
00000000
00000000
,
00011000
00000000
00000000
00000000
,
00011000
00000000
00000000
00000000
,
00010000
00000000
01000000
00000000
,
10010000
00000000
10010000
00000000
,
00000000
00000000
00000000
00000000
,
01000000
01000000
01000000
01000000
,
00000000
00000000
00000000
00000000
,
00010000
00010000
00010000
00000000
,
00000000
00000000
00000000
00001000
,
00001000
00001000
00001000
00000000
,
00000000
00000000
00000000
00000100
,
00000100
00000100
00000000
00000000
,
00000000
00000000
00000001
00000001
,
00000001
00000001
00000000
00000000
,
00000000
00000000
00001000
00001000
,
00001000
00001000
00000000
00000000
,
00001001
00001001
00000000
00000010
,
00000100
00000010
00000100
00000000
,
00001001
00000000
00000100
00000100
,
00010000
00010000
00001000
00000000
,
00011000
00000000
00010000
00001000
,
00001000
01000000
01000000
00000000
,
00010000
10000000
00010000
00000000
,
10000000
00010000
10000000
00000000
,
01100000
00000000
00000000
10000000
,
10000000
10000000
10000000
00000000
,
00100000
00000000
00010000
00010000
,
00010000
00010000
00010000
00000000
,
00001000
00000000
00000010
00000010
,
00000010
00000010
00000010
00000000
,
00000001
00000001
00000001
00000001
,
00001000
00001000
00001000
00000000
,
00000100
00000100
00000000
00001001
;
