#TITLE:Fascination;
#SUBTITLE:-eternal love mix- (STREAM Special);
#ARTIST:2MB;
#TITLETRANSLIT:;
#SUBTITLETRANSLIT:;
#ARTISTTRANSLIT:;
#CREDIT:;
#BANNER:Fascination -eternal love mix- (STREAM Special).png;
#BACKGROUND:Fascination -eternal love mix- (STREAM Special)-bg.JPG;
#LYRICSPATH:;
#CDTITLE:./CDTITLES/Dance Dance Revolution SuperNOVA.png;
#MUSIC:Fascination -eternal love mix- (STREAM Special).mp3;
#OFFSET:-0.067;
#SAMPLESTART:9.780;
#SAMPLELENGTH:15.000;
#SELECTABLE:YES;
#BPMS:0.000=100.000,15.000=200.000,31.000=399.999,95.000=200.000,123.000=399.998,131.000=200.000,157.000=399.998,349.000=200.000,381.000=399.998,477.000=100.000;
#STOPS:15.000=0.600
,132.000=0.150
,133.500=0.150
,134.500=0.150
,136.000=0.150
,137.000=0.150
,138.500=0.150
,140.000=0.150
,144.500=0.150
,146.000=0.150
,147.000=0.150
,148.500=0.150
,149.500=0.150
,477.000=2.250
;
#BGCHANGES:;

//---------------dance-single - ----------------
#NOTES:
     dance-single:
     :
     Challenge:
     10:
     1.000,1.000,0.192,0.142,0.764: // measure 1
0000
0000
0000
0000
,  // measure 2
1000
0001
1000
0001
1000
0001
1000
0001
1000
0001
1000
0001
1000
0001
1000
0001
1000
0000
0000
0000
0000
0000
0000
0000
0110
0000
0000
0000
0000
0000
0000
0000
,  // measure 3
0010
0100
0010
0100
0010
0100
0010
0100
0010
0100
0010
0100
0010
0100
0010
0100
0010
0000
0000
0000
0000
0000
0000
0000
0110
0000
0000
0000
0000
0000
0000
0000
,  // measure 4
0001
1000
0001
1000
0001
1000
0001
1000
0001
1000
0001
1000
0001
1000
0001
1000
0001
1000
0000
0000
0000
0000
0000
0000
1001
0000
1000
0000
0100
0000
1000
0000
,  // measure 5
0100
1000
0100
1000
0100
1000
0100
1000
0100
1000
0100
1000
0100
1000
0000
0000
,  // measure 6
1000
0010
0100
0001
0010
1000
0010
0001
,  // measure 7
1000
0000
0000
0000
1000
0100
0000
0000
0000
0000
0000
0000
0100
0010
0000
0000
0000
0000
0000
0000
0010
0001
0000
0000
0000
0000
0000
0000
0001
0000
0000
0000
,  // measure 8
0001
0100
0000
0000
0000
0000
0000
0000
0100
0010
0000
0000
0000
0000
0000
0000
0010
1000
0000
0000
0000
0000
0000
0000
1000
0000
0000
0000
0010
0000
0000
0000
,  // measure 9
1000
0010
1000
0010
1000
0010
1000
0010
,  // measure 10
1000
0010
1000
0010
1000
0010
1000
0000
,  // measure 11
0010
0100
1000
0010
,  // measure 12
0100
0001
1000
0100
,  // measure 13
0001
0000
0000
0000
0100
0000
0000
0000
1000
0001
0000
0000
0000
0000
0000
0000
,  // measure 14
0001
0100
0000
0000
0000
0000
0000
0000
0100
0010
0000
0000
0000
0000
0000
0000
,  // measure 15
0010
0000
0000
0000
0010
1000
0000
0000
0000
0000
0000
0000
1000
0010
0000
0000
,  // measure 16
0000
0000
0000
0000
0010
1000
0000
0000
0000
0000
0000
0000
1000
0000
0010
0000
,  // measure 17
1000
0010
1000
0010
1000
0010
1000
0010
,  // measure 18
1000
0010
1000
0010
1000
0010
1000
0000
,  // measure 19
0001
0010
0100
1000
,  // measure 20
0100
0010
0001
0010
,  // measure 21
0100
0000
0000
0000
1000
0000
0000
0000
1000
0010
0000
0000
0000
0000
0000
0000
,  // measure 22
0100
0001
0000
0000
0000
0000
0000
0000
1000
0010
0000
0000
0000
0000
0000
0000
,  // measure 23
1000
0000
0000
0000
0001
0010
0000
0000
0000
0000
0000
0000
0100
1000
0000
0000
,  // measure 24
0000
0000
0000
0000
0010
0001
0000
0000
0000
0000
0000
0000
1000
0001
1000
0001
,  // measure 25
1000
0001
1000
0001
1000
0001
1000
0001
1000
0001
1000
0001
1000
0000
0001
0000
,  // measure 26
1000
0100
0001
0100
1000
0010
0100
0010
,  // measure 27
0001
0000
0000
0000
0001
1000
0000
0000
0000
0000
0000
0000
1000
0100
0000
0000
0000
0000
0000
0000
0100
0001
0000
0000
0000
0000
0000
0000
0001
0000
0000
0000
,  // measure 28
0001
0100
0000
0000
0000
0000
0000
0000
0100
1000
0000
0000
0000
0000
0000
0000
1000
0100
0000
0000
0000
0000
0000
0000
0010
0000
0100
0000
0010
0000
0100
0000
,  // measure 29
0010
0100
0010
0100
0010
0100
0010
0100
0010
0100
0010
0100
0010
0000
0001
0000
,  // measure 30
1000
0010
0100
0001
0010
1000
0010
0001
,  // measure 31
0001
0000
0000
0000
1000
0001
0000
0000
0000
0000
0000
0000
0001
0010
0000
0000
0000
0000
0000
0000
0010
0100
0000
0000
0000
0000
0000
0000
0000
0000
0000
0000
,  // measure 32
1000
0000
0000
0000
0100
0001
0000
0000
0000
0000
0000
0000
0010
1000
0000
0000
,  // measure 33
0000
0000
0000
0000
0100
0001
0000
0000
0000
0000
0000
0000
0010
0000
0100
0000
,  // measure 34
2001
0000
0001
0000
3001
0000
2100
0000
0100
0000
0200
3000
0010
0000
0301
0000
,  // measure 35
1002
0000
0100
0000
0200
0003
0010
0000
0310
0000
0012
0000
0100
0000
0103
0000
,  // measure 36
2100
0100
3100
0001
0100
1000
0100
0010
,  // measure 37
0001
0000
2010
0000
0100
0000
3100
0000
1020
0000
0100
0000
0200
0030
0010
0000
,  // measure 38
0310
0000
0120
0000
1000
0000
2000
0030
0001
0000
0001
0000
0100
0000
3100
0000
,  // measure 39
1000
0100
0010
0100
1000
0001
0010
0100
,  // measure 40
0010
0001
1001
0000
0000
0000
1000
0000
,  // measure 41
0001
1000
0001
0100
,  // measure 42
0010
0100
0010
1000
,  // measure 43
0010
1000
0001
0100
,  // measure 44
0001
0000
0100
0000
0001
0000
0001
1000
,  // measure 45
0000
0000
1000
0001
0000
0000
0001
0100
,  // measure 46
0000
0000
0100
0010
0000
0000
0010
1000
,  // measure 47
0000
0000
1000
0001
0000
0000
1000
0000
,  // measure 48
0010
0100
0001
0010
,  // measure 49
1000
0010
0001
1000
,  // measure 50
0100
0001
0100
1000
,  // measure 51
0100
0000
0100
0010
0000
0000
0010
0001
,  // measure 52
0000
0000
0001
0100
0000
0000
0100
0010
,  // measure 53
0000
0000
0010
1000
0000
0000
1000
0000
,  // measure 54
0010
0100
0001
1000
,  // measure 55
0100
0010
0001
0100
,  // measure 56
0010
0000
1000
0000
0010
0000
0100
0010
,  // measure 57
0000
0000
0010
0100
0000
0000
0100
1000
,  // measure 58
0000
0000
1000
0100
0000
0000
0100
0001
,  // measure 59
0000
0000
0001
0010
0000
0000
0001
0000
,  // measure 60
0100
1000
0100
0001
,  // measure 61
1000
0000
0100
1000
0000
0000
0010
0001
,  // measure 62
0000
0000
0100
0001
0000
0000
1000
0000
,  // measure 63
0010
0100
0001
1000
,  // measure 64
0001
0000
0100
0010
0000
0000
0010
0100
,  // measure 65
0000
1000
0100
0001
,  // measure 66
0100
1000
0100
0001
,  // measure 67
0100
0000
1000
0001
0000
0000
0001
1000
,  // measure 68
0000
1000
0010
0100
,  // measure 69
0001
0000
1000
0100
0000
0000
0100
0001
,  // measure 70
0000
0000
0001
0100
0000
0000
0100
1000
,  // measure 71
0000
1000
0001
1000
,  // measure 72
0010
0000
0000
0000
1000
0001
0000
0000
0000
0000
0000
0000
1000
0010
0000
0000
,  // measure 73
0000
0000
0000
0000
1000
0100
0000
0000
0000
0000
0000
0000
1000
0001
0000
0000
,  // measure 74
0000
0000
0000
0000
1000
0010
0000
0000
0000
0000
0000
0000
1000
0100
0000
0000
,  // measure 75
0000
0010
0100
0010
,  // measure 76
0001
0000
0000
0000
1000
0001
0000
0000
0000
0000
0000
0000
0001
1000
0000
0000
,  // measure 77
0000
0000
0000
0000
0100
0000
0000
0000
0010
0000
0000
0000
1000
0010
0000
0000
,  // measure 78
0000
0000
0000
0000
0100
0001
0000
0000
0000
0000
0000
0000
0100
0000
0000
0000
,  // measure 79
1000
0000
0000
0000
0100
0010
0000
0000
0000
0000
0000
0000
0100
0001
0000
0000
,  // measure 80
0000
0000
0000
0000
0100
1000
0000
0000
0000
0000
0000
0000
0100
0001
0000
0000
,  // measure 81
0000
0000
0000
0000
0100
0010
0000
0000
0000
0000
0000
0000
0010
0100
0000
0000
,  // measure 82
0000
0000
0000
0000
0010
0001
0000
0000
0000
0000
0000
0000
0010
1000
0000
0000
,  // measure 83
0000
0000
0000
0000
0010
0001
0000
0000
0000
0000
0000
0000
0010
0100
0000
0000
,  // measure 84
0000
0000
0000
0000
1000
0001
0000
0000
0000
0000
0000
0000
1000
0010
0000
0000
,  // measure 85
0000
0000
0000
0000
1000
0100
0000
0000
0000
0000
0000
0000
0001
0010
0000
0000
,  // measure 86
0000
0000
0000
0000
0001
1000
0000
0000
0000
0000
0000
0000
0001
0100
0000
0000
,  // measure 87
0000
0000
0000
0000
1000
0001
0000
0000
0000
0000
0000
0000
0001
1000
0000
0000
,  // measure 88
0000
0000
0000
0000
1000
0000
0001
0000
0100
0010
0100
0010
0100
0000
0001
0000
,  // measure 89
1000
0010
1000
0010
1000
0000
0100
0000
0010
0001
0010
0001
0010
0000
0001
0000
,  // measure 90
0100
0010
0100
0010
0100
0000
0001
0000
1000
0100
1000
0100
1000
0000
0010
0000
,  // measure 91
0100
0001
0100
0001
0100
0000
0010
0000
1000
0001
1000
0001
1000
0000
0100
0000
,  // measure 92
0010
0001
0010
0001
0010
0000
0001
0000
1000
0100
1000
0001
1000
0000
0010
0000
,  // measure 93
0100
0010
0001
0010
0100
0000
0001
0000
0010
0100
0010
0001
0010
0000
0100
0000
,  // measure 94
1000
0100
1000
0010
1000
0000
0001
0000
0100
0010
0100
1000
0100
0000
0010
0000
,  // measure 95
1000
0001
1000
0010
1000
0000
0001
0000
0010
1000
0010
0100
0010
0000
0001
0000
,  // measure 96
0100
0010
1000
0000
1001
0000
0000
0000
1000
0000
0000
0000
0001
0000
0010
0000
,  // measure 97
0001
0010
0001
0000
0100
0000
0010
1000
,  // measure 98
0010
1000
0010
0000
0100
0000
0001
0010
,  // measure 99
0001
0010
0001
0000
0010
0000
0100
0000
,  // measure 100
1000
0100
0010
0001
,  // measure 101
1000
0001
0000
1100
,  // measure 102
0011
0000
1000
0100
,  // measure 103
0010
0001
0010
0100
,  // measure 104
1000
0001
0000
1010
,  // measure 105
0101
0000
1000
0100
,  // measure 106
0010
0001
0010
0100
,  // measure 107
1000
0001
0000
1100
,  // measure 108
0001
0000
0011
0000
1000
0100
1000
0001
,  // measure 109
0010
0001
1000
0100
0010
0100
1000
0001
,  // measure 110
0010
0100
0010
0001
1000
0100
0010
0001
,  // measure 111
0010
0100
1000
0001
0010
0100
1000
0100
,  // measure 112
0010
0001
1000
0010
1000
0001
0100
0001
,  // measure 113
1000
0010
0100
0010
1000
0001
0100
0010
,  // measure 114
0100
0001
1000
0010
0100
0001
0100
0010
,  // measure 115
1000
0001
0100
0010
1000
0010
0100
0001
,  // measure 116
1000
0010
0100
0001
1000
0100
0010
0001
,  // measure 117
1000
0010
0100
0001
0010
0100
1000
0001
,  // measure 118
0100
0010
1000
0001
0010
0100
1000
0001
,  // measure 119
0100
0010
1000
0100
0001
0100
1000
0010
,  // measure 120
0001
0020
2000
3030
0000
0000
0000
0000
;

//---------------dance-single - Air...Special? o_O----------------
#NOTES:
     dance-single:
     Air...Special? o_O:
     Medium:
     9:
     1.000,1.000,1.000,0.152,0.035:
0000
0000
0000
0000
,
0000
0000
0000
0000
,
1100
0000
0110
0000
0011
0000
0110
0000
1100
0000
1001
0000
0001
0010
0100
0000
,
1100
0011
1100
0011
1100
0021
0130
0000
,
0101
1010
0101
1010
,
1100
0000
0101
0000
1100
0000
0101
1000
,
0100
1000
0100
1000
0100
1000
0001
0010
,
0001
0010
0001
0010
0001
0010
1001
0000
,
0010
1000
0100
1001
,
0001
0100
0001
1001
,
0100
0010
1000
1001
,
0100
0010
0001
1001
,
1000
0100
0010
1001
,
0010
0100
0001
1001
,
0100
0010
1000
1001
,
0100
1000
0010
1001
,
0010
0001
0100
1001
,
1000
0100
0010
1001
,
0100
0010
0001
1001
,
0001
1000
0010
0110
,
0001
1000
0001
0110
,
1000
0001
1000
1001
,
0010
0100
0010
1001
,
0100
0010
0100
1001
,
0101
0000
1100
0000
1001
0010
0100
0010
,
1001
0000
1100
0000
0110
1000
0001
1000
,
0110
0000
1010
0000
1001
0010
0100
1001
,
0100
0010
1001
0100
0010
1001
0010
0000
,
0110
1000
0001
1000
0110
0000
0101
0000
,
1001
0100
1000
0100
1001
0000
1010
0000
,
0110
1000
0001
1000
0110
0000
1000
0000
,
0001
0100
0001
0000
1000
0010
1000
0000
,
0001
0100
0001
0000
1000
0010
1000
0100
,
1001
1000
0100
1001
1000
1001
0010
1000
,
1001
0010
1001
0001
0010
1001
0001
1000
,
1010
0001
0010
1100
0100
0010
1001
0100
,
0010
0110
0001
1000
1100
0010
1010
0010
,
0100
1100
0010
1100
0010
0100
0010
0100
,
0010
0000
0100
0000
0010
0000
0100
0000
1000
0001
1000
0001
1000
0001
1000
0001
,
1000
0001
1000
0001
1000
0000
0001
0000
0000
0000
0000
0000
0001
0000
1000
0000
,
0000
0000
1000
0010
0000
0000
0010
0100
,
0000
0000
0100
0001
0000
0000
0001
1000
,
0000
0000
1000
0100
0000
0000
0100
0000
,
0010
0000
1001
0000
1000
0000
1000
0100
,
0000
0000
0100
0010
0000
0000
0010
0001
,
0000
0000
0001
1000
0000
0000
1000
0010
,
0000
0000
0010
0100
0000
0000
0100
0001
,
0000
0000
0001
1000
0000
0000
1000
0100
,
0000
0000
0100
0010
0000
0000
0001
0000
,
1000
0001
0100
1001
,
0100
0000
0100
0010
0000
0000
0010
0100
,
0000
0000
0100
0001
0000
0000
0001
1000
,
0000
0000
1000
0100
0000
0000
0100
1000
,
0000
0000
1000
0001
0000
0000
0001
0100
,
0000
0001
1000
0001
,
1000
0000
0110
0000
0100
0000
0001
0100
,
0000
0000
0100
0010
0000
0000
0010
1000
,
0000
0000
1000
0001
0000
0000
0001
0100
,
0000
0000
0100
0010
0000
0000
0010
1000
,
0000
0000
1000
0001
0000
0000
0001
0010
,
0000
0000
0010
0100
0000
0000
0100
1000
,
0000
0000
1000
0001
0000
0000
0001
0000
,
1000
0001
1000
0110
,
1000
0000
0001
0100
0000
0000
0100
0001
,
0000
0000
1000
0010
1000
0000
0001
0100
,
0001
1000
0001
1001
,
0100
0000
1000
0001
0000
0000
0001
1000
,
0000
0000
0010
1000
0010
0000
1000
0100
,
1000
0000
0001
0100
0001
0000
0010
0001
,
0010
0000
0010
0001
0000
0000
0001
1000
,
0000
0001
1000
0001
,
0100
0001
1000
0001
,
0100
1001
0000
1000
,
0010
1000
0100
1010
,
0000
0110
0001
0010
,
0100
1001
0010
1000
,
0010
1001
1000
0100
,
1000
0110
0001
1000
,
0001
0110
1000
0010
,
0100
1001
0100
0010
,
0100
1001
0100
0010
,
1000
0110
1000
0100
,
0010
1001
0100
0001
,
1000
0110
0001
1000
,
0010
1001
0100
0010
,
0001
0110
1000
0010
,
0100
1001
0100
1000
,
0100
0000
1002
0000
0100
0000
0010
0010
,
0013
0001
2100
0000
0010
0000
0001
0001
,
3001
1000
0102
0000
0010
0000
1000
1000
,
1003
0001
2010
0000
0001
0000
0100
0100
,
3100
1000
0102
0000
0013
0001
2100
0000
,
3100
0010
0200
0000
1300
0100
2000
0100
,
3100
0010
0002
0010
0013
0001
2000
0100
,
3100
1000
0002
0100
0103
0001
2000
0010
,
3010
0001
1000
0000
0100
0000
1000
0000
,
0100
1000
0100
1000
,
0010
1000
0001
0100
,
0001
0100
0001
0100
,
0001
0010
0100
0010
,
0100
0010
1000
0001
,
1000
0001
1000
0010
,
1000
0010
1000
0001
,
0100
0000
0001
0000
1000
0100
1000
0000
,
0001
0000
0010
0100
0010
0000
0100
0000
,
1000
0100
1000
0000
0010
0000
1000
0001
,
1000
0001
0100
0001
,
0100
0101
0010
1000
,
0010
1000
1010
1000
,
0001
1000
0001
1001
,
0100
0010
0100
0010
,
0110
1000
0010
1000
,
0010
1010
1000
0100
,
1000
0000
1000
0100
1000
0100
1000
0000
,
1000
0100
1001
0001
,
0100
0000
0001
0100
0001
0100
0001
0000
,
1000
0010
1010
0100
,
0001
0000
1000
0010
1000
0010
1000
0000
,
0001
1000
0110
0001
,
1000
0000
2002
3003
0000
0000
0000
0000
;

//---------------dance-single - ----------------
#NOTES:
     dance-single:
     :
     Hard:
     10:
     1.000,1.000,1.000,1.000,1.000:
0000
1000
0001
1000
0001
1000
0001
1000
0001
1000
0001
1000
0001
1000
0001
1000
0001
1000
0000
0000
0000
0000
0000
0000
2002
0000
0000
0000
3003
0000
0000
0000
,
1000
0001
1000
0001
1000
0001
1000
0001
1000
0001
1000
0001
1000
0001
1000
0001
0000
0000
0000
0000
0000
0000
0000
0000
0220
0000
0000
0000
0330
0000
0000
0000
,
1000
0001
1000
0001
1000
0001
1000
0001
1000
0001
1000
0001
1000
0001
1000
0001
1000
0000
0000
0000
0000
0000
0000
0000
0220
0000
0000
0000
0330
0000
0000
0000
,
0001
0000
0000
0000
0000
0000
1000
0000
0000
0000
0000
0000
0001
0000
0000
0000
0000
0000
1000
0000
0000
0000
0000
0000
0001
0000
0000
0000
0000
0000
1000
0000
0000
0000
0000
0000
0001
0000
0000
0000
0000
0000
1000
0000
0000
0000
0000
0000
0001
0000
0000
0000
0000
0000
1000
0000
0000
0000
0000
0000
0001
0000
0000
0000
0000
0000
1000
0000
0000
0000
0000
0000
0001
0000
0000
0000
0000
0000
1000
0000
0000
0000
0000
0000
0001
0000
0000
0000
0000
0000
1000
0000
0000
0000
0000
0000
0002
0000
0000
0000
0000
0000
1000
0000
0000
0000
0000
0000
0000
0000
0000
0000
0000
0000
0000
0000
0000
0000
0000
0000
0000
0000
0000
0000
0000
0000
0000
0000
0000
0000
0000
0000
0000
0000
0000
0000
0000
0000
0000
0000
0000
0000
0000
0000
1000
0000
0000
0000
0000
0000
0000
0000
0003
0000
0000
0000
1000
0000
0000
0000
0000
0000
0000
0000
0000
0000
0000
0000
0100
0000
0000
0000
0000
0000
0000
0000
0000
0000
0000
0000
1000
0000
0000
0000
0000
0000
0000
0000
0000
0000
0000
0000
,
0100
1000
0100
1000
0100
1000
0100
1000
0100
1000
0100
1000
0100
1000
0000
0000
,
1100
0000
0000
0000
0110
0000
0000
0000
0011
0000
0000
0000
0001
0010
0001
0010
,
0001
0010
0001
0010
0001
0010
0001
0010
0001
0010
0001
0010
0001
0000
0000
0000
,
1000
0100
0000
0000
0000
0000
0100
0010
0000
0000
0000
0000
0010
0001
0000
0000
0000
0000
1000
0000
0000
0010
0000
0000
,
1000
0010
1000
0010
1000
0010
1000
0010
,
1000
0010
1000
0010
1000
0010
1000
0000
,
0010
0100
1000
0010
,
0100
0001
1000
0100
,
0001
0000
0000
0100
0000
0000
1000
0001
0000
0000
0000
0000
,
0001
0100
0000
0000
0000
0000
0100
0010
0000
0000
0000
0000
,
0010
0000
0000
0010
1000
0000
0000
0000
0000
1000
0010
0000
,
0000
0000
0000
0000
0000
0000
0010
0000
1000
0000
0000
0000
0000
0000
0000
0000
0000
0000
1000
0000
0000
0010
0000
0000
,
1000
0010
1000
0010
1000
0010
1000
0010
,
1000
0010
1000
0010
1000
0010
1000
0000
,
0001
0010
0100
1000
,
0100
0010
0001
0010
,
0100
0000
0000
1000
0000
0000
1000
0010
0000
0000
0000
0000
,
0100
0001
0000
0000
0000
0000
1000
0010
0000
0000
0000
0000
,
1000
0000
0000
0001
0010
0000
0000
0000
0000
0100
1000
0000
,
0000
0000
0000
0000
0000
0000
0000
0000
0000
0000
0000
0000
0010
0000
0000
0000
0001
0000
0000
0000
0000
0000
0000
0000
0000
0000
0000
0000
0000
0000
0000
0000
0000
0000
0000
0000
1000
0000
0000
0001
0000
0000
1000
0000
0000
0001
0000
0000
,
1000
0001
1000
0001
1000
0001
1000
0001
1000
0001
1000
0001
1000
0000
0000
0000
,
1100
0110
0011
0110
,
1100
0000
0000
0001
1000
0000
0000
0000
0000
1000
0100
0000
0000
0000
0000
0100
0001
0000
0000
0000
0000
0001
0000
0000
,
0001
0000
0100
0000
0000
0000
0000
0000
0000
0000
0000
0000
0100
0000
1000
0000
0000
0000
0000
0000
0000
0000
0000
0000
1000
0000
0100
0000
0000
0000
0000
0000
0000
0000
0000
0000
0010
0000
0000
0100
0000
0000
0010
0000
0000
0100
0000
0000
,
0010
0100
0010
0100
0010
0100
0010
0100
0010
0100
0010
0100
0010
0000
0000
0000
,
0101
1001
1010
1001
,
0101
0000
0000
1000
0001
0000
0000
0000
0000
0001
0010
0000
0000
0000
0000
0010
0100
0000
0000
0000
0000
0000
0000
0000
,
1000
0000
0000
0100
0001
0000
0000
0000
0000
0010
1000
0000
,
0000
0000
0000
0000
0000
0000
0100
0000
0001
0000
0000
0000
0000
0000
0000
0000
0000
0000
0010
0000
0000
0100
0000
0000
,
2001
3010
0001
2100
3100
1010
0010
1000
,
1002
0103
0120
0130
0001
0012
1003
0100
,
2100
3001
1000
1001
0100
0010
0110
1000
,
0001
0210
0301
0100
2010
3010
2001
3001
,
0010
0210
0301
2100
3001
0010
0100
1000
,
0001
0000
0000
0010
0000
0000
0100
0000
0000
0010
0000
0000
1000
0000
0100
0000
0010
0000
0001
0000
1000
0000
0010
0000
,
0100
0001
1000
0001
0000
0000
0000
0000
0000
0110
0000
0000
,
0000
0011
0000
0110
,
0000
1100
0000
0110
,
0000
0011
0000
0110
,
0000
0000
0000
1100
0000
0000
0000
0000
0000
0002
1000
0000
,
0003
0000
0000
2000
0001
0000
3000
0000
0000
0002
0100
0000
,
0003
0000
0000
0200
0010
0000
0300
0000
0000
0020
1000
0000
,
0030
0000
0000
2000
0001
0000
3000
0000
0000
1001
0000
0000
,
0000
0110
0000
1001
,
0000
0110
0000
1001
,
0000
0110
0000
1001
,
0000
0000
0000
0200
0010
0000
0300
0000
0000
0020
0001
0000
,
0030
0000
0000
0002
0100
0000
0003
0000
0000
0200
0010
0000
,
0300
0000
0000
0020
1000
0000
0030
0000
0000
1010
0000
0000
,
0000
1001
0000
0101
,
0000
1001
0000
1010
,
0000
0000
0000
1001
0000
0000
0000
0000
0000
0200
0010
0000
,
0300
0000
0000
0020
0100
0000
0030
0000
0000
0200
1000
0000
,
0300
0000
0000
2000
0100
0000
3000
0000
0000
0200
0001
0000
,
0300
0000
0000
0002
0010
0000
0003
0000
0000
1100
0000
0000
,
0000
0011
0000
1100
,
0000
0000
0000
0200
1000
0000
0300
0000
0000
0020
0001
0000
,
0030
0000
0000
0200
0001
0000
0300
0000
0000
1010
0000
0000
,
0000
0101
0000
1010
,
0000
0000
0000
0200
0010
0000
0300
0000
0000
0020
0100
0000
,
0030
1100
0000
0011
,
0000
1010
0000
0101
,
0000
0000
0000
2000
0001
0000
3000
0000
0000
0002
1000
0000
,
0003
1001
0000
1001
,
0000
0000
0000
2000
0100
0000
3000
0000
0000
0200
0001
0000
,
0300
0000
0000
0002
0100
0000
0003
0000
0000
0200
1000
0000
,
0300
1100
0000
0011
,
0000
0000
0000
2000
0001
0000
3000
0000
0000
2000
0010
0000
,
3000
0000
0000
2000
0100
0000
3000
0000
0000
2000
0001
0000
,
3000
0000
0000
2000
0010
0000
3000
0000
0000
2000
0100
0000
,
3000
1010
0000
0101
,
0000
0000
0000
2000
0001
0000
3000
0000
0000
0002
1000
0000
,
0003
0000
0000
1001
0000
0000
0000
0000
0000
2000
0010
0000
,
3000
0000
0000
0200
0001
0000
0300
0000
0000
0110
0000
0000
,
0000
0000
0000
0200
0010
0000
0300
0000
0000
0200
0001
0000
,
0300
0000
0000
0200
1000
0000
0300
0000
0000
0200
0001
0000
,
0300
0000
0000
0200
0010
0000
0300
0000
0000
0020
0100
0000
,
0030
0000
0000
0020
0001
0000
0030
0000
0000
0020
1000
0000
,
0030
0000
0000
0020
0001
0000
0030
0000
0000
0020
0100
0000
,
0030
0000
0000
2000
0001
0000
3000
0000
0000
2000
0010
0000
,
3000
0000
0000
2000
0100
0000
3000
0000
0000
0002
0010
0000
,
0003
0000
0000
0002
1000
0000
0003
0000
0000
0002
0100
0000
,
0003
0000
0000
2000
0001
0000
3000
0000
0000
0002
1000
0000
,
0003
0000
1001
0000
1100
0000
0001
0010
,
0001
0000
1100
0000
0011
0000
0100
1000
,
0100
0000
1001
0000
0110
0000
1000
0001
,
1000
0000
1100
0000
0011
0000
0100
1000
,
0100
0000
1100
0000
0011
0000
1000
0001
,
1000
0000
1001
0000
0110
0000
2000
0100
,
3001
0000
0002
0100
1003
0000
2000
0010
,
3001
0000
0000
0000
0000
0000
0000
0000
0000
0000
0000
0000
0000
0000
0000
0000
0002
0000
0000
0000
0000
0000
0000
0000
0010
0000
0000
0000
0000
0000
0000
0000
1003
0000
0000
0000
0000
0000
0000
0000
0100
0000
0000
0000
0000
0000
0000
0000
0010
0000
0000
0000
0000
0100
0000
0000
0000
0000
1000
0000
0000
0000
0000
0000
,
0001
0000
0000
0000
0000
0100
0000
0000
0000
0000
0001
0000
0000
0000
0000
0000
1010
0000
0000
0000
0000
0000
0000
0000
0000
0000
0000
0000
0000
0000
0000
0000
0000
0000
0000
0000
0000
0000
0000
0000
0000
0000
0000
0000
0000
0000
0000
0000
0210
0000
0000
0000
0000
0000
0000
0000
0000
0000
0000
0000
0000
0000
0000
0000
,
0310
0000
1002
1003
,
0000
1020
1030
0000
,
0021
0031
0000
0110
,
0000
1010
0000
0120
,
0130
0000
1200
1300
,
0000
2010
3001
0000
,
0102
1003
0000
0101
,
0000
1001
0000
0120
,
1030
0000
0120
1030
,
0000
0102
1003
0000
,
2001
0010
3100
1001
,
0000
0000
0000
0110
0000
0000
0000
0000
0000
1000
0200
0000
,
0000
0300
0000
0100
0020
0000
0000
0030
0000
0010
0002
0000
,
0000
0003
0000
0001
0020
0000
0000
0030
0000
0010
0200
0000
,
0000
0300
0000
0100
0020
0000
0000
0030
0000
0010
0002
0000
,
0000
0003
0000
0001
2000
0000
0000
3000
0000
1000
0002
0000
,
0000
0003
0000
0001
0200
0000
0000
0300
0000
0100
0020
0000
,
0000
0030
0000
0010
2000
0000
0000
0000
3000
0001
0200
0000
,
0000
0000
0300
1000
0020
0000
0000
0000
0030
1000
0200
0000
,
0000
0000
0300
0010
0002
0000
0000
0000
0003
0100
2000
0000
,
0000
0000
3000
1000
0002
0000
0000
0000
0003
1000
0020
0000
,
0000
0000
0030
1000
0200
0000
0000
0000
0300
1000
0020
0000
,
0000
0000
0030
1000
0002
0000
0000
0000
0003
0010
0200
0000
,
0000
0000
0300
0000
0002
0000
2000
0000
0000
3003
0000
0000
0000
0000
0000
0000
0000
0000
0000
0000
0000
0000
0000
0000
;

//---------------dance-single - ----------------
#NOTES:
     dance-single:
     :
     Easy:
     9:
     0.540,0.604,0.314,1.000,0.000:
0000
0000
0000
0000
,
0000
0000
0000
0000
,
1002
1000
2003
0000
,
0001
0001
0001
3002
,
0000
2003
0000
3200
,
0000
0320
0000
0032
,
0000
0023
0000
0230
,
0000
2300
0000
3002
,
0000
0023
0000
0230
,
0000
2300
0000
3200
,
0000
2300
0000
3020
,
0000
0230
0000
0302
,
0000
0203
0000
0320
,
0000
2030
0000
3020
,
0000
2030
0000
3002
,
0000
0023
0000
0032
,
0000
0203
0000
0320
,
0000
2030
0000
3200
,
0000
0320
0000
0032
,
0000
0203
0000
0320
,
0000
2030
0000
3200
,
0000
2300
0000
3002
,
0000
0203
0000
0302
,
0000
2003
0000
3002
,
0000
0010
0000
2003
,
0000
3010
0000
0120
,
0000
1000
0000
0001
0000
0130
0000
0000
,
0210
0010
0310
0000
,
2001
0000
0100
0000
,
3100
0000
0001
2001
,
0000
0001
0000
0010
0000
3100
0000
0000
,
0000
0021
0000
0001
,
0000
1000
0000
0000
,
1000
0000
0000
0100
0000
0001
0000
0000
,
0100
0000
1000
0000
0000
1000
0000
0000
,
0200
0000
0000
0000
,
0300
1000
0000
0000
0100
0000
0001
0000
,
0000
0100
0000
2030
0000
0000
0001
0000
,
0000
0000
0000
3001
,
0000
2001
0000
0100
,
0000
3100
0000
0002
,
0000
0010
0000
0103
,
0000
0002
0000
2003
,
0000
3001
0000
0210
,
0000
0010
0000
0310
,
0000
2001
0000
0001
,
0000
3001
0000
2000
,
0000
3100
0000
0020
,
0000
0031
0000
2000
,
0000
0010
0000
3100
,
0000
2001
0000
3001
,
0000
0201
0000
0001
,
0000
0301
0000
0002
,
0000
1003
0000
0002
,
0000
0100
0000
0103
,
0000
0001
0000
2001
,
0000
0001
0000
3001
,
0000
1200
0000
1000
,
0000
1300
0000
0200
,
0000
0010
0000
0301
,
0000
2100
0000
0100
,
0000
3100
0000
2000
,
0000
0001
0000
3100
,
0000
2001
0000
3001
,
0000
2000
0000
3100
,
0000
0020
0000
0031
,
0000
2001
0000
3001
,
0000
0200
0000
0310
,
0000
0210
0000
0310
,
0000
2001
0000
3001
,
0000
0002
0000
0013
,
0000
0201
0000
0010
,
0000
1300
0000
1002
,
0000
0010
0000
1003
,
0000
0020
0000
0031
,
0000
2001
0000
3001
,
0000
1001
0000
2001
,
0000
3001
0000
0010
,
0000
2010
0000
0010
,
0000
0100
0000
0010
,
0000
0001
0000
0001
,
0000
0001
0000
0001
,
0000
0100
0000
0001
,
0000
0010
0000
0100
,
0000
0010
0000
0001
,
0000
0010
0000
0100
,
0000
0010
0000
3100
,
0000
2001
0000
3200
,
0000
0302
0000
0023
,
0000
2030
0000
3100
,
0200
0000
1000
1000
,
2300
0000
0010
0010
,
3020
0000
0100
0100
,
0230
0000
0001
0001
,
0302
0000
1000
1000
,
1003
2001
0000
0000
,
0001
0000
0000
3001
,
0000
0000
1001
0000
,
0000
0210
0000
0010
,
0000
0310
0000
0000
,
2001
0000
0000
0100
,
0000
0000
3001
0000
,
0000
0120
0000
0100
,
0000
0130
0000
0000
,
2000
0000
0000
0100
,
0000
0000
3001
0000
,
0000
0000
0010
0000
,
0012
0000
0010
0000
,
0100
0000
0100
0000
,
1000
0000
0100
0000
,
0100
0000
0010
0000
,
1000
0000
0100
0000
,
1000
0000
0010
0000
,
1000
0000
0100
0000
,
1000
0000
0010
0000
,
1000
0000
0100
0000
,
1000
0000
0010
0000
,
1000
0000
0100
0000
,
1000
0000
0010
0000
,
1000
2000
3003
0000
;
