#TITLE:Fascination;
#SUBTITLE:-eternal love mix-;
#ARTIST:2MB;
#TITLETRANSLIT:;
#SUBTITLETRANSLIT:;
#ARTISTTRANSLIT:;
#CREDIT:;
#BANNER:Fascination -eternal love mix-.png;
#BACKGROUND:Fascination -eternal love mix-bg;
#LYRICSPATH:;
#CDTITLE:./CDTITLES/Dance Dance Revolution SuperNOVA.png;
#MUSIC:Fascination -eternal love mix-.mp3;
#OFFSET:-0.067;
#SAMPLESTART:9.780;
#SAMPLELENGTH:15.000;
#SELECTABLE:YES;
#DISPLAYBPM:*;
#BPMS:0.000=100.000,15.000=200.000,31.000=399.999,95.000=200.000,123.000=399.998,131.000=200.000,157.000=399.998,349.000=200.000,381.000=399.998,477.000=100.000;
#STOPS:15.000=0.600
,132.000=0.150
,133.500=0.150
,134.500=0.150
,136.000=0.150
,137.000=0.150
,138.500=0.150
,140.000=0.150
,144.500=0.150
,146.000=0.150
,147.000=0.150
,148.500=0.150
,149.500=0.150
,477.000=2.250
;
#BGCHANGES:;

//---------------dance-single - My very first edit! ----------------
#NOTES:
     dance-single:
     My very first edit!:
     Hard:
     10:
     0.895,1.000,0.324,0.030,0.081:
0000
0000
0000
0000
,
0000
0000
0000
0000
,
1010
1000
0001
1000
0100
0010
0001
1000
,
0001
0000
0010
0000
0100
0000
1000
0001
1000
0001
0200
0000
0310
0000
1000
0000
,
0100
0010
0001
0000
1000
0100
0010
0100
,
1000
0000
0100
1000
0100
0010
0001
0010
,
0100
0010
0001
0000
1000
0010
1000
0001
,
0010
0000
0001
1000
0001
1000
0001
1000
,
0001
0100
0010
1000
,
0010
0100
0001
0100
,
0010
0100
0001
0100
,
0010
0000
1000
0000
0001
0000
0100
0010
,
0100
0001
1000
0010
,
1000
0001
0100
0010
,
1000
0100
1000
0010
,
1000
0000
0010
0000
0100
0000
0001
1000
,
0001
0000
0100
0000
0010
0000
1000
0100
,
1000
0000
0001
0000
1000
0000
0001
0100
,
0010
0000
1000
0000
0010
0000
1000
0001
,
0100
0000
0010
0000
1000
0000
0001
0100
,
0010
0000
1000
0000
0100
0000
0010
0001
,
0100
0000
0010
0000
1000
0000
0001
0100
,
0001
0000
0100
0000
0010
0000
1000
0010
,
0100
0010
1000
0100
,
1000
0001
0010
0001
1000
0010
0100
0001
,
0010
0001
0010
0100
0010
0100
1000
0000
,
0001
0000
0000
0000
0001
0100
0000
0000
0000
0000
0000
0000
0100
0010
0000
0000
0000
0000
0000
0000
0010
1000
0000
0000
0000
0000
0000
0000
1000
0000
0000
0000
,
1000
0100
0000
0000
0000
0000
0000
0000
0100
0010
0000
0000
0000
0000
0000
0000
0010
0001
0000
0000
0000
0000
0000
0000
0001
0000
0000
0000
0100
0000
0000
0000
,
0001
1000
0100
0010
0001
0010
0100
0010
,
0100
1000
0001
1000
0100
1000
0100
0010
,
0001
0000
0000
0000
1000
0001
0000
0000
0000
0000
0000
0000
0001
0010
0000
0000
0000
0000
0000
0000
0010
0100
0000
0000
0000
0000
0000
0000
0000
0000
0000
0000
,
0100
0000
0000
0000
1000
0100
0000
0000
0000
0000
0000
0000
0100
0010
0000
0000
,
0000
0000
0000
0000
0010
0100
0000
0000
0000
0000
0000
0000
1000
0000
0100
0000
,
0010
0001
0010
0100
1000
0100
0010
0001
,
0010
0100
1000
0100
0010
0001
0010
0100
,
1000
0010
0100
0001
1000
0010
0100
0001
,
1000
0010
0100
0001
0100
0010
1000
0010
,
0100
0001
0100
0010
0010
1000
0100
0010
,
0001
0100
0010
1000
0100
0010
0100
1000
,
0001
0100
0010
1000
0100
0000
0000
0000
0000
0000
0000
0000
1000
0000
0000
0000
,
0010
1000
0010
0100
,
0001
1000
0010
1000
,
0010
0100
0001
1000
,
0001
0100
0000
0110
,
0000
0101
0000
1010
,
0000
0101
0000
1010
,
0000
1000
0100
1000
,
0001
0010
0001
0100
,
0010
1000
0100
0010
,
0001
1000
0100
1000
,
0100
0110
0000
1001
,
0000
0110
0000
1001
,
0000
0100
0001
0100
,
0010
1000
0001
1000
,
0001
0100
0010
0100
,
0010
1000
0001
0110
,
0000
1001
0000
0101
,
0000
1010
0000
0101
,
0000
1010
0000
0001
,
1000
0100
0010
0001
,
0001
1001
0000
1100
,
0000
0110
0000
0001
,
0010
0001
0100
0010
,
1000
0100
0000
1000
,
0001
0000
0010
0001
0010
0001
0010
0000
,
0100
1000
0010
1000
,
0001
0010
0100
0010
,
0001
0000
1000
0100
1000
0100
1000
0000
,
0010
0000
0100
0010
0100
0010
0100
0000
,
0010
0000
1000
0000
0001
0010
0001
0010
,
0001
1000
0010
0100
,
0010
0100
0001
0010
,
0001
0000
1000
0001
0000
0000
0010
0000
,
0100
0000
0010
0000
0001
0000
1000
0001
,
0000
1000
0010
0100
,
0001
1000
0000
0001
,
0010
0100
1000
0001
,
0000
1000
0100
0010
,
0100
1000
0000
0110
,
0000
1001
0000
1001
,
0000
0011
0000
0101
,
0000
1001
0000
1100
,
0010
1000
0010
0100
,
0001
1000
0001
0100
,
0010
0011
0000
1100
,
0000
0101
0000
1001
,
0000
0110
0000
1001
,
0000
0000
0001
0010
0001
0010
0001
0010
,
0001
0010
0001
0010
0100
1000
0100
1000
,
0100
1000
0100
1000
0100
0010
0001
1000
,
0001
1000
0001
1000
0001
1000
0001
1000
,
0001
1000
0010
0100
0010
0100
0010
0100
,
0010
0100
0010
0100
1000
0100
0010
0001
,
0100
0001
0100
0001
0100
0001
0100
0001
,
1000
0010
1000
0010
1000
0010
1000
0010
,
1000
0010
1000
0000
0001
0000
1000
0000
,
0001
0100
0010
1000
,
0100
1000
0001
0100
,
0001
0000
0100
0010
0100
0000
1000
0000
,
0001
0100
0001
1000
,
0100
1000
0100
0010
,
0001
0000
1000
0010
1000
0000
0010
0000
,
0100
0001
0010
0100
,
0010
0100
1000
0001
,
1000
0000
0001
0100
0010
0000
1000
0000
,
0001
0100
0010
1000
,
0010
1000
0010
0100
,
0001
0000
1000
0100
1000
0100
1000
0100
,
1000
0010
0100
0001
,
0100
0000
0010
1000
0010
1000
0010
1000
,
0010
1000
0001
1000
,
0001
0000
0100
0010
0100
0010
0100
0010
,
0100
0010
1000
0010
,
1000
0000
0001
0100
0001
0100
0001
0100
,
0001
1000
0001
1000
,
0001
0000
1000
0100
1000
0001
1000
0100
,
1000
0010
0100
0001
,
0100
0000
0001
0010
0001
0100
0001
0010
,
0001
0000
1000
0010
1000
0100
1000
0010
,
1000
0002
2000
3003
0000
0000
0000
0000
;

//---------------dance-single - ----------------
#NOTES:
     dance-single:
     :
     Easy:
     9:
     0.486,0.603,0.384,0.202,0.000:
0000
0000
0000
0000
,
0000
0000
0000
0000
,
0011
0010
0100
0100
,
1000
0001
1000
0001
,
1000
0100
0010
0100
,
0010
0100
1000
0001
,
0100
0001
1000
0001
,
0100
0010
1000
0001
,
0000
1000
0000
0100
,
0000
0010
0000
0100
,
0000
1000
0000
0001
,
0000
0100
0000
0010
,
0000
1000
0000
0100
,
0000
1000
0000
0100
,
0000
0010
0000
0001
,
0000
0100
0000
0010
,
0000
1000
0000
0001
,
0000
0100
0000
0001
,
0000
1000
0000
0010
,
0000
1000
0000
0001
,
0000
1000
0000
0010
,
0000
0100
0000
0010
,
0000
1000
0000
0100
,
0000
1000
0000
1001
,
0100
0010
0100
0001
,
1000
0100
0010
0210
,
0000
1000
0000
0010
0000
0301
0000
0000
,
0100
1000
0001
0100
,
0010
1000
0100
1000
,
0010
1000
0100
0120
,
0000
0001
0000
0100
0000
1030
0000
0000
,
0000
0100
0000
0001
,
0000
0000
1000
0000
0000
0000
1000
0001
,
1000
0000
1000
0001
0000
1000
0000
0100
,
0001
0000
0100
0000
1000
0001
0000
0001
,
1000
0000
0000
0010
0000
1000
0000
1000
,
0100
1000
0000
0100
0010
0000
0001
0000
,
1000
0100
0000
1000
0000
0000
0010
0000
,
0100
0001
0100
0010
,
0001
1001
0000
0100
,
0000
0100
0000
1000
,
0000
0010
0000
1000
,
0000
0001
0000
0100
,
0000
0010
0000
0102
,
0000
1000
0000
0013
,
0000
2001
0000
0001
,
0000
3001
0000
0010
,
0000
0010
0000
0100
,
0000
1000
0000
1000
,
0000
0010
0000
0100
,
0000
1002
0000
1003
,
0000
0210
0000
0010
,
0000
0310
0000
1000
,
0000
1000
0000
0001
,
0000
0100
0000
0100
,
0000
0001
0000
2100
,
0000
0001
0000
3100
,
0000
1002
0000
1000
,
0000
1003
0000
0100
,
0000
0100
0000
0010
,
0000
0120
0000
0100
,
0000
0130
0000
0001
,
0000
0001
0000
0100
,
0000
0201
0000
0301
,
0000
0100
0000
0001
,
0000
1000
0000
0001
,
0000
1001
0000
1001
,
0000
0010
0000
0010
,
0000
0110
0000
0110
,
0000
1100
0000
1100
,
0000
0010
0000
0010
,
0000
1001
0000
1010
,
0000
1100
0000
1001
,
0000
1010
0000
1100
,
0000
1000
0000
0100
,
0000
0101
0000
0101
,
0000
0001
0000
1001
,
0000
1001
0000
1000
,
0000
1100
0000
1100
,
0000
0100
0000
0100
,
0000
1000
0000
1000
,
0000
0010
0000
1000
,
0000
0001
0000
0010
,
0000
0100
0000
1000
,
0000
0001
0000
1000
,
0000
0100
0000
0001
,
0000
0100
0000
1000
,
0000
0002
0000
1000
,
1003
0020
0000
0100
,
0130
0002
0000
1000
,
1003
2000
0000
0100
,
3100
0020
0000
0001
,
0031
0200
0000
0001
,
0301
2000
0000
0010
,
3010
0200
0000
0001
,
0301
1001
0000
0000
,
2000
0000
0000
0100
,
0000
0000
3001
0000
,
0000
1001
0000
1001
,
0000
0002
0000
0000
,
0010
0000
0000
0100
,
0000
0000
1003
0000
,
0000
1001
0000
1001
,
0000
0011
0000
0000
,
0001
0000
0000
0100
,
0000
0000
0010
0000
,
0000
1000
0000
0000
,
0001
0000
0100
0000
,
0010
0000
1000
0000
,
0100
0000
0010
0000
,
0001
0000
0100
0000
,
0010
0000
0100
0000
,
0001
0000
1000
0000
,
0100
0000
0010
0000
,
0001
0000
0010
0000
,
0100
0000
1000
0000
,
0100
0000
0010
0000
,
0001
0000
0100
0000
,
0001
0000
1000
0000
,
0010
1001
0000
0000
;

//---------------dance-single - ----------------
#NOTES:
     dance-single:
     :
     Medium:
     9:
     0.649,0.844,0.749,0.040,0.000:
0000
0000
0000
0000
,
0000
0000
0000
0000
,
1010
0001
0100
1000
,
0001
0100
1000
0001
,
0010
0100
1000
0010
,
0100
0000
0001
0000
0100
0000
0010
0100
,
0001
1000
0010
1000
0100
0010
0001
0000
,
0011
0110
1100
0100
,
0000
1000
0000
0001
,
0000
0010
0000
0001
,
0000
1000
0000
0010
,
0000
0100
0000
0010
,
0100
0001
1000
0010
,
1000
0100
0010
0001
,
0000
0011
0000
0110
,
0000
1100
0000
1000
,
0000
0100
0000
0010
,
0000
0001
0000
1000
,
0000
0010
0000
0100
,
0000
0001
0000
0010
,
0001
0010
0100
1000
,
0010
1000
0010
0100
,
0000
1001
0000
1001
,
0000
1001
0000
1001
,
0010
0001
0100
0000
0010
1000
0100
0000
,
0100
0001
0010
0000
0001
1000
1002
0000
,
0000
0010
0000
1000
0000
0103
0000
0000
,
0100
0001
1000
0001
0010
0100
1000
0000
,
0010
1000
0001
0000
0100
0010
1000
0000
,
0100
1000
0001
0000
1000
0001
2001
0000
,
0000
0010
0000
0001
0000
3100
0000
0000
,
0000
0100
1000
0001
,
1000
0000
0010
0000
1000
0000
0001
1000
,
0001
0000
0010
0001
0000
0001
0000
0100
,
0010
0000
1000
0000
1000
0100
0000
0001
,
0100
0000
1000
0001
0100
0001
0010
0100
,
1000
0001
0000
1000
0100
0000
0001
0000
,
0100
1000
0000
0001
0000
1000
0100
0010
,
0100
0001
0100
1000
0001
0010
0100
1000
,
0010
1001
0000
0100
,
0000
1000
0000
0001
,
0000
0010
0000
0100
,
0000
1000
0000
0010
,
0000
1000
0000
1100
,
0000
0101
0000
0011
,
0000
1001
0000
1001
,
0000
1001
0000
1000
,
0000
0100
0000
1000
,
0000
0010
0000
0100
,
0000
0001
0000
1000
,
0000
2001
0000
3001
,
0000
1002
0000
1000
,
0000
1003
0000
0100
,
0000
0010
0000
1000
,
0000
0001
0000
0100
,
0000
0010
0000
1010
,
0000
1100
0000
0011
,
0000
1001
0000
1001
,
0000
1001
0000
0100
,
0000
0010
0000
0001
,
0000
0110
0000
1010
,
0000
0101
0000
0010
,
0000
1000
0000
0100
,
0000
0011
0000
1100
,
0000
0001
0000
0100
,
0000
1000
0000
0100
,
0000
1001
0000
1001
,
0000
0010
0000
0100
,
0000
0110
0000
0110
,
0000
1001
0000
1001
,
0000
0100
0000
0010
,
0000
1001
0000
0011
,
0000
0101
0000
1001
,
0000
0011
0000
0101
,
0000
0010
0000
1000
,
0000
0101
0000
1100
,
0000
0001
0000
1001
,
0000
0011
0000
1000
,
0000
1010
0000
1001
,
0000
0101
0000
0110
,
0000
1000
0000
0001
,
0000
1001
0000
1010
,
0000
0011
0000
1001
,
0000
0100
0000
0010
,
0000
1001
0000
0110
,
0000
1001
0000
1100
,
0000
0110
0000
0011
,
0000
0000
1001
0000
0011
0000
1000
0001
,
0100
0000
0010
0000
1100
0000
0001
0100
,
1000
0000
0100
0000
0101
0000
0100
0010
,
1000
0000
0010
1000
0100
0000
0010
0001
,
0100
0000
0001
0000
1010
0000
1000
0100
,
0001
0000
0100
0000
1100
0000
0100
0010
,
0001
0000
1000
0010
1000
0000
0001
0010
,
0001
0000
1010
0000
0001
0000
0100
0010
,
1000
1001
0000
1000
,
0100
0000
0100
1000
,
0000
0100
0010
0000
,
1000
0100
0010
0001
,
0000
1100
0000
0001
,
0010
0000
0100
1000
,
0000
0010
0100
0000
,
0100
0010
1000
0100
,
0000
0011
0000
1000
,
0100
0000
0010
0100
,
0000
1000
0100
0000
,
1000
0100
0010
0001
,
0100
0010
0100
0010
,
1000
0001
1000
0001
,
0010
0001
0010
0001
,
1000
0100
1000
0100
,
0001
0100
0001
0100
,
0001
0100
1000
0010
,
1000
0010
0100
0001
,
1000
0001
1000
0001
,
1000
0001
1000
0100
,
0001
0100
0010
0100
,
1000
0100
0001
0100
,
0010
0001
0100
1000
,
0100
1001
0000
0000
;

//---------------dance-single - Less steps... but complete Hell...----------------
#NOTES:
     dance-single:
     Less steps... but complete Hell...:
     Challenge:
     10:
     0.877,1.000,0.233,0.030,0.000: // measure 1
0000
0000
0000
0000
,  // measure 2
0000
0000
0000
0000
,  // measure 3
0011
0010
0001
0010
0100
0010
1000
0010
,  // measure 4
0100
0010
0001
0010
1000
1002
0013
0000
,  // measure 5
1000
0010
0001
0010
,  // measure 6
1000
0010
0001
0010
,  // measure 7
1000
0001
0100
1000
0100
0001
0100
1000
,  // measure 8
0100
0001
0100
1000
0100
0010
0001
0000
,  // measure 9
0100
1000
0100
0010
,  // measure 10
0100
0001
0100
0010
,  // measure 11
0100
1000
0100
0010
,  // measure 12
0100
0010
0001
0010
,  // measure 13
0100
0010
1000
0010
,  // measure 14
0100
0010
0001
0010
,  // measure 15
0100
0010
1000
0010
,  // measure 16
0001
0000
0010
0000
1000
0000
0001
0010
,  // measure 17
0001
0000
0010
0000
0100
0000
1000
0100
,  // measure 18
1000
0000
0010
0000
1000
0000
0001
1000
,  // measure 19
0001
0000
0010
0000
0001
0000
0100
1000
,  // measure 20
0100
0001
0010
1000
,  // measure 21
0010
0001
0010
1000
,  // measure 22
0010
0001
0100
1000
,  // measure 23
0100
0000
0001
0000
0100
0000
1000
0100
,  // measure 24
0010
0001
1000
0010
0100
0001
1000
0010
,  // measure 25
0001
0010
1000
0010
0001
0010
1000
0000
,  // measure 26
0001
0100
0001
1000
0001
0000
0010
1000
,  // measure 27
0010
0001
0010
1000
0010
0001
1000
0000
,  // measure 28
0001
1000
0001
0010
0001
0000
1000
0100
,  // measure 29
0010
0001
1000
0100
0010
1000
0010
0001
,  // measure 30
0010
0100
1000
0001
0010
0100
0001
0100
,  // measure 31
1000
0010
0001
0010
1000
0100
0001
0000
,  // measure 32
0100
0000
1000
0000
0001
0010
0100
0010
,  // measure 33
0001
1000
0010
0100
0010
1000
0001
0100
,  // measure 34
1000
0100
0001
0010
1000
0010
0001
0100
,  // measure 35
1000
0100
0001
0010
1000
0010
0001
0100
,  // measure 36
1000
0100
0001
0010
0100
1000
0100
0010
,  // measure 37
0001
0100
1000
0010
0001
1000
0010
0001
,  // measure 38
0100
1000
0010
0001
0010
1000
0100
0010
,  // measure 39
1000
0010
0001
0100
0010
1000
0100
0010
,  // measure 40
0001
1000
0001
0010
0001
0000
1000
0000
,  // measure 41
0001
1000
0010
1000
,  // measure 42
0100
1000
0010
1000
,  // measure 43
0001
1000
0010
1000
,  // measure 44
0100
0000
1000
0000
0001
0000
0100
0001
,  // measure 45
0000
0000
1000
0010
0000
0000
0100
0010
,  // measure 46
0000
0000
1000
0001
0000
0000
0010
0100
,  // measure 47
0000
0000
1000
0001
1000
0000
0001
0000
,  // measure 48
0010
0001
0100
0001
,  // measure 49
1000
0001
0100
0001
,  // measure 50
0010
0001
0100
0001
,  // measure 51
1000
0000
0001
1000
0000
0000
0100
0010
,  // measure 52
0000
0000
0001
0010
0000
0000
0100
1000
,  // measure 53
0000
0000
1000
0100
1000
0000
0010
0000
,  // measure 54
0100
0010
1000
0010
,  // measure 55
0001
0010
1000
0010
,  // measure 56
0100
0000
0010
0000
0001
0000
0010
1000
,  // measure 57
0000
0000
0001
0100
0000
0000
0001
0010
,  // measure 58
0000
0000
0100
1000
0000
0000
0010
0100
,  // measure 59
0000
0000
0100
0001
0100
0000
0001
0000
,  // measure 60
1000
0100
0001
0100
,  // measure 61
1000
0000
0010
1000
0000
0000
0010
0100
,  // measure 62
0000
0000
0001
0100
0001
0000
1000
0000
,  // measure 63
0010
0001
0010
1000
,  // measure 64
0010
0000
1000
0100
0000
0000
1000
0010
,  // measure 65
0000
1010
0000
0011
,  // measure 66
1000
0010
0001
0100
,  // measure 67
1000
0000
0100
0010
0000
0000
0100
0001
,  // measure 68
0000
1100
0000
0101
,  // measure 69
0000
1100
0000
0101
,  // measure 70
0010
0000
0001
1000
0000
0000
0001
0100
,  // measure 71
0000
1000
0010
0100
,  // measure 72
0001
0000
1000
0100
0000
0000
1000
0010
,  // measure 73
0000
0000
1000
0001
0000
0000
0001
0100
,  // measure 74
0000
0000
0001
1000
0000
0000
0001
0010
,  // measure 75
0000
0001
0100
1000
,  // measure 76
0100
0000
0001
0010
0001
0000
0001
0100
,  // measure 77
0001
0000
0010
0000
0100
0000
1000
0100
,  // measure 78
1000
0000
1000
0001
1000
0000
0010
0000
,  // measure 79
0001
1010
0000
1100
,  // measure 80
0000
0101
0000
0011
,  // measure 81
0000
0101
0000
0011
,  // measure 82
0000
1010
0000
1100
,  // measure 83
0000
1001
0000
0110
,  // measure 84
0000
1001
0000
1001
,  // measure 85
0000
0110
0000
1001
,  // measure 86
0000
0000
0010
1000
0010
0000
0010
0001
,  // measure 87
0010
0000
0100
1000
0100
0000
0100
0001
,  // measure 88
0100
0000
0010
0001
0010
0100
0010
1000
,  // measure 89
0010
0100
0010
0001
0010
0100
0001
0100
,  // measure 90
0010
0100
1000
0100
0010
0100
0001
0100
,  // measure 91
0010
1000
0010
0001
0010
1000
0010
0001
,  // measure 92
0010
0100
0001
0100
1000
0100
0001
0100
,  // measure 93
1000
0100
0001
0010
1000
0010
0001
1000
,  // measure 94
0010
0001
0010
1000
0001
0100
1000
0100
,  // measure 95
0001
1000
0100
0001
0100
1000
1000
1000
,  // measure 96
0001
0001
0001
0000
1000
0000
0100
0000
,  // measure 97
0010
0001
1000
1000
,  // measure 98
0010
0010
0100
0100
,  // measure 99
0001
0001
1000
1000
,  // measure 100
1000
0100
0100
0100
,  // measure 101
0010
0010
0010
0001
,  // measure 102
0001
0001
1000
0100
,  // measure 103
0010
0001
0100
0010
,  // measure 104
1000
0001
0001
0001
,  // measure 105
0001
0010
0010
0010
,  // measure 106
0010
0100
0100
0100
,  // measure 107
0100
1000
1000
1000
,  // measure 108
1000
0001
0010
1000
,  // measure 109
0010
0001
0010
1000
,  // measure 110
0010
0001
0100
1000
,  // measure 111
0100
0001
0100
1000
,  // measure 112
0100
0001
0100
1000
,  // measure 113
0100
0000
0001
0010
1000
0000
0010
0000
,  // measure 114
0001
0100
0010
1000
,  // measure 115
0100
0000
1000
0100
0001
0000
0100
0000
,  // measure 116
1000
0100
0010
0001
,  // measure 117
0100
0000
0100
1000
0100
0000
0001
0000
,  // measure 118
1000
0000
0010
0001
0010
0000
1000
0000
,  // measure 119
0100
0000
1000
0100
0010
1000
0010
0001
,  // measure 120
0100
0000
2002
3003
0000
0000
0000
0000
;
