#TITLE:Cara Mia;
#SUBTITLE:(AIR Special);
#ARTIST:Mans Zelmerlow;
#TITLETRANSLIT:;
#SUBTITLETRANSLIT:;
#ARTISTTRANSLIT:;
#CREDIT:;
#BANNER:Cara Mia (AIR Special).png;
#BACKGROUND:Cara Mia (AIR Special)-bg.png;
#LYRICSPATH:Cara Mia (AIR Special).lrc;
#CDTITLE:./CDTITLES/Dancing Stage SuperNOVA2.png;
#MUSIC:Cara Mia (AIR Special).mp3;
#OFFSET:-0.037;
#SAMPLESTART:32.362;
#SAMPLELENGTH:15.000;
#SELECTABLE:YES;
#BPMS:0.000=128.000;
#STOPS:;
#BGCHANGES:-1.000=Cara Mia (AIR Special).avi=1.000=1=0=0,
180.000=Cara Mia-bg.png=1.000=1=0=1,
99999=-nosongbg-=1.000=0=0=0 // don't automatically add -songbackground-
;

//---------------dance-single - ----------------
#NOTES:
     dance-single:
     :
     Beginner:
     1:
     0.121,0.175,0.056,0.000,0.000:
0000
0000
0000
0000
,
0000
0000
0000
0000
,
0000
0000
0000
0000
,
0000
0000
0000
0000
,
0000
0000
0000
0000
,
0000
0000
0000
0000
,
0001
0000
0000
0000
,
0100
0000
0000
0000
,
1000
0000
0000
0000
,
0001
0000
0000
0000
,
0001
0000
0001
0000
,
0010
0000
0010
0000
,
1000
0000
0000
0000
,
1001
0000
0000
0000
,
0010
0000
0100
0000
,
1000
0000
0000
0000
,
0001
0000
1000
0000
,
1001
0000
0000
0000
,
1000
1000
1000
0000
,
0001
0001
0001
0000
,
1000
0000
0001
0000
,
1000
0000
0000
0000
,
0001
0001
0001
0000
,
1000
1000
1000
0000
,
0001
0000
1000
0000
,
1001
0000
0000
0000
,
0010
0010
0000
0000
,
0100
0100
0000
0000
,
1000
0000
0001
0000
,
1000
0000
0000
0000
,
0001
0001
0001
0000
,
1000
1000
1000
0000
,
0001
0000
1000
0000
,
1001
0000
0000
0000
,
0010
0000
0000
0000
,
0001
0000
0010
0000
,
1000
0000
0010
0000
,
0100
0100
0100
0000
,
0100
0100
0100
0000
,
1000
0000
0100
0000
,
0001
0000
0100
0000
,
0001
0000
0000
0000
,
0001
0000
1000
0000
,
0010
0000
0000
0000
,
0100
0000
0000
0000
,
1001
0000
0000
0000
;

//---------------dance-single - ----------------
#NOTES:
     dance-single:
     :
     Easy:
     3:
     0.225,0.229,0.111,0.122,0.000:
0000
0000
0000
0000
,
0000
0000
0000
0000
,
0000
0000
0000
0000
,
0000
0000
0000
0000
,
0000
0000
0000
0000
,
0000
0000
0000
0000
,
1000
0010
0100
0100
,
0010
1000
0001
0010
,
0001
0100
0001
0000
,
1000
0000
0001
0000
,
1000
0100
0010
0010
,
1000
0001
0010
1000
,
0100
0000
0010
0000
,
2002
0000
0000
3003
,
0100
0001
0010
1000
,
0001
0000
1000
0000
,
0100
0001
0100
1000
,
0110
0000
0000
0000
,
0001
0001
1000
0001
,
1000
1000
0001
1000
,
0001
0010
1000
0010
,
0001
0000
0010
0010
,
0001
0001
0100
0001
,
1000
1000
0100
1000
,
0010
0001
0010
1000
,
1001
0000
0100
0100
,
0001
1000
1001
0000
,
0010
0100
0110
0000
,
0010
0001
0100
1000
,
0002
0000
0000
0003
,
0010
0010
0100
0010
,
0100
0100
0010
0100
,
0001
0001
1000
1000
,
2002
0000
0000
3003
,
1000
0100
0001
0010
,
2000
0000
3100
0000
,
0002
0000
0103
0000
,
0010
0100
1000
0000
,
0010
0100
0001
0000
,
0001
0100
0001
0010
,
0100
1000
0010
0100
,
1001
0000
0100
0000
,
1000
0010
0001
0100
,
0110
0000
1000
0000
,
0220
0000
0000
0330
,
2002
0000
0000
3003
;

//---------------dance-single - ----------------
#NOTES:
     dance-single:
     :
     Medium:
     5:
     0.292,0.305,0.133,0.133,0.028:
0000
0000
0000
0000
,
0000
0000
0000
0000
,
0000
0000
0000
0000
,
0000
0000
0000
0000
,
0000
0000
0000
0000
,
0000
0000
0000
0000
,
0001
0000
0010
0000
0100
1000
0001
0000
,
0100
0001
1000
0010
,
1000
0000
0000
0100
0000
0000
0001
0000
1000
0000
0000
0000
0000
0000
0000
0000
,
0001
0010
1000
0010
,
0001
0000
0100
0000
0010
1000
0100
0000
,
0010
0000
1000
0000
0010
0000
0001
0010
,
0100
0000
0001
0100
,
2020
0000
0000
3030
,
0100
0000
1000
0000
0010
0000
0001
0010
,
1000
0000
0001
1000
,
0100
1000
0100
0001
,
0120
0000
1000
1030
,
0100
0000
0100
0000
1000
0001
0010
0000
,
0001
0000
0001
0000
0010
0001
1000
0000
,
0001
0010
0001
0100
,
0001
0000
0100
0010
1000
0000
0011
0000
,
1000
0000
1000
0000
0010
0001
1000
0000
,
0100
0000
0100
0000
0001
0100
1000
0000
,
0001
0010
1000
0100
,
1001
0000
0100
0100
,
0010
0100
0001
0000
0101
0000
0000
0000
,
0010
0100
1000
0000
1100
0000
0000
0000
,
0010
1000
0100
0000
0010
0001
0100
0000
,
2001
0000
0100
3100
,
0010
0000
0010
0000
0001
1000
0010
0000
,
0100
0000
0100
0000
0001
0010
0100
0000
,
1000
0100
0001
0100
,
0022
0000
0000
0033
,
0001
0100
1000
0010
,
0001
0000
0000
0001
0000
0000
0001
0000
0200
0000
0000
0000
0300
0000
0000
0000
,
1000
0000
0000
1000
0000
0000
1000
0000
0200
0000
0000
0000
0300
0000
0000
0000
,
0010
0000
0000
0010
0000
0000
0100
0000
0001
0000
0000
0000
1000
0000
0000
0000
,
0100
0000
0000
0100
0000
0000
1000
0000
0100
0000
0000
0000
0010
0000
0000
0000
,
1000
0000
0100
0000
1000
0001
0010
0000
,
0100
0000
0001
0000
0010
1000
0100
0000
,
1001
0000
0000
0000
0100
0010
1000
0000
,
0001
0010
1000
0100
,
0101
0000
0000
0000
0010
1000
0100
0000
,
0220
0000
0000
0330
,
2002
0000
0000
3003
;

//---------------dance-single - ----------------
#NOTES:
     dance-single:
     :
     Hard:
     7:
     0.374,0.406,0.133,0.155,0.183:
0000
0000
0000
0000
,
0000
0000
0000
0000
,
0000
0000
0000
0000
,
0000
0000
0000
0000
,
0000
0000
0000
0000
,
0000
0000
0000
0000
,
1000
0000
0000
0001
0100
0000
0010
0000
0100
0000
0001
0000
1000
0000
0000
0000
,
0010
1000
0100
0000
0010
0001
0100
0000
,
0001
0000
0000
0010
0100
0000
1000
0000
0001
0000
0000
0000
0000
0000
0000
0000
,
1000
0100
0001
0100
,
1000
0000
0000
0010
1000
0000
0001
0000
0100
0000
0001
0000
0010
0000
0000
0000
,
0100
1000
0001
0000
0100
0001
1000
0100
,
0010
0100
1000
0010
,
0202
0000
0000
0303
,
0010
0000
0000
0001
0000
0000
0010
0000
0100
0000
0000
1000
0000
0000
0100
0000
,
0001
0000
1000
0001
,
0010
0100
0001
0000
0010
0100
1000
0000
,
0210
0000
0001
0301
,
0010
0000
0000
0010
0100
0000
0000
0100
0001
0000
1000
0000
0100
0000
0000
0000
,
1000
0000
0000
1000
0010
0000
0000
0010
0100
0000
0001
0000
1000
0000
0000
0000
,
0001
0000
0000
0001
0100
0000
0000
0100
0001
0000
0000
0001
0010
0000
0000
0010
,
0001
1000
0010
0100
0001
0000
1100
0000
,
0001
0000
0000
0001
0100
0000
0000
0100
1000
0000
0100
0000
0001
0000
0000
0000
,
0010
0000
0000
0010
0001
0000
0000
0001
1000
0000
0010
0000
0001
0000
0000
0000
,
1000
0100
0001
0000
0010
0100
1000
0000
,
1001
0000
0010
0010
,
0100
0000
0000
0100
1000
0000
0010
0000
1010
0000
0000
0000
0000
0000
0000
0000
,
0100
0000
0000
0100
0001
0000
0010
0000
0011
0000
0000
0000
0000
0000
0000
0000
,
1000
0100
0001
0000
0001
0100
1000
0000
,
0102
0000
0010
0013
,
0100
0000
0000
0100
1000
0000
0000
1000
0001
0000
0100
0000
0010
0000
0000
0000
,
0100
0000
0000
0100
0001
0000
0000
0001
1000
0000
0001
0000
0100
0000
0000
0000
,
0010
0000
0000
0010
1000
0000
0000
0000
0001
0000
0000
0001
0010
0000
0000
0000
,
2200
0000
0000
3300
,
1000
0010
0001
0100
,
1000
0000
0000
1000
0010
0000
1000
0000
2020
0000
0000
0000
3030
0000
0000
0000
,
0001
0000
0000
0001
0010
0000
0001
0000
0022
0000
0000
0000
0033
0000
0000
0000
,
0100
0000
0000
0100
1000
0000
0010
0000
1000
0000
0000
0000
0001
0000
0000
0000
,
0010
0000
0000
0010
0001
0000
1000
0000
0010
0000
0000
0000
0100
0000
0000
0000
,
0001
0000
0000
0001
0010
0000
1000
0000
0001
0000
0000
0001
0100
0000
1000
0000
,
0010
0000
0000
0010
1000
0000
0001
0000
0100
0000
0000
0100
0010
0000
1000
0000
,
0100
0000
1000
0000
0010
0100
0001
0000
,
1000
0100
0001
0010
,
0001
0100
0010
0000
0100
0001
0010
1000
,
0220
0000
0000
0330
,
2002
0000
0000
3003
;

//---------------dance-double - ----------------
#NOTES:
     dance-double:
     :
     Easy:
     4:
     0.206,0.229,0.089,0.122,0.000:
00000000
00000000
00000000
00000000
,
00000000
00000000
00000000
00000000
,
00000000
00000000
00000000
00000000
,
00000000
00000000
00000000
00000000
,
00000000
00000000
00000000
00000000
,
00000000
00000000
00000000
00000000
,
00000001
00000010
00000100
00000000
,
00000010
00000000
00001000
00000000
,
00010000
01000000
00010000
00000000
,
10000000
10000000
00010000
00010000
,
10000000
01000000
00100000
00000000
,
10000000
00000000
00010000
00000000
,
00002000
00000000
00000000
00003000
,
00000220
00000000
00000000
00000330
,
00000100
00000001
00000010
00001000
,
00010000
00000000
00100000
00000000
,
01000000
00010000
01000000
10000000
,
01100000
00000000
00000000
00000000
,
10000000
10000000
01000000
00010000
,
00001000
00001000
00000100
00000001
,
00000100
00001000
00000100
00000001
,
00001000
00000000
00010000
00000000
,
00100000
00100000
00010000
00001000
,
00000010
00000010
00001000
00010000
,
00100000
00010000
00100000
10000000
,
01000000
00000000
01000000
01000000
,
00010000
00001000
00011000
00000000
,
00000010
00000001
00001001
00000000
,
00000100
00000100
00001000
00001000
,
00020000
00000000
00000000
00030000
,
00100000
00100000
01000000
10000000
,
00100000
00100000
01000000
00010000
,
10000000
00000000
00010000
00000000
,
20020000
00000000
00000000
30030000
,
01000000
00010000
00001000
00000010
,
00000002
00000000
00000103
00000000
,
00002000
00000000
00003100
00000000
,
00000010
00010000
00001000
00000000
,
00100000
00001000
00010000
00000000
,
00010000
01000000
10000000
00000000
,
10000000
01000000
00010000
00000000
,
00011000
00000000
00000100
00000000
,
00000001
00000010
00001000
00000001
,
00000110
00000000
00001000
00000000
,
00022000
00000000
00000000
00033000
,
02000000
00000000
00000000
03000000
;

//---------------dance-double - ----------------
#NOTES:
     dance-double:
     :
     Medium:
     6:
     0.304,0.381,0.211,0.133,0.017:
00000000
00000000
00000000
00000000
,
00000000
00000000
00000000
00000000
,
00000000
00000000
00000000
00000000
,
00000000
00000000
00000000
00000000
,
00000000
00000000
00000000
00000000
,
00000000
00000000
00000000
00000000
,
00010000
00000000
00100000
00000000
01000000
00010000
10000000
00000000
,
01000000
10000000
00010000
00100000
,
00001000
00000000
00000000
00010000
00000000
00000000
00000100
00000000
00001000
00000000
00000000
00000000
00000000
00000000
00000000
00000000
,
00010000
00001000
00000010
00001000
,
00010000
00000000
01000000
00000000
00100000
00010000
01000000
00000000
,
00100000
00000000
00010000
00000000
00001000
00000000
00000010
00000100
,
00000010
00000000
00001000
00000100
,
00000202
00000000
00000000
00000303
,
00001000
00000000
00100000
00000000
10000000
00000000
00010000
00100000
,
01000000
00000000
10000000
01000000
,
00100000
00001000
01000000
00010000
,
00021000
00000000
00001000
00031000
,
00001100
00000000
00000101
00000000
00000010
00000001
00000100
00000000
,
00001010
00000000
00011000
00000000
00100000
00010000
10000000
00000000
,
00100000
01000000
10000000
01000000
,
00010000
00001000
00000100
00000001
,
00000011
00000000
00001100
00000000
00000010
00001000
00000001
00000000
,
00001010
00000000
00011000
00000000
00010000
01000000
10000000
00000000
,
00100000
00010000
01000000
00001000
,
00011000
00000000
01000000
01000000
,
00100000
00000000
00100000
00000000
10000000
01000000
00010000
00000000
,
00001000
00000000
00001000
00000000
00000010
00000001
00001000
00000000
,
00000010
00000100
00000001
00000010
,
00002100
00000000
00000100
00003100
,
00010010
00000000
01001000
00000000
00100000
00010000
01000000
00000000
,
11000000
00000000
01010000
00000000
00100000
01000000
10000000
00000000
,
00100000
00010000
00001000
00000010
,
00000220
00000000
00000000
00000330
,
00001000
00000100
00000001
00000100
,
00001000
00000000
00000000
00001000
00000000
00000000
00001000
00000000
00020000
00000000
00000000
00000000
00030000
00000000
00000000
00000000
,
00100000
00000000
00000000
00100000
00000000
00000000
00100000
00000000
02000000
00000000
00000000
00000000
03000000
00000000
00000000
00000000
,
00010000
00000000
00100000
00000000
00001000
00010000
00000010
00000000
,
00000100
00000000
00001000
00000000
00010000
00001000
01000000
00000000
,
00100000
00010000
00001000
00000000
00010000
00001000
00000010
00000000
,
00000100
00001000
00000010
00000000
00000010
00000001
00000100
00000000
,
00000001
00000100
00000010
00001000
,
00010000
01000000
10000000
00100000
,
00010000
00001000
00010000
01000000
,
20020000
00000000
00000000
30030000
,
02200000
00000000
00000000
03300000
;

//---------------dance-double - ----------------
#NOTES:
     dance-double:
     :
     Hard:
     8:
     0.366,0.432,0.089,0.155,0.283:
00000000
00000000
00000000
00000000
,
00000000
00000000
00000000
00000000
,
00000000
00000000
00000000
00000000
,
00000000
00000000
00000000
00000000
,
00000000
00000000
00000000
00000000
,
00000000
00000000
00000000
00000000
,
00000100
00000000
00000000
00000010
00000000
00000000
00001000
00000000
00100000
00000000
00010000
00000000
10000000
00000000
00000000
00000000
,
00100000
00001000
01000000
00000000
00100000
10000000
01000000
00000000
,
00010000
00000000
00000000
00001000
00000000
00000000
00000010
00000000
00000001
00000000
00000000
00000000
00000000
00000000
00000000
00000000
,
00001000
00000100
00010000
00000010
,
00000001
00000000
00000000
00000100
00000000
00000000
00001000
00000000
00010000
00000000
01000000
00000000
00100000
00000000
00000000
00000000
,
00001000
00010000
00100000
00000000
00010000
00001000
00010000
01000000
,
10000000
00100000
00010000
01000000
,
22000000
00000000
00000000
33000000
,
00010000
00000000
00000000
00001000
00000000
00000000
00000010
00000000
00000001
00000000
00000000
00001000
00000000
00000000
00000010
00000000
,
00000100
00000000
00000010
00000100
,
00000001
00000100
00001000
00000000
00010000
01000000
10000000
00000000
,
00020000
00000000
01000000
01030000
,
00100000
00000000
00000000
00100000
01000000
00000000
00000000
01000000
00010000
00000000
00000000
00010000
00100000
00000000
00000000
00100000
,
01000000
00000000
00000000
01000000
00010000
00000000
00000000
00010000
00001000
00000000
00000000
00001000
00000010
00000000
00000000
00000010
,
00000001
00000000
00000000
00000001
00001000
00000000
00000000
00001000
00000010
00000000
00000000
00000010
00000100
00000000
00000000
00000100
,
00000001
00000010
00001000
00010000
,
00100000
00000000
00000000
00100000
00010000
00000000
00000000
00010000
00001000
00000000
00000000
00001000
00010000
00000000
00000000
00010000
,
01000000
00000000
00000000
01000000
10000000
00000000
00000000
10000000
00010000
00000000
00000000
00010000
00100000
00000000
00000000
00100000
,
00010000
10000000
00100000
01000000
,
10010000
00000000
00100000
00100000
,
00010000
00000000
00000000
00010000
00001000
00000000
00000000
00001000
00000010
00000000
00000000
00000010
00000001
00000000
00000000
00000001
,
00001000
00000000
00000000
00001000
00000010
00000000
00000000
00000010
00010000
00000000
00000000
00010000
00000100
00000000
00000000
00000100
,
00000010
00000000
00000000
00000010
00001000
00000000
00000000
00000000
00010000
00000000
00000000
00010000
00100000
00000000
00000000
00000000
,
20010000
00000000
00100000
30100000
,
01000000
00000000
00000000
01000000
00010000
00000000
00000000
00010000
10000000
00000000
00000000
10000000
01000000
00000000
00000000
01000000
,
00010000
00000000
00000000
00010000
00001000
00000000
00000000
00001000
00000100
00000000
00000000
00000100
00000001
00000000
00000000
00000001
,
00000010
00000001
00001000
00000010
,
00000202
00000000
00000000
00000303
,
00001000
00010000
00100000
10000000
,
01000000
00000000
00000000
00010000
00000000
00000000
00001000
00000000
00022000
00000000
00000000
00000000
00033000
00000000
00000000
00000000
,
00000010
00000000
00000000
00000001
00000000
00000000
00001000
00000000
00002002
00000000
00000000
00000000
00003003
00000000
00000000
00000000
,
00010000
00000000
00000000
00010000
01000000
00000000
00100000
00000000
10000000
00000000
00000000
00000000
01000000
00000000
00000000
00000000
,
00100000
00000000
00000000
00100000
00001000
00000000
00010000
00000000
00000100
00000000
00000000
00000000
00000010
00000000
00000000
00000000
,
00000001
00000000
00000000
00000001
00001000
00000000
00000010
00000000
00000100
00000000
00000000
00000100
00001000
00000000
00010000
00000000
,
00100000
00000000
00000000
00100000
00010000
00000000
10000000
00000000
01000000
00000000
00000000
01000000
00100000
00000000
10000000
00000000
,
01000000
00010000
00001000
00000100
,
00000010
00000100
00000001
00000000
00000010
00000100
00010000
00000000
,
00001000
00000010
00000100
00001000
,
00020200
00000000
00000000
00030300
,
02002000
00000000
00000000
03003000
;

//---------------dance-single - LOLDSSN2ONLYNEWSONG----------------
#NOTES:
     dance-single:
     LOLDSSN2ONLYNEWSONG:
     Challenge:
     10:
     0.688,0.762,1.000,0.344,0.122: // measure 1
0000
2002
0000
0000
,  // measure 2
3003
0110
1100
0110
1200
0000
0301
1001
,  // measure 3
0000
1001
0101
1001
0201
0000
1300
2002
,  // measure 4
0000
3003
1001
0202
0000
0300
0010
2000
,  // measure 5
0000
0000
0000
0000
,  // measure 6
0000
0000
0000
0000
0000
0000
0000
3003
,  // measure 7
1001
0000
0000
0001
0110
0000
1000
0000
0110
0000
1001
0000
1001
0000
0000
0000
,  // measure 8
0110
1000
0110
0010
0101
0010
1100
0100
,  // measure 9
1001
0000
0000
0010
0101
0000
1000
0000
0011
0000
0000
0000
1001
0000
0000
0010
,  // measure 10
1001
0000
0000
0000
0110
0000
0000
0100
1001
0000
0000
0000
1010
0000
1000
0000
,  // measure 11
1100
0000
0000
0010
1100
0000
0011
0000
0100
0000
0011
0000
0100
0000
1100
0000
,  // measure 12
0001
1100
0001
1010
1000
0101
1000
0110
,  // measure 13
0010
0000
0000
0000
1100
0000
0000
0001
1010
0000
0000
0000
1010
0000
0000
1000
,  // measure 14
0202
0000
0000
0303
,  // measure 15
0110
0000
0000
0011
0000
0000
1001
0000
0110
0000
0000
1100
0000
0000
0110
0000
,  // measure 16
2002
0000
0000
0000
0000
0000
3003
0000
1010
0000
0000
0101
0000
0000
1010
0000
,  // measure 17
2002
0000
0000
0000
0000
0000
0000
3003
,  // measure 18
0110
0000
1100
0000
0101
0000
0101
1010
,  // measure 19
0000
1010
1100
1010
1100
0000
0110
1001
,  // measure 20
0000
0011
0101
0011
0101
0000
1001
0011
,  // measure 21
0000
0000
0101
1001
0000
0101
0000
1100
,  // measure 22
0000
1001
0101
0000
1010
0000
1100
0101
,  // measure 23
0000
0101
1100
0101
1100
0000
1001
0110
,  // measure 24
0000
1010
0011
1010
0011
0000
0011
1100
,  // measure 25
0000
0000
0101
2020
0000
3030
0101
1010
,  // measure 26
0000
1010
1001
0101
,  // measure 27
0110
1001
0110
1010
0000
1010
0101
0000
,  // measure 28
0101
1010
0110
1001
0000
1001
0110
0110
,  // measure 29
1001
0110
1001
0110
,  // measure 30
2002
0000
0000
3003
0110
0000
1010
0000
,  // measure 31
0110
0000
0000
1010
1010
0000
0000
0101
0101
0000
0110
0000
1010
0000
0000
0000
,  // measure 32
0110
0000
0000
0110
1001
0000
0000
1001
0110
0000
0011
0000
1100
0000
2002
0000
,  // measure 33
0000
0000
0000
0000
0000
0000
3003
0110
,  // measure 34
0000
0000
0101
1010
0000
0000
1001
0110
,  // measure 35
1001
0101
0101
1001
,  // measure 36
1010
0000
0000
0001
1100
0000
1001
0000
2020
0000
0000
0000
3030
0000
0000
0000
,  // measure 37
0110
0000
0000
1000
0101
0000
1001
0000
0022
0000
0000
0000
0033
0000
0000
0000
,  // measure 38
1100
0000
0000
0100
1001
0000
0110
0000
1001
0000
0000
0000
0101
0000
0000
0000
,  // measure 39
1010
0000
0000
0010
1001
0000
1100
0000
0011
0000
0000
0000
0110
0000
0000
0000
,  // measure 40
1001
0000
0000
0001
0110
0000
1001
0000
1001
0000
0000
0001
0110
0000
1001
0000
,  // measure 41
0110
0000
0000
0010
1001
0000
0110
0000
1001
0000
0000
0100
1001
0000
0110
0000
,  // measure 42
2002
0000
0000
0000
0000
0000
3003
0110
,  // measure 43
1001
0000
1010
0011
0000
0000
1010
0000
,  // measure 44
0011
1100
0101
1001
,  // measure 45
0220
0000
0000
0000
0000
0000
0000
0330
,  // measure 46
2002
0000
0000
3003
;
