#VERSION:0.83;
#TITLE:trezire de spirit;
#SUBTITLE:;
#ARTIST:倉持武志;
#TITLETRANSLIT:;
#SUBTITLETRANSLIT:;
#ARTISTTRANSLIT:TAKESHI KURAMOCHI;
#GENRE:CASTLEVANIA SLOT;
#ORIGIN:;
#CREDIT:;
#BANNER:trezire de spirit.png;
#BACKGROUND:trezire de spirit-bg.png;
#PREVIEWVID:;
#JACKET:trezire de spirit-jacket.png;
#CDIMAGE:;
#DISCIMAGE:;
#LYRICSPATH:;
#CDTITLE:;
#MUSIC:trezire de spirit.ogg;
#OFFSET:-0.263000;
#SAMPLESTART:14.565000;
#SAMPLELENGTH:14.840000;
#SELECTABLE:YES;
#BPMS:0.000=268.000,
272.000=134.000,
304.000=268.000;
#STOPS:;
#DELAYS:;
#WARPS:;
#TIMESIGNATURES:0.000=4=4;
#TICKCOUNTS:0.000=4;
#COMBOS:0.000=1;
#SPEEDS:0.000=1.000=0.000=0;
#SCROLLS:0.000=1.000;
#FAKES:;
#LABELS:0.000=Song Start;
#BGCHANGES:;
#KEYSOUNDS:;
#ATTACKS:
;

//---------------dance-single - ----------------
#NOTEDATA:;
#CHARTNAME:;
#STEPSTYPE:dance-single;
#DESCRIPTION:;
#CHARTSTYLE:;
#DIFFICULTY:Hard;
#METER:15;
#RADARVALUES:0.715145,0.924401,0.185065,0.740261,0.078653,541.000000,521.000000,20.000000,80.000000,27.000000,0.000000,0.000000,0.000000,0.000000,0.715145,0.924401,0.185065,0.740261,0.078653,541.000000,521.000000,20.000000,80.000000,27.000000,0.000000,0.000000,0.000000,0.000000;
#CREDIT:BlindedVanguard573;
#NOTES:
0000
0000
0000
0000
,
0000
0000
0000
0000
,
0000
0000
0000
0000
,
0000
0000
0000
0000
,
0000
0000
0000
0000
,
0000
0000
0000
0000
,
0000
0000
0000
0000
,
0000
0000
0000
0000
,
0001
0000
0100
0010
1000
0010
0100
0002
,
0000
0000
0020
0033
,
0001
0010
0100
1000
0001
0100
0010
1000
,
0001
1000
0100
0010
0001
1000
0010
0100
,
0001
0000
0100
0010
0000
0100
1000
0000
,
0100
0010
0000
0100
0001
0010
0100
2000
,
0010
0000
0002
0003
,
3100
0000
1000
0001
0100
0001
1000
0010
,
1000
0000
0001
0000
0010
0100
1000
0000
,
0001
0000
1000
0010
0100
0010
1000
0000
,
0001
0000
1000
0000
0010
0100
0001
0000
,
1000
0000
0001
0010
0100
0010
0001
0000
,
2000
0100
3002
0100
,
2003
3200
0320
2030
,
3020
0000
0031
0000
1000
0010
0100
0000
,
0002
0000
1003
0100
0010
0100
1000
0000
,
0002
0000
0103
0000
0010
0100
0001
0000
,
1000
0000
0100
0010
0001
1000
0001
0000
,
1000
0000
0010
0000
0100
0010
1000
0000
,
0001
0000
0010
0100
1000
0001
1000
0000
,
0002
0103
0020
0230
,
2300
3100
0002
2003
,
3001
0000
0100
00M0
0100
0000
1000
0000
0100
00M0
0100
0000
0001
0000
0000
0000
,
1000
0100
0010
0001
2000
0000
3000
0000
,
0001
0000
0100
0000
0010
1000
0100
0000
,
1000
0000
0001
0010
0001
1000
0100
0000
,
1000
0000
0010
0000
0100
0001
0010
0000
,
0100
0000
1000
0010
1000
0001
0100
0000
,
0002
0010
2003
0100
,
3002
0203
0320
0032
,
0023
1000
0130
0020
,
2030
0000
3100
0000
0010
0001
1000
0000
,
2010
0001
3100
1000
,
0012
1000
0103
0001
,
2100
3010
0102
0013
,
2001
0000
0100
0000
3001
0010
0100
1000
,
0002
0100
1000
0100
,
0010
0103
0001
1000
,
1001
0000
0000
1100
0000
M000
0102
0000
,
1003
0000
0001
0010
0100
1000
0100
0010
,
0001
0100
0010
0000
00M1
0100
0010
0000
,
1000
0100
0010
0000
10M0
0100
0010
0000
,
0001
1000
0100
0000
0M01
1000
0100
0000
,
1000
0001
0100
0000
1M00
0001
0100
0000
,
0001
0010
0100
0000
0M01
0010
0100
0000
,
1000
0010
0100
0000
1M00
0010
0100
0000
,
0001
1000
0010
0000
00M1
1000
0010
0000
,
1000
0001
0010
0000
10M0
0001
0010
0000
,
0001
1000
0100
1000
0010
0M00
0010
0000
,
0001
0100
0001
1000
0010
0M00
0010
0000
,
0100
1000
0001
0100
0010
0M00
0010
0000
,
0001
1000
0010
0100
0010
0M00
0010
0000
,
0001
0000
1000
0000
0010
0000
0100
0000
0001
0000
1000
0000
0001
0000
0100
00M0
,
0100
0000
1000
0000
0001
0000
0100
0000
0010
0000
1000
0000
0001
0000
0010
0M00
,
0010
0000
1000
0000
0001
0000
0100
0000
0010
0000
1000
0000
0001
0000
0100
00M0
,
0100
0000
1000
0000
0001
0000
0100
0000
0010
0000
1000
0000
0001
0000
0010
0M00
,
0010
0000
1000
0000
0100
0000
0010
0000
0001
0000
0100
0000
0001
0000
0010
0M00
,
0010
1000
0001
0010
0100
1000
0001
0000
,
2002
0000
0000
0000
,
0000
0000
3003
0000
,
0002
0100
2003
0010
,
3002
0000
0010
0000
2003
0000
3100
1000
,
0001
0000
0100
0000
0100
0010
0100
1000
,
0200
0310
2000
3001
,
2000
0000
0100
0000
3001
0010
0001
1000
,
0002
0000
0203
0000
2300
0000
3100
0010
,
2000
0000
3100
1000
0020
0000
0130
0001
,
0020
0000
0000
0000
0200
0330
1001
0000
,
1000
0000
0010
0000
0100
0001
0010
0000
,
0001
0000
1000
0100
1000
0001
0010
0000
,
0001
0000
0100
0000
0010
1000
0100
0000
,
0010
0000
0001
0100
0001
1000
0010
0000
,
2000
0100
3002
0010
,
2003
3020
0230
2300
,
3200
0001
0310
0200
,
0302
0000
0013
0000
0100
1000
0001
0000
,
0102
1000
0013
0001
,
2100
0000
0001
0000
3010
1000
0010
0100
,
0002
0000
0000
0000
0000
0000
0000
0000
1003
0000
0000
0000
0000
0000
0100
0010
,
0100
0000
0000
1000
0000
0000
0001
0000
,
0012
0000
0103
0000
,
2010
0000
3100
0000
,
1002
0000
0100
0000
,
1003
0100
0010
0001
2000
0000
3000
0000
,
1001
0000
0001
0100
0010
0100
1000
0200
,
0000
0000
0020
0030
,
0001
0000
2000
3300
,
0100
0010
1000
0001
0010
0100
1000
0000
,
2100
0000
3001
0100
,
0001
0000
0010
0M00
0010
0000
1000
0000
0010
0M00
0010
0000
0001
0000
0000
0000
,
0012
0000
1003
0000
,
2020
0000
3030
1000
0010
0M00
0010
0001
,
1000
0000
0001
0010
0100
0010
1000
0020
,
0000
0000
0002
0033
,
0010
0001
0100
0010
1000
0100
0010
0001
,
0100
0010
1000
0001
0010
0100
1000
0001
,
1000
0000
0100
00M0
0100
0000
0001
0000
0100
00M0
0100
0000
1000
0000
0010
0M00
,
0010
0000
0001
0000
0010
0M00
0010
0000
1000
0010
1000
0000
0010
0000
2000
0000
,
0000
0000
0010
0000
,
0001
0000
0200
3300
,
1001
0000
0001
0100
0010
0100
0000
0001
,
0100
0000
0000
0000
0000
0000
0001
0000
0000
1000
0000
0000
0001
0000
0010
0000
0100
0000
1000
0000
0000
0002
0000
0000
,
0000
0000
0000
0000
,
0003
0000
0000
0000
;

//---------------dance-single - ----------------
#NOTEDATA:;
#CHARTNAME:;
#STEPSTYPE:dance-single;
#DESCRIPTION:;
#CHARTSTYLE:;
#DIFFICULTY:Beginner;
#METER:4;
#RADARVALUES:0.235297,0.410845,0.027760,0.074026,0.000000,178.000000,175.000000,3.000000,8.000000,0.000000,0.000000,0.000000,0.000000,0.000000,0.235297,0.410845,0.027760,0.074026,0.000000,178.000000,175.000000,3.000000,8.000000,0.000000,0.000000,0.000000,0.000000,0.000000;
#CREDIT:BlindedVanguard573;
#NOTES:
0000
0000
0000
0000
,
0000
0000
0000
0000
,
0000
0000
0000
0000
,
0000
0000
0000
0000
,
0000
0000
0000
0000
,
0000
0000
0000
0000
,
0000
0000
0000
0000
,
0000
0000
0000
0000
,
0010
0000
0010
0000
,
0010
0000
0000
0000
,
0100
0000
0000
0000
,
0001
0000
0000
0000
,
1000
0000
1000
0000
,
1000
0000
1000
0000
,
1000
0000
0000
0000
,
1001
0000
0000
0000
,
0001
0000
0000
0000
,
0010
0000
0010
0000
,
0010
0000
0000
0000
,
0100
0000
0100
0000
,
0100
0000
0100
0000
,
1000
0000
1000
0000
,
1000
0000
0000
0000
,
0010
0000
0000
0000
,
0100
0000
0000
0000
,
0001
0000
0001
0000
,
0001
0000
0001
0000
,
0010
0000
0010
0000
,
0010
0000
0010
0000
,
0100
0000
0100
0000
,
0100
0000
0000
0000
,
1000
0000
0000
0000
,
0001
0000
0000
0000
,
0100
0000
0100
0000
,
0100
0000
0000
0000
,
0010
0000
0010
0000
,
0010
0000
0010
0000
,
1000
0000
1000
0000
,
1000
0000
0000
0000
,
0001
0000
0000
0000
,
0010
0000
0000
0000
,
0100
0000
0100
0000
,
0100
0000
0100
0000
,
1000
0000
1000
0000
,
2000
0000
0000
0000
,
0000
0000
3000
0000
,
0002
0000
0000
0000
,
0000
0000
0003
0000
,
0001
0001
0001
0000
,
0010
0000
0000
0000
,
0100
0100
0100
0000
,
1000
0000
0000
0000
,
0001
0001
0001
0000
,
0100
0000
0000
0000
,
0010
0010
0010
0000
,
1000
0000
0000
0000
,
0001
0001
0001
0000
,
0010
0000
0100
0000
,
1000
1000
1000
0000
,
0001
0000
0100
0000
,
0010
0010
0010
0000
,
0100
0100
0100
0000
,
0001
0001
0001
0000
,
1000
1000
1000
0000
,
0100
0100
0100
0000
,
0010
0010
0010
0010
,
0020
0000
0000
0000
,
0000
0000
0030
0000
,
0001
0000
0010
0000
,
0100
0000
1000
0000
,
0001
0000
0100
0000
,
0010
0000
1000
0000
,
0001
0000
1000
0000
,
0100
0000
0010
0000
,
0001
0000
0100
0000
,
0010
0000
0100
0000
,
0001
0000
0000
0000
,
0100
0000
0100
0000
,
0100
0000
0000
0000
,
0010
0000
0010
0000
,
0010
0000
0010
0000
,
1000
0000
1000
0000
,
1000
0000
0000
0000
,
0001
0000
0000
0000
,
0010
0000
0000
0000
,
0100
0000
0100
0000
,
0100
0000
0100
0000
,
1000
0000
1000
0000
,
1000
0000
0000
0000
,
0001
0000
0000
0000
,
2002
0000
0000
0000
,
0000
0000
3003
0000
,
0001
0001
0001
0001
,
0001
0000
0000
0000
,
0010
0000
0000
0000
,
0100
0000
0000
0000
,
1000
0000
0000
0000
,
0010
0000
0010
0000
,
0010
0000
0000
0000
,
0100
0000
0000
0000
,
0001
0001
0001
0001
,
0001
0000
0000
0000
,
0010
0000
0010
0000
,
0100
0000
0100
0000
,
1000
0000
0001
0000
,
1000
0000
0001
0000
,
2002
0000
0000
0000
,
0000
0000
3003
0000
,
0001
0001
0001
0000
,
0010
0010
0010
0010
,
0020
0000
0000
0000
,
0030
0000
0000
0000
;

//---------------dance-single - ----------------
#NOTEDATA:;
#CHARTNAME:;
#STEPSTYPE:dance-single;
#DESCRIPTION:;
#CHARTSTYLE:;
#DIFFICULTY:Easy;
#METER:8;
#RADARVALUES:0.405822,0.513556,0.074026,0.240585,0.000000,307.000000,299.000000,8.000000,26.000000,0.000000,0.000000,0.000000,0.000000,0.000000,0.405822,0.513556,0.074026,0.240585,0.000000,307.000000,299.000000,8.000000,26.000000,0.000000,0.000000,0.000000,0.000000,0.000000;
#CREDIT:BlindedVanguard573;
#NOTES:
0000
0000
0000
0000
,
0000
0000
0000
0000
,
0000
0000
0000
0000
,
0000
0000
0000
0000
,
0000
0000
0000
0000
,
0000
0000
0000
0000
,
0000
0000
0000
0000
,
0000
0000
0000
0000
,
0001
0010
0100
0000
,
2000
0000
3000
0000
,
0001
0000
0100
0000
,
1000
0000
0100
0000
,
0001
0010
0100
0000
,
1000
0010
0100
0001
,
0020
0000
0000
0000
,
0130
1000
0001
0010
,
0001
0000
0100
0000
,
0010
0000
1000
0001
,
0010
0000
0100
0000
,
1000
0000
0001
0100
,
0010
0000
0100
0000
,
0001
0010
0100
0001
,
0200
0000
0310
0000
,
0002
0000
1003
0000
,
0001
0000
0100
0000
,
0010
1000
0100
0010
,
0100
0000
1000
0000
,
0001
0100
0010
0100
,
0001
0000
0010
0100
,
0001
0000
0100
0010
,
0001
0000
0000
0001
,
1000
0000
1001
0000
,
1000
0000
0010
0000
,
0100
0000
0001
0010
,
0100
0000
1000
0000
,
0001
0000
0010
0001
,
0100
0000
0010
0000
,
0100
0001
0010
1000
,
0010
0000
0100
1000
,
0001
0000
0010
0000
,
1001
0000
0100
0000
,
1000
0010
0100
0010
,
0001
0000
0010
0000
,
1000
0100
0010
0001
,
2000
0000
0010
0000
,
3010
0000
1000
0000
,
0002
0000
0010
0000
,
0013
0000
0001
0000
,
1000
0010
0100
0010
,
1000
0100
0010
0100
,
1000
0001
0100
0001
,
0010
0100
2000
0100
,
3001
0010
0100
0010
,
0001
0100
0010
0100
,
0001
1000
0100
1000
,
0010
0100
0002
0100
,
1003
0100
0001
0100
,
1000
0010
0001
0010
,
1000
0100
0001
1000
,
0010
0001
0100
1000
,
0001
0010
0100
0001
,
0010
0100
1000
0001
,
0100
0010
1000
0100
,
0010
0001
0100
0010
,
1000
0100
0001
0100
,
1000
0000
0010
0000
0100
0001
1000
0000
,
0002
0000
0000
0000
,
0000
0000
0003
0000
,
0001
0100
0010
1000
,
0002
0003
2000
3000
,
0001
0010
0100
0001
,
0200
0300
0020
0030
,
0001
0100
0010
1000
,
0100
0010
0100
1000
,
0001
0100
1000
0100
,
0020
0000
0130
1001
,
0001
0000
0100
0000
,
0010
0000
1000
0001
,
0010
0000
0100
0000
,
1000
0000
0001
0100
,
0010
0000
0100
0000
,
0001
0010
0100
0001
,
0200
0000
0310
0000
,
0002
0000
1003
0000
,
1001
0000
0100
0000
,
1000
0010
0100
0010
,
0001
0000
0010
0000
,
1000
0100
0010
0001
,
2000
0000
0010
0000
,
3002
0000
0010
0000
,
2003
0000
0000
0000
,
3001
1000
1001
0000
,
0001
0000
0100
0000
0010
0000
0100
0002
,
0000
0000
0010
0000
,
1000
0000
0100
0000
,
0013
0001
0100
0010
,
2000
0000
3001
0010
,
0100
0000
0000
1000
0000
0000
0001
0000
,
0102
0000
0013
0000
,
2100
0000
3010
0000
,
1000
0000
0100
0000
0010
0000
0100
2000
,
0000
0000
0010
0000
,
3001
0100
1000
0100
,
0001
0010
1000
0010
,
0001
0000
0000
0100
0000
0000
1000
0000
,
0000
0100
0000
0000
0010
0000
1000
0000
,
0002
0000
0010
0000
,
1003
0000
1001
0000
,
0001
0000
0100
0000
0010
1000
0000
0000
,
0001
0000
0010
0000
0100
0000
1000
0002
,
0000
0000
0000
0000
,
0003
0000
0000
0000
;

//---------------dance-single - ----------------
#NOTEDATA:;
#CHARTNAME:;
#STEPSTYPE:dance-single;
#DESCRIPTION:;
#CHARTSTYLE:;
#DIFFICULTY:Medium;
#METER:12;
#RADARVALUES:0.584277,0.770334,0.037013,0.508929,0.000000,442.000000,438.000000,4.000000,55.000000,0.000000,0.000000,0.000000,0.000000,0.000000,0.584277,0.770334,0.037013,0.508929,0.000000,442.000000,438.000000,4.000000,55.000000,0.000000,0.000000,0.000000,0.000000,0.000000;
#CREDIT:BlindedVanguard573;
#NOTES:
0000
0000
0000
0000
,
0000
0000
0000
0000
,
0000
0000
0000
0000
,
0000
0000
0000
0000
,
0000
0000
0000
0000
,
0000
0000
0000
0000
,
0000
0000
0000
0000
,
0000
0000
0000
0000
,
0001
0000
0100
0000
0010
0000
1000
0002
,
0000
0003
0020
0030
,
0100
1000
0010
1000
,
0100
0010
0001
0010
,
0100
0000
0000
1100
0000
0000
1000
0000
,
0000
1001
0000
0000
0001
0000
0100
0020
,
0000
0000
0130
0000
,
0010
0000
1000
0000
0001
0010
0100
1000
,
0001
0000
0100
0000
0010
1000
0010
0000
,
0100
0000
0001
1000
0001
0000
1000
0000
,
0100
0000
0010
0000
0001
0010
0001
0000
,
0010
0000
0100
1000
0001
0000
1000
0000
,
0002
0100
2003
0100
,
3001
0100
0010
0001
,
0020
0130
0001
0010
,
0200
0000
0310
0000
0001
1000
0001
0000
,
1000
0000
0010
0000
0100
0001
0100
0000
,
0010
0000
1000
0100
1000
0000
0001
0000
,
1000
0000
0010
0000
0100
0001
0100
0000
,
0001
0000
0010
0100
1000
0000
0001
0000
,
2000
0010
3002
0023
,
0230
1000
0310
0001
,
1000
0000
0000
0001
0000
0000
1001
0000
,
0001
0100
0010
1000
0002
0000
0003
0000
,
0001
0000
0100
0000
0010
1000
0010
0000
,
0100
0000
0001
1000
0001
0000
1000
0000
,
0100
0000
0010
0000
0001
0010
0001
0000
,
0010
0000
0100
1000
0001
0000
1000
0000
,
0002
0100
2003
0100
,
3001
0100
0010
0001
,
0020
0130
0001
0010
,
0200
0000
0310
0000
0001
1000
0001
0000
,
2000
0000
3100
0000
0010
0001
0100
0000
,
0002
0000
0013
0000
0100
1000
0001
0000
,
2000
0010
3002
0010
,
2003
3200
0320
0032
,
1003
0010
0001
0010
,
0100
0010
1000
0100
,
0010
0000
0000
0100
0000
0000
1000
0000
,
0002
0003
2000
3000
,
0001
0100
0001
0000
0100
0000
0010
0000
,
1000
0010
1000
0000
0010
0000
0100
0000
,
0001
0010
0001
0000
0010
0000
0100
0000
,
1000
0100
1000
0000
0100
0000
0010
0000
,
0001
1000
0100
0000
1000
0000
0010
0000
,
0100
0001
0010
0000
0100
0000
1000
0000
,
0001
1000
0010
0000
0100
0000
0001
0000
,
0010
0001
0100
0000
0010
0000
1000
0000
,
0100
0010
0001
0010
0100
0000
1000
0000
,
0001
0100
0010
0100
0001
0000
1000
0000
,
0100
0010
0001
1000
0100
0000
1000
0000
,
0010
0100
0001
1000
0010
0000
0100
0000
,
0001
0000
0010
0100
1000
0100
0010
0000
,
0001
0000
0100
0010
1000
0010
0100
0000
,
0001
0000
1000
0001
0010
0100
1000
0000
,
0001
0000
1000
0010
0100
0001
1000
0000
,
0001
0010
0100
0010
0001
1000
0100
0000
,
1000
0010
0100
0010
1000
0001
0100
0000
,
0020
0000
0000
0000
,
0000
0000
0030
0000
,
1000
0010
0100
0001
,
1000
0100
0010
0001
,
1000
0100
0010
1000
,
0020
0030
0002
0003
,
1000
0010
0100
0001
,
1000
0100
0010
0001
,
1000
0010
0001
0010
,
0200
0300
0010
1001
,
0001
0000
0100
0000
0010
1000
0010
0000
,
0100
0000
0001
1000
0001
0000
1000
0000
,
0100
0000
0010
0000
0001
0010
0001
0000
,
0010
0000
0100
1000
0001
0000
1000
0000
,
0002
0100
2003
0100
,
3001
0100
0010
0001
,
0020
0130
0001
0010
,
0200
0000
0310
0000
0001
1000
0001
0000
,
2000
0010
3001
1000
,
0002
0000
0010
0000
1003
0100
0010
0001
,
0200
0300
0020
0030
,
2000
3200
0302
0203
,
0320
0000
0031
0100
,
0020
0000
1030
0100
,
0020
0000
0000
0000
,
0130
1000
0001
0010
0002
0000
0003
0000
,
1000
0000
0010
0100
0010
0100
0001
0200
,
0000
0000
0010
0000
,
0302
0000
0010
0000
,
2003
0000
0010
0000
,
3002
0000
0013
0100
,
1000
0000
0010
0100
0000
0010
1000
0000
,
0002
0000
0010
0000
,
2003
0000
0100
0000
,
3001
0000
0100
0010
1000
0010
0100
0002
,
0000
0000
0010
0000
,
1003
0000
0010
1000
0001
0000
0010
0001
,
1000
0000
0100
1000
0001
0000
0100
0001
,
1000
0000
0010
0100
0000
0001
0100
0000
,
0001
0010
0000
0100
1000
0000
0001
0200
,
0000
0000
0010
0000
,
0001
0000
1300
0100
,
0001
0000
0010
0100
0010
0100
0000
1000
,
0001
0000
1000
0100
0010
0001
0100
0020
,
0000
0000
0000
0000
,
0030
0000
0000
0000
;
