#VERSION:0.83;
#TITLE:mind the gap;
#SUBTITLE:;
#ARTIST:Osamu Kubota;
#TITLETRANSLIT:;
#SUBTITLETRANSLIT:;
#ARTISTTRANSLIT:;
#GENRE:UK PROGRESSIVE;
#CREDIT:;
#MUSIC:mind the gap.ogg;
#BANNER:mind the gap.png;
#BACKGROUND:mind the gap-bg.png;
#CDTITLE:;
#SAMPLESTART:73.197;
#SAMPLELENGTH:15.000;
#SELECTABLE:YES;
#OFFSET:0.254;
#BPMS:0.000=98.000
,50.000=147.000
,98.000=98.000
,120.000=147.000
,143.000=154.000
,143.917=98.000
;
#STOPS:;
#DISPLAYBPM:98.000:147.000;
#BGCHANGES:0.000=mind the gap.mp4=1.000=0=0=0=StretchNoLoop====,
99999.000=-nosongbg-=1.000=0=0=0=StretchNoLoop====
;
#FGCHANGES:;

//--------------- dance-single - ----------------
#NOTEDATA:;
#STEPSTYPE:dance-single;
#DESCRIPTION:;
#DIFFICULTY:Hard;
#METER:13;
#RADARVALUES:0,0,0,0,0;
#CREDIT:;
#NOTES:
0000
0000
0000
0000
,
0000
0000
0000
0000
,
1000
0000
1000
0000
0100
0000
0010
0001
0000
1000
0000
0020
0000
0000
0130
0000
,
0100
0000
0001
0000
0010
0100
0000
1000
0000
0020
0000
0000
1030
0000
0100
0000
,
0010
0000
0100
0010
0000
0001
0000
1000
0000
0001
0100
0000
0010
0000
1000
0000
,
0001
0010
0000
0100
0000
1000
0000
0010
0100
0000
0001
0000
0010
0000
0100
2000
,
0000
0000
0000
0000
3000
0000
0001
0000
1000
0000
0010
0000
0100
2000
0000
0000
,
0000
3200
0000
0000
0301
0010
0001
0020
0000
0030
0100
1000
0100
2000
0000
3000
,
0010
0100
0010
0200
0000
0300
0001
0000
0010
0100
0000
1000
0010
0000
0000
0000
,
1001
0000
0000
0100
0000
0011
0000
0000
,
0100
0000
1010
0000
0000
1100
0000
0101
,
0000
2002
0000
0000
,
0000
0000
0000
0000
0000
0000
0000
0000
0000
0000
0000
0000
0000
0000
0000
0000
0000
0000
0000
0000
0000
0000
0000
0000
0000
0000
0000
0000
0000
0000
0000
0000
0000
0000
0000
0000
0000
0000
0000
0000
0000
0000
0000
0000
0000
0000
0000
0000
3003
0000
0000
0000
0000
0000
0000
0000
0000
0000
0000
0000
0000
0000
0000
0000
0000
0001
0000
0000
0000
0000
0000
0000
0000
0000
0000
0000
0000
0000
0000
0000
0000
0001
0000
0000
0000
0000
0000
0000
0000
1000
0000
0000
0000
0000
0000
0000
0001
0000
0000
0000
0000
0000
0000
0000
0000
0000
0000
0000
0000
0000
0000
0000
0000
0000
0000
0000
0000
0000
0000
0000
0010
0000
0000
0000
0000
0000
0000
0000
0000
0000
0000
0000
0000
0000
0000
0000
0000
0000
0000
0000
0000
0000
0000
0000
0100
0000
0000
0000
0000
0000
0000
0000
0000
0000
0000
0000
0000
0000
0000
0000
0000
0000
0000
0000
0000
0000
0000
0000
1000
0000
0000
0000
0000
0000
0000
0000
0000
0000
0000
0000
0000
0000
0000
0000
0000
0000
0000
0000
0000
0000
0000
0000
,
0100
0000
0010
0000
0001
0000
1000
0000
0010
0000
0100
0000
0001
0200
0000
0000
,
0010
0010
0001
0001
,
0010
0000
0000
0000
0310
0000
0000
0000
0000
0000
1000
0010
1000
0000
0001
0010
,
0001
0000
1000
0100
1000
0000
0001
0100
0001
0000
0010
0100
1000
0000
0010
0100
,
0001
0000
1000
0100
0010
0000
0001
0100
0010
0000
1000
0001
0010
0000
0100
1000
,
0002
0000
0000
0000
0003
0000
0000
0000
0200
0000
0010
0000
0000
0010
0000
0000
,
0010
0000
0000
0301
0000
0000
0000
0000
1000
0000
0010
0000
0001
0000
0010
0000
,
1000
0000
0100
0000
0001
0000
0100
0000
1000
0000
0001
0000
0010
0000
0100
1000
,
0000
0010
0200
0000
0000
0000
0000
0000
0000
0000
0001
0000
0000
0001
0000
0000
,
0001
0000
0000
0300
0000
0000
1000
0000
0010
0000
0100
0001
0000
0100
0001
0000
,
0010
0001
0000
0010
0001
0000
1000
0010
0000
0100
0001
0000
0010
0100
0000
1000
,
0010
0000
0100
0001
0000
0000
0000
0000
1001
0000
0000
0000
1010
0000
1010
0000
,
0000
0011
0011
0000
0001
0100
1000
0101
,
0000
0011
0011
0000
1010
1010
0000
1000
,
0100
0000
0001
0000
0100
0000
1000
1000
0000
0010
1000
0000
0001
0001
0000
0010
,
0001
0000
1000
1000
0000
0010
0100
0000
0100
0000
0001
0010
0100
1000
0100
0010
,
0001
0010
0100
1000
0100
0010
0001
0010
0100
1000
0100
0010
0001
0100
0010
1000
,
0000
0000
0100
0000
0000
0100
0000
0000
2200
0000
0000
0000
3300
0000
0000
0000
,
1000
0000
0010
0000
0100
0000
0001
0100
0000
0001
0100
0000
0001
0010
0000
0001
,
0010
0000
0100
0000
1000
0000
0010
0000
0100
0000
0001
0000
0010
0001
0000
0010
,
0000
0000
0000
0000
0001
0000
0000
0000
0200
0000
0000
0000
0000
0000
0000
0000
0300
0000
0001
0000
0000
0010
0000
0000
0001
0000
0000
0000
0000
1000
0000
0000
,
0010
0000
0000
0000
0000
0000
0000
0000
0000
1000
0000
0000
0000
0000
0000
0000
0000
0000
0000
0000
0000
0000
0000
0000
0001
0000
0000
0000
0000
0000
0000
0000
0000
0010
0000
0000
0000
0000
0000
0000
0000
0000
0200
0000
0000
0000
0000
0000
0000
0000
0000
0000
0000
0000
0000
0000
0000
0000
0000
0000
1000
0000
0000
0000
0000
0000
0000
0000
0000
0000
0000
0000
0000
0000
0000
0000
1000
0000
0000
0000
0000
0000
0000
0000
0000
0000
0000
0000
0000
0000
0000
0000
1000
0000
0000
0000
,
0000
0000
1000
0000
1000
0000
1000
0000
1000
0000
1300
0000
1000
0001
1000
0001
,
1000
0000
0001
0000
0010
0000
0001
0100
0000
0100
0000
0020
0000
0000
1030
0000
,
0100
0000
0100
0000
1000
0010
0000
0100
0000
0002
0000
0000
1003
0000
1000
0000
,
0100
0000
0001
0100
0000
1000
0000
1010
0000
0000
0001
0000
0100
0000
1000
0000
,
0100
0001
0000
0101
0000
0101
0000
0100
0010
0000
1000
0000
0001
0000
0010
0200
,
0000
0000
0000
0000
0300
0000
1000
0000
0010
0000
0100
0000
0001
0020
0000
0000
,
0000
0230
0000
0000
1300
0001
0001
0200
0000
0000
0310
1000
1000
0002
0000
0000
,
0013
0100
0100
1000
0100
0100
0010
0001
1000
0001
0100
0010
1000
0000
1100
0000
,
0101
0000
0001
0010
0000
0110
0000
1001
0000
1000
0010
0000
0110
0000
0101
0000
,
0001
0010
0000
0011
0000
0011
0000
0000
0001
0100
0010
1000
0100
0000
0010
0001
,
0000
0101
0000
1100
0000
0000
1000
0010
0100
0001
0010
0000
0100
1000
0000
0010
,
0000
0100
0000
0001
0010
0000
0011
0000
0000
0101
0000
0101
0000
0000
1100
0000
,
1100
0000
0000
1000
0010
0001
1000
0100
0001
0010
0000
0000
0000
0000
0000
0000
,
0000
0000
0000
0000
0000
0000
0000
0000
0000
2002
0000
0000
0000
0000
0000
0000
0000
0000
0000
0000
0000
0000
0000
0000
0000
0000
0000
0000
0000
0000
0000
0000
0000
0000
0000
0000
0000
0000
0000
0000
0000
0000
0000
0000
0000
0000
0000
0000
0000
0000
0000
0000
0000
0000
0000
0000
0000
0000
0000
0000
0000
0000
0000
0000
,
0000
0000
0000
0000
,
0000
0000
0000
0000
0000
0000
0000
0000
0000
0000
0000
0000
0000
0000
0000
0000
0000
0000
0000
0000
0000
0000
0000
0000
0000
0000
0000
0000
0000
0000
0000
0000
0000
0000
0000
0000
0000
0000
0000
0000
0000
0000
0000
0000
0000
0000
0000
0000
3003
0000
0000
0000
0000
0000
0000
0000
0000
1000
0000
0000
0000
0100
0000
0000
0000
0001
0000
0000
0000
0000
0000
0000
0000
0000
0000
0000
0000
0000
0000
0000
0000
0000
0000
0000
0000
0000
0000
0000
0000
0000
0000
0000
0000
0000
0000
0000
;
