#TITLE:four-leaf;
#SUBTITLE:;
#ARTIST:Sis Bond Chit;
#TITLETRANSLIT:;
#SUBTITLETRANSLIT:;
#ARTISTTRANSLIT:;
#GENRE:;
#CREDIT:;
#MUSIC:four-leaf.ogg;
#BANNER:four-leaf.png;
#BACKGROUND:four-leaf-bg.png;
#CDTITLE:;
#SAMPLESTART:54.892;
#SAMPLELENGTH:15.000;
#SELECTABLE:YES;
#OFFSET:0.398;
#BPMS:0.000=157.000;
#STOPS:;
#BGCHANGES:0.000=four-leaf.mp4=1.000=0=0=0=StretchNoLoop====,
99999.000=-nosongbg-=1.000=0=0=0=StretchNoLoop====
;
#FGCHANGES:;

//--------------- dance-single - Princess Pamela ----------------
#NOTES:
     dance-single:
     Princess Pamela:
     Easy:
     7:
     0,0,0,0,0:
0000
0000
0000
0000
,
0000
0000
0000
0000
,
0000
0000
0000
0000
,
0000
0000
0000
0000
,
0000
0000
0000
0000
,
1000
0000
0000
0001
0000
0000
1000
0000
,
0000
0001
0000
0000
0100
0000
0000
0000
,
0001
0000
0000
1000
0000
0000
0001
0000
,
0000
1000
0000
0000
0010
0000
0000
0000
,
0110
0000
0100
0000
,
0001
0000
0100
0000
,
0010
0000
0010
0000
,
1000
0000
0010
0000
,
1001
0000
0001
0000
,
0001
0000
0010
0000
,
0001
0000
1000
0000
,
1000
0000
0001
0000
,
1001
0000
1000
1000
,
0100
0000
1000
0000
,
1001
0000
0001
0001
,
0100
0001
0010
0000
,
0100
1000
0100
1000
,
0010
0100
0001
1000
,
0100
0010
0100
0010
,
0002
0000
0000
0000
1003
0001
0000
0000
,
1001
0000
1000
0000
,
0010
0010
1000
0000
,
0100
0000
0000
0110
0000
0000
0000
0000
,
0010
0000
0001
0000
,
1001
0000
1000
0000
,
0010
1000
0010
0000
,
0100
0000
0001
0000
,
0010
0010
0001
0000
,
1001
0000
1000
1000
,
0010
0000
1000
0001
,
0010
0010
0010
0010
,
0100
0000
2000
0000
3000
0000
0001
1000
,
0001
0000
0100
0001
,
0100
0010
1000
0010
,
0100
0001
0010
0100
,
1000
0100
0010
0001
,
1001
0000
1000
0010
,
1000
0001
0010
0001
,
1000
0000
0010
0000
0100
0000
0000
1001
,
0000
0000
2000
0000
3000
0000
0001
1000
,
0001
0000
1001
0000
1000
0000
0010
0100
,
0010
0100
0001
1000
,
0100
0000
0110
0000
0010
0000
0001
1000
,
0001
0100
0010
1000
,
1001
0000
0001
0001
,
0010
0001
0001
0100
,
0010
1000
1000
0100
,
1000
0000
0002
0203
,
0320
2030
0000
0000
,
0000
3000
0000
0002
,
0023
0000
0030
0200
0000
0300
2000
0000
,
0000
3000
0010
0100
,
0002
0000
1000
0000
,
0010
0000
1000
0003
,
1001
0000
0001
0100
,
0010
0000
1000
0000
0001
1000
0001
0000
,
1001
0000
0000
1000
0000
0000
0001
0000
,
0000
1000
0000
0000
0010
0000
0110
0000
,
1000
0000
0000
0001
0000
0000
1000
0000
,
0000
0001
0000
0000
0010
0000
0100
0000
,
1001
0000
0000
0000
;

//--------------- dance-single - Princess Pamela ----------------
#NOTES:
     dance-single:
     Princess Pamela:
     Medium:
     10:
     0,0,0,0,0:
0000
0000
0000
0000
,
0000
0000
0000
0000
,
0000
0000
0000
0000
,
0000
0000
0000
0000
,
0000
0000
0000
0000
,
1000
0000
0000
0100
0000
0000
1000
0000
,
0000
0010
0000
0000
0100
0000
0100
0000
,
0001
0000
0000
0010
0000
0000
0001
0000
,
2000
3020
0230
0302
,
0013
0010
0001
0010
,
0100
1000
0010
0000
,
0100
0100
0001
0100
,
0010
1000
0001
0000
,
1001
0000
1000
1000
,
0100
1000
0010
0100
,
0002
0000
0000
0003
0010
0000
0100
0000
,
1000
0000
0010
0000
0100
0010
0100
0000
,
2001
0000
0001
0000
3001
0000
1000
0100
,
0020
0000
0001
0000
0001
0000
0130
1000
,
0002
0000
0100
0000
0100
0000
1003
0010
,
0100
0000
0110
0000
0010
1000
0001
0000
,
1001
0000
1000
0100
0000
0010
0100
0000
,
0010
0001
0000
0100
0010
0000
0110
0000
,
1001
0000
0001
0100
0000
0010
0100
0000
,
0010
2000
0000
0000
0100
3100
0000
0000
,
1001
0000
1000
0000
0010
0100
0010
0000
,
0100
0000
0001
0000
0010
0001
0010
0000
,
0110
0000
0000
1001
0000
0000
0001
0000
,
0010
0001
0010
0000
0100
1000
0100
0000
,
2000
0000
3010
0000
1000
0000
0001
2000
,
0000
3000
0010
0000
0100
0000
0001
0000
,
0010
0000
0001
0010
0001
0000
0100
0000
,
0020
0000
1030
0010
1000
0000
0100
0000
,
1002
0010
1000
0103
,
2001
0010
0001
3100
,
0010
0001
0010
0001
0100
0010
1000
0200
,
0000
0300
1001
0000
0001
0010
0100
1000
,
0010
0000
0110
0000
0100
0001
0100
0000
,
0010
1000
0010
0000
1000
0100
1000
0000
,
0020
0000
1030
0000
0001
0100
0001
0000
,
0010
0100
1000
0000
0020
0000
0130
0000
,
1001
0000
0001
0100
1000
0000
0100
0000
,
0001
0000
1000
0010
0001
0000
0010
0000
,
1000
0000
0001
0010
1000
0000
0010
0002
,
0000
0003
1001
0000
1000
0010
0100
0001
,
0010
0000
0110
0000
0100
1000
0100
2000
,
0000
3010
0100
0000
0001
0001
0010
0000
,
0100
0000
1001
0000
0001
0100
0001
0020
,
0000
0130
0000
0010
0001
1000
0010
0000
,
1001
0000
1000
0010
0100
0000
0010
1000
,
0000
0000
0000
0000
0001
0000
0000
0000
0010
0000
0000
0100
0000
0000
1000
0000
,
0000
0010
0000
0000
0100
0001
0100
0001
,
0000
0001
0000
0000
0110
0000
1001
0000
,
2100
0001
0100
0001
,
0100
0000
3001
0000
1000
0010
0100
0000
,
0120
0000
1030
2000
0000
3001
0020
0000
,
0100
0000
0001
0000
0130
1000
0001
0000
,
0102
1000
0100
1000
,
0100
0000
1003
0000
0001
0010
0100
0000
,
1200
0010
1000
0010
,
2300
0000
0010
0000
3001
0100
0001
0100
,
0010
0000
1000
0010
0000
1000
0100
0000
,
0010
0100
0000
0010
0001
0000
1001
0000
,
0110
0000
0001
0100
0000
0010
0100
0000
,
0010
1000
0000
0100
0010
0000
0110
0000
,
1001
0000
0000
0000
;

//--------------- dance-single - Princess Pamela ----------------
#NOTES:
     dance-single:
     Princess Pamela:
     Hard:
     14:
     0,0,0,0,0:
0000
0000
0000
0000
,
0000
0000
0000
0000
,
0000
0000
0000
0000
,
0000
0000
0000
0000
,
0000
0000
0000
0000
,
0001
0000
0010
1000
0000
0010
0001
0000
,
0100
1000
0000
0100
0001
0000
0101
0000
,
1000
0000
0010
0001
0000
0010
1000
0001
,
1000
0000
0100
0000
0010
0000
0001
0000
0100
0001
0100
0001
1000
0000
0000
0000
,
1100
0000
0001
0010
0001
0010
0100
1000
,
0020
0000
0000
0000
1030
0000
0000
0000
0001
0000
0010
0000
0001
1000
0001
1000
,
0100
0000
0010
0001
0100
0001
1000
0100
,
0000
0000
0001
0000
0100
0000
1000
0000
0001
0000
0000
0000
0100
0010
0100
0010
,
1000
0000
0100
0010
0100
1000
0010
2000
,
0000
3001
0020
0000
0230
0000
2300
0000
,
3001
0001
0100
0001
1000
1000
0100
0020
,
0000
0000
0031
0000
1000
0000
0010
0000
1000
0001
0000
0001
1000
0000
0000
0000
,
0010
0000
0100
0001
0000
0100
0001
0000
0010
0001
0000
0010
0001
0000
0000
0000
,
1000
0000
0010
1000
0000
0010
1000
0000
0100
1000
0000
0100
1000
0000
0000
0000
,
0010
0000
0100
0001
0000
0100
0001
0000
1000
0100
0000
1000
0100
0000
0020
0000
,
0000
0000
0031
0000
1000
0000
0010
1000
0010
0000
0100
0000
0002
0000
0000
0000
,
1003
0000
0100
1000
0100
0000
0010
0000
0001
0010
0001
0000
1000
0000
0010
1000
,
0010
0000
0100
0000
0001
0100
0001
0000
0010
0000
0000
0000
1001
0000
0000
0000
,
0001
0000
0100
0001
0100
0000
0010
0000
1000
0010
1000
0000
0001
0000
0010
0001
,
0010
0000
0100
0000
1000
0100
0010
0001
1000
0000
1000
0000
0000
0000
0000
0000
,
1002
0000
0100
0000
1003
0010
0100
0001
,
0020
0000
0100
0000
0031
1000
0010
0100
,
0101
0000
0001
0011
0000
1000
0010
0100
,
0001
1000
0000
0001
1000
0000
0100
0000
0010
0100
0010
0000
0001
0000
0000
0000
,
2001
0000
0100
0000
3001
0010
0001
0200
,
0000
0000
0310
0000
1000
0000
0010
0000
1000
0001
1000
0000
0001
0000
0000
0000
,
0010
0000
0000
0001
0000
0000
0010
0000
0100
0000
0000
1000
0000
0000
0001
0000
,
0100
0000
0000
0010
0000
0000
1000
0000
0001
1000
0001
1000
0001
0000
0010
0000
,
0110
0000
0100
1000
0100
0001
0100
1000
,
0010
0100
2000
0000
3100
0001
0020
0000
,
0031
0101
0101
0110
0110
0010
2000
3002
,
0013
0000
0000
0001
0010
0000
0100
1000
0100
1000
0010
0100
0001
0000
1000
0000
,
1001
0000
0000
0000
1000
0000
0001
0010
0000
0010
0001
0000
0100
0000
0010
0000
,
1000
0000
0100
0000
0010
0000
0100
0001
0000
0001
0100
0000
0010
0000
0001
0000
,
1000
0000
0010
0000
0100
0000
0001
1000
0000
1000
0001
0000
0010
0000
0100
0000
,
1000
0001
0100
0000
0100
0000
0010
1000
0001
0000
0010
0000
0100
0010
0100
0010
,
0200
0000
0000
0000
1300
0000
0010
1000
0000
0010
0100
0000
0001
0000
0010
0000
,
0001
0000
1000
0000
0100
0000
0010
0100
0000
0001
0100
0000
1000
0000
0001
0000
,
0100
0000
0001
0000
0010
0000
0100
0010
0000
0100
1000
0000
0010
0000
0110
0000
,
0000
0000
0100
0000
1002
0000
0000
0000
1003
0010
1000
0010
0100
0001
0010
0100
,
1000
0100
0002
0000
0103
1000
0010
0210
,
0000
0000
0301
0010
0100
0000
0010
0000
0001
0100
0001
0100
0010
1000
0010
1000
,
0001
0000
1000
0100
0020
0000
0000
0000
0130
0000
0010
0001
1000
0000
0020
0000
,
0000
0000
0031
0000
0000
0000
0010
1000
0000
1000
0010
0000
1000
0100
0010
0001
,
0100
0000
0010
0000
0100
0000
1000
0100
1000
0000
0100
0000
0001
0000
0020
0000
,
0000
0000
0000
0000
0230
0000
0000
0000
2300
0000
0000
3002
0000
0000
0203
0000
,
0310
0000
1000
0000
1000
0000
0010
1000
0010
0000
0100
0000
0001
0000
0020
0000
,
0000
0000
0031
0000
0000
0000
1000
0000
0001
0100
0001
0100
0001
1000
0100
0010
,
0001
0000
0000
0000
0010
0000
0100
0000
0010
0000
1000
0010
1000
0000
0010
0000
,
0001
0000
1000
0000
0010
0000
0100
0000
0010
0000
0001
0010
0001
0000
0010
0000
,
0210
0000
0301
0020
0000
0130
2000
0000
,
3010
0000
0100
0000
0001
0000
0100
0000
0010
0000
1000
0010
1000
0000
0001
0000
,
1002
0000
0000
0023
0000
0000
0230
0000
0000
0300
1000
0100
1000
0000
0010
0000
,
0100
0000
0010
0000
0001
0000
0010
0000
1000
0000
0010
1000
0010
0000
0100
0000
,
0002
0000
0000
0000
0013
0000
0100
0000
0010
0000
0001
0010
0001
0000
0200
0000
,
0320
0000
0000
0000
1000
0000
0000
0000
0130
0001
0100
0001
1000
0100
0010
0001
,
2000
0000
0000
0000
3010
0000
0100
0000
0001
0100
0001
0000
1000
0000
0100
1000
,
0100
0000
0010
0000
0001
0010
0001
0000
0100
0000
0000
0000
1001
0000
0000
0000
,
0001
0000
0010
0001
1000
0000
0100
0000
1000
0001
0100
0000
0010
0000
1000
0100
,
0010
0000
0001
0000
0100
0001
0100
0000
0010
1000
0100
0000
0010
0001
0100
0000
,
1001
0000
0000
0000
;
