#VERSION:0.83;
#TITLE:cinder;
#SUBTITLE:;
#ARTIST:PHQUASE;
#TITLETRANSLIT:;
#SUBTITLETRANSLIT:;
#ARTISTTRANSLIT:;
#GENRE:MAELSTROM;
#CREDIT:;
#MUSIC:cinder.ogg;
#BANNER:cinder.png;
#BACKGROUND:cinder-bg.png;
#CDTITLE:./CDTitles/bm IIDX 22 PENDUAL.png;
#SAMPLESTART:19.817;
#SAMPLELENGTH:15.000;
#SELECTABLE:YES;
#OFFSET:1.294;
#BPMS:0.000=108.000
,19.500=216.000
,52.000=432.000
,64.000=216.000
,253.000=432.000
,263.500=216.000
,264.000=162.000
,264.750=108.000
,265.250=54.000
,265.625=44.800
,266.000=108.000
,284.500=216.000
;
#STOPS:19.500=0.139
,64.000=0.278
,192.750=0.278
,266.000=1.651
,276.000=2.222
,284.500=0.139
;
#TIMESIGNATURES:0.000=4=4,
60.000=5=4,
65.000=4=4,
193.000=3=4,
196.000=4=4,
264.000=3=4,
267.000=4=4,
275.000=2=4,
277.000=4=4
;
#DISPLAYBPM:108.000:216.000;
#BGCHANGES:1.750=cinder.mp4=1.000=0=0=0=StretchNoLoop====,
99999.000=-nosongbg-=1.000=0=0=0=StretchNoLoop====
;
#FGCHANGES:;

//--------------- dance-single - forcednature ----------------
#NOTEDATA:;
#STEPSTYPE:dance-single;
#DESCRIPTION:forcednature;
#CREDIT:forcednature;
#DIFFICULTY:Beginner;
#METER:5;
#RADARVALUES:0,0,0,0,0;
#NOTES:
0000
0000
0000
0000
,
0000
0000
0000
0000
,
0000
0000
0000
0000
,
0000
0000
0000
0000
,
0000
0000
0000
0000
,
1001
0000
0000
0000
,
0100
0000
0000
0000
,
1001
0000
0000
0000
,
0010
0000
0000
0000
,
0001
0000
0001
0000
,
1000
0000
1000
0000
,
0010
0000
0100
0000
,
0001
0000
2000
0000
,
0000
0000
0000
0000
,
0000
0000
0000
0000
,
0000
0000
0000
0000
,
3000
0010
0000
0010
,
0000
0100
0000
0010
,
0000
1000
0000
0001
,
0000
0100
0000
0000
,
0000
0001
0000
0001
,
0000
0010
0000
0100
,
0000
1000
0000
0001
,
0000
0100
0000
0000
,
0000
0010
1000
0010
,
0000
1000
0000
0010
,
0000
1000
0100
1000
,
0000
0100
0000
1000
,
0000
0001
0100
0001
,
0000
0100
0000
0001
,
0000
0010
0001
0010
,
0000
0100
0000
1000
,
0000
2002
0000
0000
,
0000
3003
0000
0000
,
0000
0001
0000
0000
,
0000
0001
0000
0010
,
0000
0100
0000
0000
,
0000
1000
0000
0000
,
0000
1001
0000
0000
,
0000
0001
0000
1000
,
0000
1001
0000
0000
,
0000
0001
0000
0010
,
0000
0100
0000
1000
,
0000
0010
0000
0000
,
0000
0110
0000
0000
,
0000
0100
0000
0001
,
0000
1000
0000
0000
,
0000
0010
0000
0100
,
0000
0000
0000
0000
,
0001
0000
0010
0000
,
0100
0000
0000
0000
,
1000
0000
0000
0000
,
0010
0000
0010
0000
,
1000
0000
0010
0000
,
0200
0000
0300
0000
,
0002
0000
0003
0000
,
1000
0000
0000
0001
0000
0000
2002
0000
,
0000
3003
0000
0000
0000
0000
0000
0000
,
0100
0000
0000
0010
0000
0000
0220
0000
,
0000
0330
0000
0000
0000
0000
0000
0000
,
0001
0000
0000
1000
0000
0000
2002
0000
,
0000
3003
0000
0000
0000
0000
0000
0000
,
0010
0000
0000
0100
0000
0000
0000
0100
,
0000
2002
0000
0000
,
0000
0000
0000
0000
,
0000
0000
0000
0000
,
0000
0000
3003
1000
,
0000
0000
0000
0010
,
0000
0100
0000
0001
,
0010
1001
0000
0100
,
0000
1001
0000
0010
,
0000
1001
0000
0000
,
0000
1000
0000
1000
,
0000
0010
0000
0100
,
0000
0001
0000
0020
,
0000
0030
0000
0100
,
0000
1000
1000
0001
,
0001
0100
0000
0010
,
0000
1000
0000
0001
,
0000
0010
0010
0100
,
0000
0010
0010
0100
,
0000
1000
1000
0001
,
0000
0100
0100
0010
,
0000
1000
0100
1000
,
0000
0001
0100
0001
,
0000
0100
0010
0100
,
0000
0110
0000
0010
,
0000
2002
0000
0000
,
0000
0000
0000
0000
,
0000
0000
0000
0000
,
0000
0000
3003
0000
,
0000
1000
0000
0000
,
0000
0010
0000
0000
,
0000
1001
0000
0000
,
0000
0001
0001
1000
,
1000
0020
0000
0000
,
0000
0000
0000
0000
,
0000
0000
0000
0000
0000
0030
0000
0100
;

//--------------- dance-single - forcednature ----------------
#NOTEDATA:;
#STEPSTYPE:dance-single;
#DESCRIPTION:forcednature;
#CREDIT:forcednature;
#DIFFICULTY:Easy;
#METER:9;
#RADARVALUES:0,0,0,0,0;
#NOTES:
0000
0000
0000
0000
,
0000
0000
0000
0000
,
0000
0000
0000
0000
,
0000
0000
0000
0000
,
0000
0000
0000
0000
,
2200
0000
3300
0000
,
0202
0000
0303
0000
,
2020
0000
3030
0000
,
0022
0000
0033
0000
,
0001
0000
0001
0100
0000
0000
0100
0000
,
0001
0000
0001
0010
0000
0000
0010
0000
,
0100
1000
0100
1000
,
0010
0100
0001
0020
,
0000
0000
0000
0000
,
0000
0000
0000
0000
,
0000
0000
0000
0000
,
0030
0101
1000
0010
,
0100
0001
0010
0001
,
1000
0010
0100
0001
,
1000
0001
0010
0100
,
1000
0001
0100
0010
,
0100
0001
1000
0010
,
0100
0002
0000
1003
,
0001
0000
0000
0010
0000
0000
0100
0000
0000
1000
0000
1000
,
0000
0001
0000
0200
0000
0000
0010
0000
0000
0310
0000
0000
,
1000
0020
0100
0130
,
0001
0200
0010
0310
,
1000
0020
0130
0002
,
1003
2000
0100
3100
,
0001
0020
0100
0130
,
1000
0020
0130
0002
,
1003
0000
0100
0000
0010
0000
0001
1000
,
0001
2002
0000
0000
,
0000
0000
0000
3003
,
0000
1000
0000
0010
,
0000
0100
0000
0001
,
0000
2002
0000
3003
,
0000
0220
0000
0330
,
0000
0202
0000
0303
,
0000
1000
0100
0010
,
0001
1000
0000
0010
,
0200
0000
0301
0010
,
0001
2000
0000
3010
,
0100
0000
0001
0000
0000
0001
0000
0000
,
0010
0200
0000
1300
,
0002
0000
0103
0010
,
1000
0200
0000
0310
,
0001
1000
1000
0010
,
0100
0000
0001
0020
,
0000
0031
0100
0010
,
2000
0000
3100
0010
,
0001
0001
1000
0000
,
0010
0100
0010
0000
0200
0000
0300
0000
,
0001
1000
0001
0000
2000
0000
3000
0000
,
0100
0010
0001
1000
,
0020
0000
0000
0030
,
1001
0000
0001
1000
0000
1000
0020
0000
,
0000
0030
0000
0000
0000
0000
0000
0000
,
1001
0000
1000
0001
0000
0001
0020
0000
,
0000
0030
0000
0000
0000
0000
0000
0000
,
1100
0000
0100
1000
0000
1000
0020
0000
,
0000
0030
0000
0000
0000
0000
0000
0000
,
0101
0000
0100
0001
0000
0001
0000
0001
,
0000
0022
0000
0000
,
0000
0000
0000
0000
,
0000
0000
0000
0000
,
0000
0000
0033
1000
,
1000
0001
0100
0001
,
0000
0000
0010
0000
0100
1000
0000
1000
,
0010
0202
0303
0022
,
0033
0000
1000
0000
0001
0000
1000
1000
,
0010
0000
0100
0000
0001
0000
0010
0001
,
0010
0000
0100
0000
1000
0000
0010
1000
,
0010
0000
0100
0000
0001
0000
0010
0001
,
0010
0100
1000
1001
,
0000
0000
1000
0000
0010
0000
0100
0001
,
0100
0010
1001
0100
,
1001
0000
0001
0000
0010
0000
0100
0010
,
0100
0000
0000
1000
0000
0000
0010
0000
0000
0100
0000
0100
,
0000
0001
0000
0100
0000
0000
0010
0000
0000
1010
0000
0000
,
1000
0100
0010
0011
,
0001
0100
0010
1010
,
1000
0100
0010
0011
,
0001
0000
0100
0000
0010
0000
1000
0001
,
1000
0000
0100
0000
0010
0000
0001
1000
,
0001
0000
0100
0000
0010
0000
1000
0010
,
1000
0000
0000
0001
0000
0001
0000
0010
0000
0100
0000
0000
,
1000
2002
0000
0000
,
0000
0000
0000
3003
,
0000
0001
0001
0100
,
0001
0000
0010
1001
,
0000
0000
1000
0000
0000
0100
0000
0000
,
0000
0000
0001
0000
0000
0010
0000
0000
,
0000
1001
0000
1000
,
0010
0000
0100
0000
0001
0000
0100
0010
,
0100
0010
2000
0000
3000
0000
0002
0000
,
0003
2000
3000
0002
,
0003
0000
2000
0000
3000
0000
0000
0110
;

//--------------- dance-single - forcednature ----------------
#NOTEDATA:;
#STEPSTYPE:dance-single;
#DESCRIPTION:forcednature;
#CREDIT:forcednature;
#DIFFICULTY:Medium;
#METER:14;
#RADARVALUES:0,0,0,0,0;
#NOTES:
0000
0000
0000
0000
,
0000
0000
0000
0000
,
0000
0000
0000
0000
,
0000
0000
0000
0000
,
0000
0000
0000
0000
,
2002
0003
3100
0000
,
2002
3000
0013
0000
,
2002
0003
3010
0000
,
0220
0030
0301
1001
,
0001
1000
0010
1000
0001
0010
0100
0000
,
1000
0001
0010
0001
1000
0010
0100
0000
,
0001
0010
0001
0010
0100
1000
0100
1000
,
0010
0110
0100
2002
,
0000
0000
0000
0000
,
0000
0000
0000
0000
,
0000
0000
0000
0000
,
3003
0000
1000
0010
0100
0001
0010
0100
,
0010
0000
0001
0100
0010
1000
0100
0010
,
0100
0000
1000
0010
0100
0001
0010
0100
,
1000
0000
0010
0100
0001
1000
0100
0010
,
0001
0000
1000
0010
0100
0001
0010
0010
,
0010
0000
0001
1000
0010
0100
0001
0001
,
0001
0021
0001
0130
,
1001
0000
0000
0000
0000
0000
0001
0000
0000
1000
0000
0000
1000
0000
0000
0000
0000
0000
0010
0000
0000
0000
0100
0000
,
0000
0001
0000
0010
0000
0010
0001
0000
0001
0100
0000
0100
,
0010
0000
0000
1000
0000
1000
0100
0000
0100
1000
0000
1000
,
0001
0000
0000
0010
0000
0010
0100
0000
0100
1000
0000
1000
,
0001
0000
0000
0100
0000
0010
1000
0000
0010
0100
0000
0001
,
0100
0000
0000
0010
0000
0010
1000
0000
1000
0001
0000
0001
,
0010
0000
0000
0100
0000
0100
1000
0000
1000
0010
0000
0010
,
0100
0000
0000
0001
0000
0001
0010
0000
0001
0100
0000
0010
,
0100
0000
0110
0000
1000
0000
0100
0010
,
0100
0010
0002
0000
2003
0000
3020
0000
,
0230
0302
2003
3010
,
0100
0010
2000
0000
3002
0000
0203
0000
,
0320
2030
3001
1001
,
0000
2000
3200
0320
,
0032
2003
3020
0230
,
0301
1001
0000
0001
,
0010
0000
0200
0000
1000
0000
0010
0010
,
0310
0000
1001
0000
0000
1000
0010
0100
,
0001
0020
0000
0000
0230
0000
2300
0000
,
3001
0100
2000
0000
0000
3200
0000
0301
,
0100
0001
0010
0000
0000
0110
0000
0100
,
1000
1000
0020
0000
0000
0130
0001
0010
,
0100
0001
0000
0100
1000
0200
0000
1300
,
0010
1000
0002
0000
0010
0000
0000
0003
,
0010
0001
0100
0100
0010
0000
1000
0001
,
0010
0000
0200
0300
0000
0000
0000
0000
1000
0000
0010
0000
0100
0000
0002
0000
,
0000
0000
0023
0000
2030
0000
3010
0001
,
0020
0000
0000
0030
0100
1000
0010
0100
,
0001
0000
0000
1000
0000
0000
0010
0000
0002
0000
0000
0000
0003
0000
0010
0000
,
1000
1000
0010
1000
0100
0001
0000
0100
,
1000
1000
0100
1000
0010
0100
0000
0001
,
0020
0000
0031
0200
0000
0310
1000
0001
,
0020
0100
0031
1000
,
1100
0100
1000
1100
0100
1000
2002
0000
,
0000
3003
0000
0000
0000
0000
0000
0000
,
0101
0100
0001
0101
0100
0001
2002
0000
,
0000
3003
0000
0000
0000
0000
0000
0000
,
1010
0010
1000
1010
0010
1000
2002
0000
,
0000
3003
0000
0000
0000
0000
0000
0000
,
0011
0001
0010
0110
0000
0110
0000
0110
,
0000
2002
0000
0000
,
0000
0000
0000
0000
,
0000
0000
0000
0000
,
0000
0000
0000
0000
3003
0000
1000
1000
,
0010
0100
0001
0010
,
0100
0000
0010
0000
0001
0000
0000
0000
0100
0000
0010
0000
0000
1000
0000
0000
,
0100
2200
3300
2020
,
3030
0000
0000
0000
0001
0000
0010
0000
0001
0000
0100
0000
0010
0100
0010
0100
,
0001
1001
1000
0010
0100
0001
0010
0100
,
1000
0000
0001
0100
0010
1000
0100
0010
,
0001
0000
1000
0010
0100
0001
0010
0100
,
0010
0000
0000
0000
0001
0000
0000
1000
0001
0000
0000
0000
0202
0000
0000
0000
,
0303
0000
1000
0010
0100
0001
0010
0100
,
1000
0000
0010
0010
0010
0000
0100
0100
,
0100
0000
0001
1000
0100
0010
0001
1000
,
0010
0000
0000
0000
0000
0000
0100
0000
0000
0001
0000
0000
0100
0000
0000
0000
0000
0000
0001
0000
0000
0000
0010
0000
,
0000
0100
0000
1000
0000
1000
0010
0000
0010
0100
0000
0001
,
0010
0000
0000
0100
0000
0100
1000
0000
0010
0100
0000
0001
,
0010
0000
0000
0001
0000
0001
1000
0000
1000
0010
0000
0100
,
0001
0000
0000
0010
0000
0010
0100
0000
1000
0010
0000
0100
,
0001
0000
0010
0001
0010
0001
0100
0001
,
0010
0100
1000
0010
1000
0010
1000
0100
,
1000
0010
0100
0001
0010
0001
0100
0010
,
1000
0000
0000
0100
0000
0000
0010
0000
0000
0000
0010
0000
0000
0000
0010
0000
0000
0000
0001
0000
0000
1000
0000
0000
,
1000
1000
0010
0000
0010
0100
0000
0100
,
0001
1000
0010
0100
,
0001
0001
0000
0000
0010
0000
0001
0000
,
1000
0100
0010
1001
,
0000
1000
0010
0000
1000
0001
0000
0000
,
0010
0000
0001
0000
0001
0100
0000
0000
,
0010
0100
0010
0000
1000
0000
0001
0000
,
0100
0000
0010
1000
0001
0010
0100
1000
,
0100
1000
0002
0000
0203
0000
0320
0000
,
2030
3002
0203
0320
,
2030
0000
3002
0000
0203
0000
0310
0001
;

//--------------- dance-single - forcednature ----------------
#NOTEDATA:;
#STEPSTYPE:dance-single;
#DESCRIPTION:forcednature;
#CREDIT:forcednature;
#DIFFICULTY:Hard;
#METER:17;
#RADARVALUES:0,0,0,0,0;
#NOTES:
0000
0000
0000
0000
,
0000
0000
0000
0000
,
0000
0000
0000
0000
,
0000
0000
0000
0000
,
0000
0000
0000
0000
,
2001
0100
3001
1000
,
1020
0100
1030
0001
,
0102
1000
0013
1000
,
2100
0000
0010
0000
3001
0001
1000
0000
,
0010
0100
0001
0010
0100
1000
0010
0000
,
0100
0010
1000
0100
0010
0001
0100
0000
,
0010
1000
0100
1000
0010
1000
0001
1000
,
0100
0000
0110
0000
0010
0001
2002
0000
,
0000
0000
0000
0000
,
0000
0000
0000
0000
,
0000
0000
0000
0000
,
3003
0000
0000
0000
1000
0000
0010
0000
0100
0000
0001
0000
1000
0100
0010
0000
,
0100
0000
1000
0000
0001
0000
0100
0000
0010
0000
1000
0000
0001
0010
0100
0000
,
0010
0000
0001
0000
1000
0000
0010
0000
0100
0000
0001
0000
0010
0100
1000
0000
,
0100
0000
0010
0000
0001
0000
1000
0001
1000
0000
0010
0000
0100
0000
0001
0000
,
0010
0100
0010
0000
0001
0000
0010
0000
0100
0000
1000
0000
0010
0100
0001
0000
,
0100
0000
0010
0000
1000
0000
0001
0000
0010
0000
0100
0000
1000
0010
0100
0000
,
0010
0000
1000
0000
0002
0000
0000
0000
0100
0000
0000
0000
1003
0000
0001
1000
,
0001
0000
0000
0000
0000
0000
0000
0000
0000
0000
0000
0000
0010
0000
0000
0000
0000
0000
0010
0000
0000
0000
0000
0000
0100
0000
0000
0010
0000
0000
0001
0000
0000
0000
0000
0000
1000
0000
0000
0000
0000
0000
0000
0000
1010
0000
0000
0000
,
0000
0101
0000
0001
0000
0001
0010
0000
0001
0100
0010
1000
,
0100
0010
0001
1000
0000
0010
1000
0000
1000
0100
0010
0001
,
0100
0010
1000
0001
0000
0001
0010
0000
0001
0100
0001
1000
,
0100
1000
0001
0100
0000
0100
0010
0000
0100
0001
0010
0100
,
1000
0010
0100
0001
0000
0001
0010
0000
0001
1000
0010
0100
,
0001
0010
0100
1000
0000
1000
0010
0000
1000
0001
0010
0100
,
1000
0001
0100
0010
0000
0010
1000
0000
0010
0100
0001
0010
,
0100
0000
0000
0000
1000
0000
0000
0000
0010
0000
0000
0000
0100
0000
0000
0000
0000
0000
0000
0000
0100
0000
0000
0000
0001
0000
0000
0000
0000
0000
0000
0000
0100
0000
0000
0000
0010
0000
0000
0000
0000
0000
1000
0000
0000
0010
0000
0000
,
1000
0000
0001
0100
0002
0000
0000
0000
0023
0000
0000
0000
0230
0000
0000
0000
,
2300
3002
0203
0320
,
2030
3002
0023
0230
,
2300
3001
0100
1001
,
0001
0000
1000
0001
2000
0000
0000
0000
3020
0000
0000
0000
0230
0000
0000
0000
,
0302
0000
2003
0000
3100
0010
0000
0100
,
1000
1000
0002
0000
0203
0000
0320
0000
,
2030
0000
0000
0000
3002
0000
0000
0000
0013
0000
0100
0000
1000
0000
0010
0100
,
0001
0000
1001
0000
0001
1000
0010
0100
,
0001
0020
0000
0130
2000
0000
3020
0000
,
0031
0010
2000
0000
3010
0100
0001
0010
,
0001
0000
1000
0000
0020
0000
0000
0000
0130
0000
0100
0000
0000
0000
0010
1000
,
0010
0000
0100
0001
0100
0000
0000
0000
0001
0000
0010
0000
0100
0000
0010
0000
,
0001
2000
0000
3010
0100
0001
0010
0100
,
1000
0001
0200
0000
0310
1000
0010
0000
,
0100
0000
0001
0000
0010
0000
0010
0000
0100
0000
1000
0100
1000
0000
0001
0000
,
0100
0001
0100
0001
1010
0000
0000
0000
0010
0000
1000
0000
0100
0000
0002
0000
,
0000
0103
0010
0100
1000
0001
0200
0000
,
0320
0000
1000
0000
0130
0001
0010
0100
,
1100
0000
0000
1100
0000
0000
0001
0000
0020
0000
0000
0000
0030
0000
0001
1000
,
0001
0000
0100
0000
1000
0000
0100
0000
0001
0000
0100
0000
0000
0000
0001
1000
,
0001
0000
0010
0000
1000
0000
0010
0000
0001
0000
0010
0000
0000
0000
0001
0100
,
0010
1000
0010
0100
0001
0010
0100
1000
,
0010
0000
0100
0010
0200
0000
0000
0000
0301
0000
1000
0000
0001
0000
0000
0000
,
0011
0000
0010
0100
1000
0000
1010
0000
0010
0100
0001
0000
2002
0000
0000
0000
,
0000
3003
0010
0000
0001
0000
0100
0000
,
1010
0000
0010
0100
0001
0000
0011
0000
0010
0100
1000
0000
2002
0000
0000
0000
,
0000
3003
0010
0000
1000
0000
0001
0000
,
1100
0000
0100
1000
0010
0000
0101
0000
0100
0001
0010
0000
2002
0000
0000
0000
,
0000
3003
0001
0000
1000
1000
0010
0000
,
0101
0000
0100
0001
0010
0000
0100
1000
0010
0000
0100
0001
0010
0000
0110
0000
,
0000
2002
0000
0000
,
0000
0000
0000
0000
,
0000
0000
0000
0000
,
0000
0000
0000
0000
0000
0000
0000
0000
3003
0000
0000
0000
0001
1000
0100
1000
,
0001
0000
0010
0000
0100
0010
0001
0000
1000
0000
0010
0000
0100
0000
0000
0001
,
1000
0100
1000
0001
0010
0000
0000
0100
1000
0010
0100
0001
0000
0010
0001
0000
,
1001
0102
0013
2100
,
3010
0000
0000
0000
0101
0000
0011
0000
1100
0000
1010
0000
0010
0100
0001
1000
,
0010
0100
0010
0100
0002
0000
0003
0000
1000
0000
0000
0000
0100
0000
0000
0000
0010
0000
0000
0000
0001
0000
0000
0000
1000
0000
0010
0000
0100
0000
0010
0000
,
1000
0000
0001
0000
0010
0000
0100
0000
1000
0000
0001
0000
0100
0010
1000
0010
,
0100
0000
0001
0000
1000
0000
0100
0000
0010
0000
0100
0000
1000
0001
0010
0001
,
1000
0000
0001
0000
0100
0000
0010
0100
0001
0000
1000
0000
2200
0000
0000
0000
,
3300
0000
0000
0000
0001
0000
0100
0000
0010
0000
1000
0000
0001
0010
0100
0010
,
0001
0000
0000
0000
1000
0100
0001
0100
1000
0000
0000
0000
0001
0100
1000
0100
,
0001
0000
0000
0000
1000
0000
0010
0000
0100
0000
0001
0000
0010
0100
1000
0100
,
0010
0000
0000
0000
0000
0000
0000
0000
0000
0000
0000
0000
0001
0000
0000
0000
0000
0000
0100
0000
0000
0000
0000
0000
0001
0000
0000
0010
0000
0000
0100
0000
0000
0000
0000
0000
1100
0000
0000
0000
0000
0000
0000
0000
0011
0000
0000
0000
,
0000
1001
0000
0001
0100
0001
1000
0010
1000
0001
0010
0100
,
1000
0100
0010
0001
0100
0001
1000
0100
1000
0010
0100
0001
,
0010
0100
1000
0001
0010
0001
1000
0100
1000
0001
0100
0010
,
1000
0100
0010
0001
0100
0010
0100
1000
0100
0001
0010
0100
,
1000
0000
0000
0000
0010
0000
0000
0000
0100
0000
0000
0000
0001
0000
0000
0000
0000
0000
1000
0000
0000
0000
0000
0000
0100
0000
0000
1000
0000
0000
0100
0000
0000
0000
0000
0000
0010
0000
0000
0001
0000
0000
0010
0000
0000
0000
0000
0000
,
0100
1000
0001
0000
0100
0000
0010
0000
1000
0010
1000
0000
0001
0100
0001
0000
,
0010
0100
1000
0000
0010
0000
0100
0000
0001
1000
0100
0000
0010
0001
1000
0000
,
0010
0000
0000
0100
0000
0000
0001
0000
0000
0000
0000
0000
0010
0000
0000
0000
0000
0000
0000
0000
0011
0000
0000
0000
0000
0000
0000
0000
0110
0000
0000
0000
0000
0000
0000
0000
1100
0000
0000
0000
0000
0000
1000
0000
0000
0001
0000
0000
,
1000
0001
1000
0001
0100
0000
0000
0000
0001
0000
0010
0000
0100
0000
0000
0000
,
1000
0000
0010
0000
0010
0100
0001
0000
,
0100
0100
0010
0000
0010
1000
0001
0000
,
0010
0100
1100
0101
,
0001
0000
0010
0100
1000
0000
0000
0000
0010
0000
1010
0000
0000
0000
0100
0000
,
0001
0000
1001
0000
1000
1100
0000
0010
,
0001
0001
0200
0000
0320
0000
2030
0000
,
3002
0000
0000
0000
1003
0000
0100
0000
0010
0000
0001
0000
1000
0100
1000
0100
,
0010
0001
0010
0001
2000
0000
0000
0000
0010
0000
0000
0000
3002
0000
0000
0000
,
0100
2003
0010
3002
,
0100
0000
2003
0000
0010
0000
3001
0101
;

//--------------- dance-double - forcednature ----------------
#NOTEDATA:;
#STEPSTYPE:dance-double;
#DESCRIPTION:forcednature;
#CREDIT:forcednature;
#DIFFICULTY:Easy;
#METER:9;
#RADARVALUES:0,0,0,0,0;
#NOTES:
00000000
00000000
00000000
00000000
,
00000000
00000000
00000000
00000000
,
00000000
00000000
00000000
00000000
,
00000000
00000000
00000000
00000000
,
00000000
00000000
00000000
00000000
,
02002000
00000000
03003000
00000000
,
00020200
00000000
00030300
00000000
,
00202000
00000000
00303000
00000000
,
00020020
00000000
00030030
00000000
,
00010000
00000000
00010000
00001000
00000000
00000000
00100000
00000000
,
00010000
00000000
00010000
10000000
00000000
00000000
00100000
00000000
,
10000000
01000000
10000000
01000000
,
00010000
00001000
00000010
00000002
,
00000000
00000000
00000000
00000000
,
00000000
00000000
00000000
00000000
,
00000000
00000000
00000000
00000000
,
00000003
00000101
00001000
00000010
,
00010000
00001000
00100000
00010000
,
10000000
00100000
10000000
00010000
,
00100000
00001000
00010000
00000100
,
00010000
00000010
00001000
00000010
,
00000100
00000001
00000010
00000100
,
00001000
00000020
00000000
00010030
,
00000010
00000000
00000000
00001000
00000000
00000000
00000100
00000000
00000000
00010000
00000000
00010000
,
00000000
00001000
00000000
00002000
00000000
00000000
00100000
00000000
00000000
00103000
00000000
00000000
,
00001000
00200000
00010000
00310000
,
00100000
02000000
10000000
13000000
,
01000000
00200000
00301000
00020000
,
00030100
00002000
00000010
00003010
,
00001000
00000002
00000010
00000013
,
00000001
00000200
00000310
00002000
,
00003100
00000000
00010000
00000000
00001000
00000000
00100000
00010000
,
00100000
20020000
00000000
00000000
,
00000000
00000000
00000000
30030000
,
00000000
10000000
00000000
00100000
,
00000000
01000000
00000000
00001000
,
00000000
00022000
00000000
00033000
,
00000000
00020200
00000000
00030300
,
00000000
00002200
00000000
00003300
,
00000000
00001000
00000010
00000100
,
00000001
00000010
00000000
00000100
,
00000020
00000000
00000031
00000100
,
00000001
00002000
00000000
00003100
,
00010000
00000000
00001000
00000000
00000000
00001000
00000000
00000000
,
00100000
00200000
00000000
00310000
,
20000000
00000000
30100000
10000000
,
00010000
02000000
00000000
03001000
,
00010000
00000100
00000100
00001000
,
00000010
00000000
00000100
00000002
,
00000000
00000013
00000100
00001000
,
00000020
00000000
00010030
00001000
,
01000000
01000000
00010000
00000000
,
00100000
00010000
00100000
00000000
00020000
00000000
00030000
00000000
,
01000000
00010000
01000000
00000000
00020000
00000000
00030000
00000000
,
00100000
00001000
00010000
00000100
,
00000020
00000000
00000000
00000030
,
00000001
00000000
00000000
00000001
00000000
00001000
00000020
00000000
,
00000000
00000030
00000000
00000000
00000000
00000000
00000000
00000000
,
00010000
00000000
00000000
00010000
00000000
00001000
00200000
00000000
,
00000000
00300000
00000000
00000000
00000000
00000000
00000000
00000000
,
01000000
00000000
00000000
01000000
00000000
10000000
00200000
00000000
,
00000000
00300000
00000000
00000000
00000000
00000000
00000000
00000000
,
01000000
00000000
00000000
00001000
00000000
00001000
00000000
00001000
,
00000000
00022000
00000000
00000000
,
00000000
00000000
00000000
00000000
,
00000000
00000000
00000000
00000000
,
00000000
00000000
00033000
00000010
,
00001000
00000010
00000100
00000001
,
00000000
00000000
00000010
00000000
00000100
00010000
00000000
00001000
,
00100000
02200000
03300000
20020000
,
30030000
00000000
00010000
00000000
00100000
00000000
00001000
00001000
,
00010000
00000000
00000100
00000000
00001000
00000000
00000010
00001000
,
00000010
00000100
00000001
00000010
,
00000100
00000000
00010000
00000000
00001000
00000000
00100000
00010000
,
00100000
00010000
01000000
01010000
,
00000000
00000000
10000000
00000000
00100000
00000000
01000000
00010000
,
01000000
00001000
00011000
00010000
,
00011000
00000000
00000100
00000000
00001000
00000000
00000010
00001000
,
00000010
00000000
00000000
00000100
00000000
00000000
00000001
00000000
00000000
00000010
00000000
00000010
,
00000000
00000001
00000000
00000010
00000000
00000000
00000100
00000000
00000000
00001100
00000000
00000000
,
00001000
00000010
00010000
00011000
,
00001000
01000000
00010000
01010000
,
01000000
00100000
10000000
11000000
,
01000000
00000000
00100000
00000000
00001000
00000000
00010000
00001000
,
00010000
00000000
00000100
00000000
00001000
00000000
00000010
00001000
,
00000010
00000000
00000100
00000000
00000001
00000000
00000010
00000001
,
00000010
00000000
00000000
00000100
00000000
00000100
00000000
00001000
00000000
00000100
00000000
00000000
,
00010000
00022000
00000000
00000000
,
00000000
00000000
00000000
00033000
,
00000000
00001000
00001000
00010000
,
00001000
00000000
00010000
00011000
,
00000000
00000000
01000000
00000000
00000000
01000000
00000000
00000000
,
00000000
00000000
00010000
00000000
00000000
00010000
00000000
00000000
,
00000000
10010000
00000000
10000000
,
00100000
00000000
01000000
00000000
00001000
00000000
00010000
00001000
,
00010000
00001000
00020000
00000000
00030000
00000000
00002000
00000000
,
00003000
00020000
00030000
00002000
,
00003000
00000000
00020000
00000000
00030000
00000000
00000000
00011000
;

//--------------- dance-double - forcednature ----------------
#NOTEDATA:;
#STEPSTYPE:dance-double;
#DESCRIPTION:forcednature;
#CREDIT:forcednature;
#DIFFICULTY:Medium;
#METER:14;
#RADARVALUES:0,0,0,0,0;
#NOTES:
00000000
00000000
00000000
00000000
,
00000000
00000000
00000000
00000000
,
00000000
00000000
00000000
00000000
,
00000000
00000000
00000000
00000000
,
00000000
00000000
00000000
00000000
,
00022000
00030000
00103000
00000000
,
00022000
00003000
00030010
00000000
,
00022000
00030000
01003000
00000000
,
00022000
00003000
00030100
00000110
,
00000010
00000001
00000100
00000001
00000010
00000100
00001000
00000000
,
00000010
00010000
00001000
00010000
00001000
00100000
00010000
00000000
,
01000000
00100000
01000000
00100000
10000000
01000000
10000000
01000000
,
00100000
00000000
01100000
00000000
01000000
00010000
00002000
00000000
,
00000000
00000000
00000000
00000000
,
00000000
00000000
00000000
00000000
,
00000000
00000000
00000000
00000000
,
00003000
00000000
00010000
00000100
00001000
00000100
00010000
00001000
,
00000010
00000000
00000100
00000010
00000001
00001000
00000010
00000100
,
00000001
00000000
00000010
00000100
00010000
00001000
00100000
00010000
,
01000000
00000000
00100000
10000000
10000000
00000000
01000000
00100000
,
00010000
00000000
01000000
00001000
00010000
00000010
00001000
00000100
,
00001000
00000000
00000001
00000100
00001000
00010000
00000010
00001000
,
00000010
00002000
00000100
00003001
,
00010010
00000000
00000000
00000000
00000000
00000000
00010000
00000000
00000000
00001000
00000000
00000000
00001000
00000000
00000000
00000000
00000000
00000000
00100000
00000000
00000000
00000000
00010000
00000000
,
00000000
01000000
00000000
00100000
00000000
00100000
10000000
00000000
10000000
01000000
00000000
01000000
,
00100000
00000000
00000000
00010000
00000000
00010000
01000000
00000000
01000000
00001000
00000000
00001000
,
00010000
00000000
00000000
00000010
00000000
00000010
00001000
00000000
00001000
00000001
00000000
00000001
,
00000010
00000000
00000000
00000100
00000000
00000100
00010000
00000000
00001000
00010000
00000000
00001000
,
00100000
00000000
00000000
00010000
00000000
00010000
01000000
00000000
01000000
00100000
00000000
00100000
,
10000000
00000000
00000000
01000000
00000000
01000000
00100000
00000000
00100000
00001000
00000000
00001000
,
00010000
00000000
00000000
00000100
00000000
00000100
00001000
00000000
00000010
00001000
00000000
00000010
,
00000100
00000000
00000110
00000000
00000001
00000000
00000010
00000100
,
00000010
00000100
00002000
00000000
00003020
00000000
00020030
00000000
,
00032000
02003000
03020000
10030000
,
00100000
10000000
02000000
00000000
03200000
00000000
00302000
00000000
,
00023000
00030100
00000010
00001001
,
00000000
00000002
00000203
00000320
,
00020030
00032000
02003000
03200000
,
10300000
10010000
00000000
00010000
,
00100000
00000000
02000000
00000000
10000000
00000000
00100000
00100000
,
03100000
00000000
10010000
00000000
00000000
00010000
00100000
00001000
,
00010000
00002000
00000000
00000000
00003020
00000000
00000230
00000000
,
00000310
00000001
00002000
00000000
00000000
00003020
00000000
00000130
,
00000010
00001000
00000010
00000000
00000000
00011000
00000000
00001000
,
00100000
00000000
02000000
00000000
00000000
13000000
00100000
01000000
,
00010000
00100000
00000000
00001000
00010000
00002000
00000000
00003010
,
00000100
00000010
00000002
00000000
00001000
00000000
00000003
00000000
,
00000001
00000100
00001000
00001000
00010000
00000000
00001000
00100000
,
00010000
00000000
02000000
03000000
00000000
00000000
00000000
00000000
00100000
00000000
10000000
00000000
00010000
00000000
00200000
00000000
,
00000000
02300000
23000000
32000000
,
03020000
00000000
00000000
00030000
00001000
00010000
00000100
00001000
,
00000100
00000000
00000000
00000010
00000000
00000000
00000001
00000000
00000200
00000000
00000000
00000000
00000300
00000000
00000010
00000000
,
00001000
00001000
00000010
00000100
00000001
00000100
00000000
00001000
,
00010000
00010000
00001000
00100000
00010000
01000000
00000000
00100000
,
20000000
00000000
31000000
00200000
00000000
00301000
00010000
00000100
,
00002000
00000010
00003001
00001000
,
00000001
00000100
00001000
00010000
01000000
10000000
00200000
00000000
,
00000000
00300000
00000000
00000000
00000000
00000000
00000000
00000000
,
10000000
01000000
00010000
00001000
00000100
00000001
00000020
00000000
,
00000000
00000030
00000000
00000000
00000000
00000000
00000000
00000000
,
00000001
00000010
00001000
00010000
00100000
10000000
02000000
00000000
,
00000000
03000000
00000000
00000000
00000000
00000000
00000000
00000000
,
10000000
00100000
00010000
00001000
00000000
00000010
00000000
00000001
,
00000000
00002002
00000000
00000000
,
00000000
00000000
00000000
00000000
,
00000000
00000000
00000000
00000000
,
00000000
00000000
00000000
00000000
00003003
00000000
00000001
00000001
,
00000010
00000001
00000100
00001000
,
00010000
00000000
00001000
00000000
00010000
00000000
00000000
00000000
00100000
00000000
01000000
00000000
00000000
00100000
00000000
00000000
,
10000000
22000000
33000000
20200000
,
30300000
00000000
00000000
00000000
00010000
00000000
00100000
00000000
00001000
00000000
00010000
00000000
00000010
00001000
00000010
00001000
,
00000001
00001001
00001000
00000100
00000010
00000001
00000100
00000010
,
00001000
00000000
00000100
00010000
00001000
00010000
00001000
00100000
,
00010000
00000000
01000000
00100000
10000000
01000000
00100000
00001000
,
00010000
00000000
00000000
00000000
00000100
00000000
00000000
00001000
00000100
00000000
00000000
00000000
00000022
00000000
00000000
00000000
,
00000033
00000000
00000001
00000100
00000010
00010000
00001000
01000000
,
00010000
00000000
00100000
00100000
00100000
00000000
01000000
01000000
,
01000000
00000000
10000000
00010000
00100000
00001000
00010000
00000100
,
00001000
00000000
00000000
00000000
00000000
00000000
00000010
00000000
00000000
00000100
00000000
00000000
00000010
00000000
00000000
00000000
00000000
00000000
00000100
00000000
00000000
00000000
00000001
00000000
,
00000000
00000010
00000000
00000100
00000000
00000100
00010000
00000000
00010000
00001000
00000000
00001000
,
00100000
00000000
00000000
00010000
00000000
00010000
01000000
00000000
01000000
00100000
00000000
00100000
,
10000000
00000000
00000000
01000000
00000000
01000000
00100000
00000000
00100000
00001000
00000000
00001000
,
00010000
00000000
00000000
00000100
00000000
00000100
00001000
00000000
00001000
00000010
00000000
00000010
,
00000100
00000000
00000001
00000010
00000001
00000010
00000100
00010000
,
00001000
00000000
00100000
00010000
00100000
00010000
01000000
00100000
,
10000000
00000000
01000000
00010000
01000000
00010000
00001000
00000010
,
00000100
00000000
00000000
00000000
00000000
00000000
00001000
00000000
00000000
00000000
00001000
00000000
00000000
00000000
00001000
00000000
00000000
00000000
00000001
00000000
00000000
00000100
00000000
00000000
,
00000001
00000100
00001000
00000000
00001000
00010000
00000000
00010000
,
00100000
10000000
01000000
00100000
,
00010000
00010000
00000000
00000000
01000000
00000000
00001000
00000000
,
00010000
00000010
00001000
00001001
,
00000000
00000001
00000010
00000000
00000001
00000100
00000000
00000000
,
00001000
00000000
00010000
00000000
00010000
00100000
00000000
00000000
,
01000000
00100000
10000000
00000000
01000000
00000000
00010000
00000000
,
00001000
00000000
00000010
00000100
00000010
00000001
00001000
00000010
,
00010000
00001000
02000000
00000000
03002000
00000000
00203000
00000000
,
00320000
02030000
03002000
00203000
,
00320000
00000000
02030000
00000000
03002000
00000000
00103000
01000000
;

//--------------- dance-double - forcednature ----------------
#NOTEDATA:;
#STEPSTYPE:dance-double;
#DESCRIPTION:forcednature;
#CREDIT:forcednature;
#DIFFICULTY:Hard;
#METER:17;
#RADARVALUES:0,0,0,0,0;
#NOTES:
00000000
00000000
00000000
00000000
,
00000000
00000000
00000000
00000000
,
00000000
00000000
00000000
00000000
,
00000000
00000000
00000000
00000000
,
00000000
00000000
00000000
00000000
,
00012000
00100000
00013000
00000010
,
00001020
00000100
00000031
00000010
,
00021000
00000100
00031000
00100000
,
00120000
00000000
01000000
00000000
10030000
10000000
00100000
00000000
,
10000000
01000000
00010000
00001000
00000100
00000001
00000010
00000000
,
00000001
00000100
00001000
00010000
01000000
10000000
00100000
00000000
,
01000000
10000000
01000000
00010000
00100000
00001000
00000010
00000100
,
00001000
00000000
00000000
00000000
00000110
00000000
00000000
00000000
00001000
00000001
00001000
00000001
00000020
00000000
00000000
00000000
,
00000000
00000000
00000000
00000000
,
00000000
00000000
00000000
00000000
,
00000000
00000000
00000000
00000000
,
00000030
00000000
00000000
00000000
00000001
00000000
00000100
00000000
00000010
00000000
00001000
00000000
00000100
00000010
00000001
00000000
,
00000100
00000000
00001000
00000000
00010000
00000000
00001000
00000000
00010000
00000000
00100000
00000000
10000000
01000000
00100000
00000000
,
00010000
00000000
01000000
00000000
00100000
00000000
10000000
00000000
01000000
00000000
00010000
00000000
00001000
00100000
00010000
00000000
,
01000000
00000000
00100000
00000000
10000000
00000000
00100000
00000000
00010000
00000000
00001000
00010000
00001000
00000000
00010000
00000000
,
00000100
00001000
00000010
00000000
00000100
00000000
00000001
00000000
00000010
00000000
00000100
00000000
00001000
00000010
00010000
00000000
,
00001000
00000000
00100000
00000000
00010000
00000000
01000000
00000000
00100000
00000000
10000000
00000000
01000000
00100000
00010000
00000000
,
01000000
00000000
00001000
00000000
00020000
00000000
00000000
00000000
00100000
00000000
00000000
00000000
00031000
00000000
00010000
00001000
,
00010000
00000000
00000000
00000000
00000000
00000000
00000000
00000000
00000000
00000000
00000000
00000000
00000010
00000000
00000000
00000000
00000000
00000000
00001000
00000000
00000000
00000000
00000000
00000000
00001000
00000000
00000000
00000010
00000000
00000000
00000100
00000000
00000000
00000000
00000000
00000000
00000001
00000000
00000000
00000000
00000000
00000000
00000000
00000000
00000011
00000000
00000000
00000000
,
00000000
00001100
00000000
00010000
00000000
00010000
00001000
00000000
00100000
00010000
00100000
01000000
,
10000000
00100000
01000000
00010000
00000000
00100000
00010000
00000000
01000000
00001000
00010000
00001000
,
00010000
00000010
00001000
00000001
00000000
00000001
00000010
00000000
00000001
00000100
00000001
00001000
,
00000100
00010000
00001000
00010000
00000000
00010000
00001000
00000000
00100000
00010000
01000000
00100000
,
10000000
01000000
00100000
00010000
00000000
00010000
01000000
00000000
00010000
00100000
00001000
00010000
,
00000010
00001000
00000010
00000100
00000000
00000100
00000001
00000000
00000010
00000001
00001000
00000010
,
00001000
00000100
00010000
00001000
00000000
00001000
00100000
00000000
00010000
01000000
00100000
10000000
,
01000000
00000000
00000000
00000000
00100000
00000000
00000000
00000000
00010000
00000000
00000000
00000000
01000000
00000000
00000000
00000000
00000000
00000000
00000000
00000000
01000000
00000000
00000000
00000000
00010000
00000000
00000000
00000000
00000000
00000000
00000000
00000000
01000000
00000000
00000000
00000000
00001000
00000000
00000000
00000000
00000000
00000000
00010000
00000000
00000000
00001000
00000000
00000000
,
00010000
00001000
00010000
00000000
00002000
00000000
00000000
00000000
00003020
00000000
00000000
00000000
00000032
00000000
00000000
00000000
,
00000203
00002300
00023000
00230000
,
20300000
32000000
03020000
00032000
,
00003020
00000130
00010000
00011000
,
00100000
00000000
00010000
00100000
00020000
00000000
00000000
00000000
02030000
00000000
00000000
00000000
23000000
00000000
00000000
00000000
,
32000000
00000000
03020000
00000000
00130000
00001000
00000000
00010000
,
00000100
00000100
00020000
00000000
00032000
00000000
00003200
00000000
,
00000302
00000000
00000000
00000000
00000023
00000000
00000000
00000000
00000130
00000000
00001000
00000000
00000010
00000000
00000100
00000001
,
00001000
00000000
00001001
00000000
00000001
00000100
00000010
00000100
,
00001000
00020000
00000000
00130000
20000000
00000000
32000000
00000000
,
03010000
01000000
20000000
00000000
30100000
01000000
00000000
01000000
,
00100000
00000000
00010000
00000000
00002000
00000000
00000000
00000000
00013000
00000000
00010000
00000000
00000000
00000000
00001000
00100000
,
00001000
00000000
00010000
00000100
00020000
00000000
00000000
00000000
00031000
00000000
00000010
00000000
00000001
00000000
00000010
00000000
,
00000100
00002000
00000000
00003001
00000100
00001000
00010000
00001000
,
00010000
00100000
20000000
00000000
01000000
00000000
30100000
00000000
,
10000000
00000000
01000000
00000000
00010000
00000000
00010000
00000000
00001000
00000000
00100000
00001000
00100000
00000000
00001000
00000000
,
00010000
00001000
00010000
00001000
00001100
00000000
00000000
00000000
00000001
00000000
00000010
00000000
00000100
00000000
00002000
00000000
,
00000000
00003001
00000100
00001000
00020000
00000000
00230000
00000000
,
20300000
00000000
01000000
00000000
30010000
00100000
01000000
00010000
,
00001000
00000000
00000000
00011000
00000000
00000000
00010000
00000000
00000020
00000000
00000000
00000000
00000030
00000000
00000100
00000010
,
00000100
00000000
00000001
00000000
00000100
00000000
00001000
00000000
00010000
00000000
00001000
00000000
00000000
00000000
00010000
00001000
,
00010000
00000000
00100000
00000000
10000000
00000000
00100000
00000000
01000000
00000000
00010000
00000000
00000000
00000000
00100000
01000000
,
10000000
01000000
00010000
00001000
00100000
00001000
00000010
00000100
,
00001000
00000000
00000010
00001000
00000020
00000000
00000000
00000000
00000130
00000000
00000100
00000000
00000001
00000000
00000000
00000000
,
00000110
00000100
00001000
00011000
00010000
00100000
02200000
00000000
,
00000000
03300000
10000000
00000000
00010000
00000000
00100000
00000000
,
01100000
01000000
00010000
00011000
00001000
00000010
00000220
00000000
,
00000000
00000330
00000010
00000000
00000001
00000000
00000100
00000000
,
00000110
00000100
00001000
00011000
00010000
00100000
02200000
00000000
,
00000000
03300000
10000000
00000000
00010000
00100000
01000000
00000000
,
01100000
01000000
00010000
00011000
00001000
00000010
00001000
00100000
,
00000000
00022000
00000000
00000000
,
00000000
00000000
00000000
00000000
,
00000000
00000000
00000000
00000000
,
00000000
00000000
00000000
00000000
00000000
00000000
00000000
00000000
00033000
00000000
00000000
00000000
01000000
00010000
10000000
00010000
,
01000000
00000000
00100000
00000000
10000000
01000000
00010000
00000000
00001000
00000000
00000100
00000000
00000001
00000000
00000000
00000010
,
00000100
00001000
00000001
00000100
00000010
00000000
00000000
00000100
00001000
00010000
00100000
01000000
00000000
00100000
10000000
00000000
,
10010000
01002000
00103000
00020100
,
00030010
00000000
00000000
00000000
00011000
00000000
00101000
00000000
00110000
00000000
01010000
00000000
01000000
00100000
10000000
01000000
,
00010000
00001000
00010000
00001000
00020000
00000000
00030000
00000000
00001000
00000000
00000000
00000000
00000010
00000000
00000000
00000000
00000100
00000000
00000000
00000000
00000010
00000000
00000000
00000000
00000001
00000000
00001000
00000000
00000100
00000000
00001000
00000000
,
00000001
00000000
00000100
00000000
00000010
00000000
00001000
00000000
00000010
00000000
00010000
00000000
00001000
00100000
00010000
00100000
,
00001000
00000000
00010000
00000000
00001000
00000000
01000000
00000000
00010000
00000000
00100000
00000000
01000000
10000000
00010000
10000000
,
01000000
00000000
00100000
00000000
00001000
00000000
00010000
00001000
00010000
00000000
00000010
00000000
00002020
00000000
00000000
00000000
,
00003030
00000000
00000000
00000000
00000001
00000000
00000100
00000000
00001000
00000000
00000100
00000000
00000010
00001000
00000001
00001000
,
00000010
00000000
00000000
00000000
00010000
00001000
00010000
00001000
00000010
00000000
00000000
00000000
00001000
00010000
00001000
00010000
,
00100000
00000000
00000000
00000000
01000000
00000000
10000000
00000000
01000000
00000000
00010000
00000000
10000000
00100000
01000000
00100000
,
10000000
00000000
00000000
00000000
00000000
00000000
00000000
00000000
00000000
00000000
00000000
00000000
01000000
00000000
00000000
00000000
00000000
00000000
00010000
00000000
00000000
00000000
00000000
00000000
00001000
00000000
00000000
00010000
00000000
00000000
00001000
00000000
00000000
00000000
00000000
00000000
00000010
00000000
00000000
00000000
00000000
00000000
00000000
00000000
00000110
00000000
00000000
00000000
,
00000000
00001001
00000000
00001000
00000000
00000010
00000100
00000000
00000001
00001000
00000010
00000100
,
00001000
00010000
00001000
00010000
00000000
00100000
01000000
00000000
00010000
10000000
01000000
00100000
,
00001000
00010000
00001000
00010000
00000000
00000100
00000010
00000000
00000001
00001000
00000010
00001000
,
00000001
00000100
00001000
00010000
00000000
00100000
01000000
00000000
00010000
10000000
01000000
00100000
,
00010000
00000000
00000000
00000000
01000000
00000000
00000000
00000000
00001000
00000000
00000000
00000000
00010000
00000000
00000000
00000000
00000000
00000000
00001000
00000000
00000000
00000000
00000000
00000000
00010000
00000000
00000000
00000100
00000000
00000000
00010000
00000000
00000000
00000000
00000000
00000000
00000100
00000000
00000000
00001000
00000000
00000000
00000100
00000000
00000000
00000000
00000000
00000000
,
00001000
00000010
00000100
00000000
00000001
00000000
00000010
00000000
00000100
00001000
00000100
00000000
00010000
00001000
00010000
00000000
,
00001000
00100000
00010000
00000000
01000000
00000000
00100000
00000000
10000000
01000000
00100000
00000000
00010000
01000000
00001000
00000000
,
00010000
00000000
00000000
00001000
00000000
00000000
00100000
00000000
00000000
00000000
00000000
00000000
00010000
00000000
00000000
00000000
00000000
00000000
00000000
00000000
01010000
00000000
00000000
00000000
00000000
00000000
00000000
00000000
00101000
00000000
00000000
00000000
00000000
00000000
00000000
00000000
00011000
00000000
00000000
00000000
00000000
00000000
00001000
00000000
00000000
00000000
00000000
00000000
,
00010000
00001000
00010000
00001000
00000010
00000000
00000000
00000000
00000010
00000000
00000100
00000000
00001000
00000000
00000000
00000000
,
00000001
00000000
00000100
00000000
00000100
00001000
00010000
00000000
,
00001000
00001000
00010000
00000000
00100000
01000000
00100000
00000000
,
10000000
01000000
01100000
10010000
,
10000000
00000000
01000000
00100000
00010000
00000000
00000000
00000000
00010000
00000000
01000000
00000000
00000000
00000000
00001000
00000000
,
00010000
00000000
00000010
00000000
00000010
00001000
00000000
00000100
,
00000010
00000010
00000002
00000000
00000203
00000000
00002300
00000000
,
00023000
00000000
00000000
00000000
00130000
00000000
01000000
00000000
00100000
00000000
01000000
00000000
00010000
01000000
00010000
01000000
,
00001000
00010000
00001000
00010000
00000020
00000000
00000000
00000000
00000230
00000000
00000000
00000000
00002300
00000000
00000000
00000000
,
00023000
00030020
00000230
00002300
,
00023000
00000000
00030020
00000000
00000230
00000000
00001300
00100000
;
