#TITLE:ZOMBIE x O FORTUNA;
#SUBTITLE:;
#ARTIST:Black Tiger Sex Machine (feat. Panther);
#TITLETRANSLIT:;
#SUBTITLETRANSLIT:;
#ARTISTTRANSLIT:;
#GENRE:;
#CREDIT:;
#MUSIC:Zombie x O Fortuna.mp3;
#BANNER:ZOMBIE x O FORTUNA.jpg;
#BACKGROUND:ZOMBIE x O FORTUNA-bg.jpg;
#CDTITLE:;
#SAMPLESTART:48.071;
#SAMPLELENGTH:12.000;
#SELECTABLE:YES;
#OFFSET:-1.196;
#BPMS:0.000=128.000;
#STOPS:;
#BGCHANGES:;
#FGCHANGES:;

//--------------- dance-single - SPACE GOBLIN!!! ----------------
#NOTES:
     dance-single:
     SPACE GOBLIN!!!:
     Hard:
     13:
     0.651104,0.643648,0.257459,0.306168,0.577544,655,618,37,44,2,0,0.651104,0.643648,0.257459,0.306168,0.577544,655,618,37,44,2,0:
0000
0000
0000
0000
0000
0000
2000
0000
3000
0001
0010
0000
0100
0000
2000
0000
,
3001
0000
0100
0000
0001
1000
0010
0000
1000
0000
0001
1000
0000
0010
0200
0300
,
0010
0000
0100
0000
0001
0000
0100
0001
1000
0100
1000
0000
0010
0000
0100
0000
,
0000
0000
0000
1000
0001
0000
1000
0000
0010
0000
0100
0000
0100
0000
0010
0000
,
1000
0000
1001
0000
1000
0000
0100
0000
0010
0000
0001
0000
0200
0300
0002
0003
,
0100
0000
0010
1000
0001
0000
1000
0000
0100
0000
0010
0000
2000
0000
3010
0000
,
0001
0000
0100
0000
0010
0100
0010
0000
1000
0000
0010
0000
0200
0000
0301
0000
,
1000
0100
0000
0010
0100
1000
0001
0000
1000
0100
0000
0010
0001
0000
1001
0000
,
0000
1000
0010
1000
0100
0010
0100
0020
,
0031
0000
1000
0000
0000
0010
0100
0000
0001
0000
0010
0000
0001
0010
0100
0010
,
0000
0000
0001
0000
0020
0000
0031
0000
0100
0000
0001
1000
0100
0000
0010
0000
,
0001
0000
0100
0000
0010
0000
1000
0010
1000
0000
0001
1000
0020
0030
0110
0000
,
0001
0000
0100
0000
0010
0000
1000
0000
0100
0010
0001
0000
1000
0000
0002
0000
,
0103
1001
0001
0010
100M
1000
0100
1001
,
1000
0100
0010
0000
0100
0000
1000
0100
0010
0000
0100
0010
0001
0000
0110
0000
,
1000
0000
0010
0000
0001
0000
1000
0001
0010
0000
0010
0000
2000
0000
3001
0000
,
1001
0000
0000
0000
0000
0000
0000
0000
4000
0002
0000
0000
0000
0000
0000
0000
,
0000
0000
0000
0000
0000
0000
3003
0000
4020
0000
0000
0000
0000
0000
0000
3030
,
2002
0000
0000
0000
0000
0000
0000
3003
1001
0000
0000
0000
0001
0000
0100
0000
,
2002
0000
0000
0000
0000
3003
1001
0000
0011
0000
0000
0000
1001
0000
0000
0000
,
1100
0000
0000
0000
0110
0000
0000
0000
4002
0000
0000
0000
0000
3003
0000
0000
,
2004
0000
0000
0000
0000
3003
0000
0000
0202
0000
0000
0303
1000
0000
0010
0000
,
4002
0000
0000
0000
0000
0000
0000
3003
2004
0000
0000
0000
0000
0000
0000
3003
,
2040
0000
0000
0000
0000
0000
0000
3030
4020
0000
0000
0000
0000
0000
0000
3030
,
1000
0100
0010
0001
0100
0010
1000
0100
,
1000
0001
1000
0100
0010
0100
1000
0001
0100
0010
1000
0001
,
1000
0000
0001
1000
0001
1000
0001
0000
0001
1000
0010
1000
,
1001
0001
1000
0010
0100
0100
0100
0001
,
1000
0001
0010
0100
0010
0100
0010
0001
,
1000
0010
0100
0001
0001
1000
1000
0010
,
0100
0001
0010
0100
1000
0010
0100
0001
,
1000
0100
0010
0001
1001
1000
0100
1000
,
0100
0000
0000
0010
0000
0000
0001
0000
0000
0001
0000
0000
1000
0000
0010
0000
0100
0000
0001
0000
1000
0000
0001
0000
,
1000
0000
0000
0000
,
1001
0000
1001
0000
1000
0010
0100
0010
,
1000
0000
0010
0000
0001
0000
0010
0000
1000
0000
0100
0000
0001
0000
0000
1000
0000
0000
0010
0000
0000
0001
0000
0000
,
1000
0010
0100
0001
1000
0010
0100
0001
,
1000
0000
0100
0000
0010
0000
0001
0000
0010
0000
0100
0000
1000
0000
0010
0000
0100
0000
0002
0000
0000
1003
0000
0000
,
0100
0000
0000
0001
0000
0000
0100
0000
0000
0001
0000
0000
0100
0000
0000
1000
0000
0000
0001
0000
0010
0000
0100
0000
,
1000
0001
0100
2000
0000
3001
0010
0000
0100
0001
0000
1000
,
0010
0001
0010
1000
0000
0001
0100
2000
0000
3001
0010
0100
,
0010
1000
0010
0100
0010
1000
0100
0010
,
0000
0001
0010
1000
0010
0100
0001
0100
0010
0100
1000
0010
,
0001
0000
0010
0000
0100
0000
1000
0000
0001
0000
1000
0000
0100
0000
0000
0010
0000
0000
1000
0000
0000
0001
0000
0000
,
0001
1000
0010
0100
0001
0010
0100
0010
0001
1000
0010
0100
,
0001
0000
0000
0000
1000
0000
0000
0000
0010
0000
0000
0000
1000
0000
0000
0000
0000
0000
0100
0000
0000
0000
0000
0000
1000
0000
0000
0100
0000
0000
0010
0000
0000
0001
0000
0000
0010
0000
0000
0100
0000
0000
1000
0000
0000
0000
0000
0000
,
0010
0000
0000
0000
0000
0000
1000
0000
0000
0000
0000
0000
0100
0000
0000
0000
0010
0000
0000
0000
0001
0000
0000
0000
0100
0000
0000
0000
0010
0000
0000
0000
1000
0000
0000
0000
0010
0000
0000
0000
0000
0000
1000
0000
0000
0100
0000
0000
,
0010
0001
0010
0001
0100
0010
1000
0001
0100
0010
1000
0001
,
0100
0000
0010
0000
1000
0000
0100
0000
0000
1000
0000
0000
0010
0000
0000
0100
0000
0000
0010
0000
0000
1001
0000
0000
,
1000
0000
0000
0000
0100
0000
0000
0000
0010
0000
0000
0000
0001
0000
0000
0000
0000
0000
1000
0000
0000
0000
0000
0000
0100
0000
0000
0000
0000
0000
0010
0000
0000
0100
0000
0000
1000
0000
0000
0000
0000
0000
1001
0000
0000
0000
0000
0000
,
1000
0000
0001
0000
0100
0000
0001
0000
1000
0000
0001
0000
0010
0000
0100
0000
0010
0000
0100
0000
0000
1000
0000
0000
,
0010
0000
0100
0000
0010
0000
0100
0000
0001
0000
0100
0000
0010
0000
1000
0000
0100
0000
0010
0000
0000
0001
0000
0000
,
0001
0000
0000
0100
0000
0000
0010
0000
1000
0000
0001
0000
1000
0000
0100
0000
0010
0000
0001
0000
0000
1000
0000
0000
,
0001
0000
0010
0100
1000
0000
0010
0000
0100
0000
0001
0000
1000
0000
0001
0000
0100
0000
0001
0000
0000
0100
0000
0000
,
0001
0010
0020
0001
0001
0100
0100
0001
,
1000
0000
0000
0001
0000
0000
1030
0000
0000
0100
0000
0000
0010
0000
0000
0000
0001
0000
0100
0000
0010
0000
1000
0000
,
0001
0000
0010
0100
1000
0100
0010
0000
0010
0001
0010
0100
,
2002
0000
0000
0000
0000
0000
0000
0000
0000
0000
0000
0000
0000
0000
0000
0000
0000
0000
0000
0000
0000
0000
0000
0000
0000
0000
0000
0000
0000
0000
0000
0000
0000
0000
0000
3003
0000
0000
0000
0000
0000
0000
0000
0000
0000
0000
0000
0000
,
0000
0000
0000
0000
0000
0000
2000
0000
3000
0001
0010
0000
0100
0000
2000
0000
,
3001
0000
0100
0000
0001
1000
0010
0000
1000
0000
0001
1000
0000
0010
0200
0300
,
0010
0000
0100
0000
0001
0000
0100
0001
1000
0100
1000
0000
0010
0000
0100
0000
,
0000
0000
0000
1000
0001
0000
1000
0000
0010
0000
0100
0000
0100
0000
0010
0000
,
1000
0000
1001
0000
1000
0000
0100
0000
0010
0000
0001
0000
0200
0300
0002
0003
,
0100
0000
0010
1000
0001
0000
1000
0000
0100
0000
0001
0000
2000
0000
3001
0000
,
0001
0000
0100
0000
0010
0100
0010
0000
0001
0000
0010
0000
0200
0000
0310
0000
,
0010
0100
0000
0010
0100
1000
0001
0000
1000
0100
0000
0100
1000
0000
0001
0000
,
0000
1000
0010
1000
0100
0010
0100
2000
,
3010
0000
0100
0000
0000
0100
0001
0000
0100
0000
0010
0000
1000
0001
0100
0010
,
0100
0000
1001
0000
0020
0000
1030
0000
0100
0000
1000
0001
0100
0000
0010
0000
,
1000
0000
0100
0000
0010
0000
0001
1000
0010
0000
1000
0010
0200
0300
0110
0000
,
0001
0000
0100
0000
0010
0000
1000
0000
0100
0010
0001
0000
1000
0000
0002
0000
,
0103
1001
0001
0010
100M
1000
0100
1001
,
1000
0100
0010
0000
0100
0000
1000
0100
0010
0000
0100
0010
0001
0000
0110
0000
,
1000
0000
0010
0000
0001
0000
1000
0001
0010
0000
1000
0000
0002
0003
1000
0000
,
1001
0000
0000
0000
;

//--------------- dance-single - SPACE GOBLIN!!! ----------------
#NOTES:
     dance-single:
     SPACE GOBLIN!!!:
     Challenge:
     16:
     0.857866,0.9526,0.38271,0.327043,1.123775,863,799,55,47,2,8,0.857866,0.9526,0.38271,0.327043,1.123775,863,799,55,47,2,8:
0000
0000
0000
0000
0000
0000
2000
0000
3000
0001
0010
0100
1000
0100
2000
0000
,
3001
0000
0010
0000
0001
1000
0010
1000
0001
0100
0001
1000
0100
0010
0200
0300
,
0110
0000
0001
0000
1000
0001
0100
0001
1000
0100
1000
0001
0100
0010
1000
0001
,
0100
0000
0010
1000
0001
0100
0001
1000
0010
0100
0001
1000
0100
0010
0100
0020
,
0031
0000
1001
0000
0001
0000
0100
0000
0010
0000
1000
0010
0200
0300
0002
0003
,
0100
0000
0010
1000
0001
0000
1000
0001
0100
0001
1000
0100
2000
0000
3001
0000
,
0001
0000
0100
0000
0010
0100
0010
0000
0101
0000
1000
0001
0200
0000
0301
0000
,
1000
0100
0000
0010
0100
1000
0001
0000
1000
0100
0010
0001
1000
0000
1001
0000
,
0110
0000
1000
0001
0010
0001
1000
0000
0100
1000
0100
0000
0100
0010
0002
0000
,
1003
0000
0001
0000
0000
1000
0001
0000
0100
0001
1000
0010
0100
0001
0100
0010
,
0100
0000
1001
0000
0020
0000
1030
0010
0100
0000
0001
1000
0100
0000
0010
0001
,
1000
0100
0010
0001
0010
0100
1000
0001
0100
0000
0001
1000
0020
0030
0110
0000
,
0001
0100
0010
0000
1001
0000
1000
0000
0100
0010
0001
1000
0001
0100
0002
0000
,
0103
0000
1001
0000
0001
0000
0010
0000
100M
0100
1000
0001
0100
0000
1001
1000
,
0010
0100
0001
0010
0100
0000
1000
0100
0010
0000
0100
0010
0001
0000
0110
0000
,
1000
0010
0000
0100
0101
0000
1000
0001
0100
0000
0010
0100
0002
0003
1000
0000
,
1001
0000
0000
0000
0000
0000
0000
0000
4000
0004
0000
0000
0000
0000
0000
0000
,
0000
0000
0000
0000
0000
0000
3003
0000
4022
0000
0000
0000
0000
0000
0000
3033
,
2204
0000
0000
0000
0000
0000
0000
3303
1001
0000
0000
0000
0001
0100
0010
0100
,
2002
0000
0000
0000
0000
3003
1001
0000
0011
0000
0000
0000
1001
0000
0000
0000
,
1100
0000
0000
0000
0110
0000
0000
0000
4002
0000
0000
0000
0000
3003
0110
0000
,
2004
0000
0000
0000
0000
3003
1001
0000
0202
0000
0000
0303
1000
0100
0010
0001
,
4002
0000
0000
0000
0000
0000
0000
3003
2004
0000
0000
0000
0000
0000
0000
3003
,
2240
0000
0000
0000
0000
0000
0000
3330
4022
0000
0000
0000
0000
0000
0000
3033
,
1000
0000
0100
0000
0010
0000
0001
0000
0100
0000
0010
1000
0001
0000
0100
0000
,
0010
1000
0001
0100
0010
0100
0001
1000
0100
0010
0001
1000
,
1101
0000
1000
0100
1000
0001
1011
0000
1000
0001
0010
0001
,
1101
0000
0001
1000
0100
0000
0010
0001
0010
0000
0100
1000
0100
1000
0001
0100
,
0001
0000
1000
0010
0100
0001
0001
1000
0010
0000
0100
0000
0010
0000
0001
0000
,
0010
0000
1000
0100
1000
0000
0001
0010
0001
0000
1000
0001
1000
0000
0010
0000
,
0100
0000
0001
0100
0010
1000
0010
0100
0001
0010
0100
1000
0001
0000
0100
0000
,
0010
0000
0100
0000
0010
0000
1000
0000
1001
0000
1000
0010
0100
0000
0001
0000
,
0100
0000
0000
0010
0000
0000
1000
0000
0000
0001
0000
0000
1000
0000
0010
0000
0100
0000
0001
0000
1000
0000
0001
0000
,
1001
0000
0000
0000
,
1111
0000
1001
0000
0100
0010
0110
0010
,
1000
0000
0000
0000
0010
0000
0000
0000
0001
0000
0000
0000
0010
0000
0000
0000
1000
0000
0000
0000
0100
0000
0000
0000
0001
0000
0000
0100
0000
0000
1000
0000
0000
0010
0000
0000
0001
0000
0000
0000
0000
0000
0010
0000
0000
0000
0000
0000
,
1000
0000
0100
0000
0001
0000
1000
0010
0001
0000
0010
0001
0100
0000
0001
0100
,
1000
0000
0000
0000
0100
0000
0000
0000
0010
0000
0000
0000
0001
0000
0000
0000
0010
0000
0000
0000
0100
0000
0000
0000
1000
0000
0000
0000
0100
0000
0000
0000
0001
0000
0000
0000
2000
0000
0000
0000
3000
0000
1000
0000
0000
0001
0000
0000
,
0100
0000
0000
0000
0000
0000
0001
0000
0000
0000
0000
0000
0100
0000
0000
0000
0000
0000
0001
0000
0000
1000
0000
0000
0010
0000
0000
0000
0000
0000
1000
0000
0000
0010
0000
0000
0001
0000
0000
0000
0010
0000
0000
0000
1000
0000
0000
0000
,
0100
0001
0100
1000
0010
0001
0010
1000
0100
0001
0100
1000
,
0010
0001
0010
1000
0100
0001
0100
1000
0100
0001
0100
0010
,
0001
0010
0100
0000
1000
0010
0100
0001
1000
0000
0100
0010
0100
0000
0100
1000
,
0001
0000
0010
0000
0100
0000
1000
0000
0010
0100
0010
0000
1000
0000
0100
0000
0010
0000
0001
0000
0100
0010
0100
0000
,
0001
0000
0000
0000
0010
0000
0000
0000
0100
0000
0000
0000
1000
0000
0000
0000
0001
0000
0000
0000
1000
0000
0000
0000
0100
0000
0000
0001
0000
0000
0100
0000
0000
0010
0000
0000
0100
0000
0000
1000
0000
0000
0100
0000
0000
0010
0000
0000
,
0001
0000
1000
0000
0010
0000
0100
0000
0001
0100
0010
0000
1000
0000
0100
0010
0001
0000
1000
0000
0010
0100
0010
0000
,
1000
0000
0000
0000
0001
0000
0010
0000
0100
0000
0000
0000
1000
0000
0000
0001
0000
0000
0100
0000
0000
0001
0000
0000
1000
0000
0000
0100
0000
0000
0010
0000
0000
0001
0000
0000
0010
0000
0000
0001
0000
0000
1000
0000
0000
0010
0000
0000
,
0100
0000
0000
0001
0000
0000
1000
0000
0000
0001
0000
0000
0100
0000
0000
0000
0010
0000
0000
0000
1000
0000
0000
0000
0100
0000
0000
0000
0010
0000
0001
0000
0100
0000
0000
0000
0010
0000
0000
1000
0000
0000
0001
0000
0000
0100
0000
0000
,
0010
1000
0010
0001
0010
1000
0100
0001
0100
1000
0010
0001
,
0010
0000
0000
0000
1000
0000
0000
0000
0001
0000
0000
0000
0100
0000
0000
0010
0000
0000
1000
0000
0000
0010
0000
0000
0100
0000
0000
0001
0000
0000
1000
0000
0000
0100
0000
0000
0010
0000
0000
0000
0000
0000
1001
0000
0000
0000
0000
0000
,
1000
0000
0000
0000
0100
0000
0000
0000
0010
0000
0000
0000
0001
0000
0000
0000
0000
0000
0100
0000
0000
0010
0000
0000
1000
0000
0000
0000
0000
0000
0010
0000
0000
0100
0000
0000
0001
0000
0000
0000
0000
0000
1001
0000
0000
0000
0000
0000
,
1000
0000
0000
0000
0001
0000
0000
0000
0100
0000
0000
0000
0001
0000
0100
0000
0001
0000
0100
0000
0001
0000
0100
0000
0010
0000
1000
0000
0010
0000
1000
0000
0010
0000
1000
0000
0010
0000
0000
0000
0000
0000
1000
0000
0000
0100
0000
0000
,
0010
0000
0000
0000
0100
0000
0000
0000
0010
0000
0000
0000
0001
0000
0000
0000
1000
0000
0000
0000
0100
0000
0000
0000
0010
0000
0100
0000
0010
0000
0100
0000
0010
0000
0100
0000
1000
0000
0000
0000
0000
0000
0100
0000
0000
1000
0000
0000
,
0001
0000
0000
1000
0000
0000
0010
0000
0000
0100
0000
0000
0001
0000
0000
0000
0100
0000
0000
0000
0001
0000
0000
0000
1000
0000
0000
0000
0100
0000
0000
0000
0010
0000
0000
0000
0001
0000
0000
0100
0000
0000
0010
0000
0000
1000
0000
0000
,
0001
0000
1000
0000
0010
0000
1000
0000
0001
0000
1000
0000
0010
0000
1000
0000
0001
0000
0010
0000
0001
0000
0100
0000
0010
0000
1000
0000
0001
0000
0010
0000
0100
0000
0010
0000
0001
0000
0000
1000
0000
0000
0100
0000
0000
0010
0000
0000
,
0001
1000
0010
0100
0020
0000
0001
0000
0001
0000
0100
0000
0100
0000
0001
0000
,
1000
0000
0000
0001
0000
0000
1030
0000
0000
0100
0000
0000
0010
0000
0000
0000
0001
0000
0100
0000
0010
0000
1000
0000
,
0002
0000
0013
0100
1000
0100
0010
0000
0010
0001
0100
0010
,
2002
0000
0000
0000
0000
0000
0000
0000
0000
0000
0000
0000
0000
0000
0000
0000
0000
0000
0000
0000
0000
0000
0000
0000
0000
0000
0000
0000
0000
0000
0000
0000
0000
0000
0000
3003
0000
0000
0000
0000
0000
0000
0000
0000
0000
0000
0000
0000
,
0000
0000
0000
0000
0000
0000
0002
0000
0003
1000
0010
0100
0001
0100
0002
0000
,
1003
0000
0010
0000
1000
0001
0010
0001
1000
0100
1000
0001
0100
0010
0200
0300
,
0110
0000
1000
0000
0001
1000
0100
1000
0001
0100
0001
1000
0100
0010
0001
1000
,
0100
0000
0010
0001
1000
0100
1000
0001
0010
0100
1000
0001
0100
0010
0100
0020
,
1030
0000
1001
0000
1000
0000
0100
0000
0010
0000
0001
0010
0200
0300
2000
3000
,
0100
0000
0010
0001
1000
0000
0001
1000
0100
1000
0001
0100
0002
0000
1003
0000
,
1000
0000
0100
0000
0010
0100
0010
0000
1100
0000
0001
1000
0200
0000
1300
0000
,
0001
0100
0000
0010
0100
0001
1000
0000
0001
0100
0010
1000
0001
0000
1001
0000
,
0110
0000
0001
1000
0010
1000
0001
0000
0100
0001
0100
0000
0100
0010
2000
0000
,
3001
0000
1000
0000
0000
0001
1000
0000
0100
1000
0001
0010
0100
1000
0100
0010
,
0100
0000
1001
0000
2000
0000
3001
0010
0100
0000
1000
0001
0010
0000
0001
1000
,
0001
0100
0010
1000
0010
0100
0001
1000
0100
0000
1000
0001
0020
0030
0110
0000
,
1000
0100
0010
0000
1001
0000
0001
0000
0100
0010
1000
0001
1000
0100
2000
0000
,
3100
0000
1001
0000
1000
0000
0010
0000
M001
0100
0001
1000
0100
0000
1001
0001
,
0010
0100
1000
0010
0100
0000
0001
0100
0010
0000
0100
0010
1000
0000
0110
0000
,
0001
0010
0000
0100
1100
0000
0001
1000
0100
0000
0010
0100
2000
3000
0001
0000
,
0110
0000
0000
0000
;
