#VERSION:0.83;
#TITLE:幽霊船戦;
#SUBTITLE:(Dead Ma'am's Chest);
#ARTIST:宝鐘マリン;
#TITLETRANSLIT:Yurei-sen-sen;
#SUBTITLETRANSLIT:;
#ARTISTTRANSLIT:Houshou Marine;
#GENRE:V-Tuber;
#CREDIT:;
#MUSIC:Yurei-sen-sen.ogg;
#BANNER:Yurei-sen-sen.png;
#BACKGROUND:;
#CDTITLE:cdtitle.jpg;
#SAMPLESTART:76.125;
#SAMPLELENGTH:15.000;
#SELECTABLE:YES;
#OFFSET:0.000;
#BPMS:0.000=160.000;
#STOPS:;
#SPEEDS:0.000=1.000=0.000=0,
196.000=0.000=0.000=0,
196.021=1.000=6.000=0,
297.000=0.000=0.000=0,
297.021=1.000=6.000=0
;
#SCROLLS:0.000=1.000;
#TIMESIGNATURES:0.000=4=4;
#BGCHANGES:0.000=Yurei-sen-sen.avi=1.000=1=0=0=StretchNoLoop==CrossFade==;
#FGCHANGES:;

//--------------- dance-single - KAYSTAR ----------------
#NOTEDATA:;
#STEPSTYPE:dance-single;
#DESCRIPTION:KAYSTAR;
#DIFFICULTY:Beginner;
#METER:5;
#RADARVALUES:0,0,0,0,0;
#NOTES:
0000
0000
0000
0000
,
0000
0000
0000
0000
,
0000
0000
0000
0000
,
0000
0000
0000
0000
,
0000
0000
0000
0000
,
0000
0000
0000
0000
,
0000
0000
0000
0000
,
0000
0000
0000
0000
,
0000
0000
0000
0000
,
1000
0000
1000
0000
,
0001
0000
0001
0000
,
0100
0000
0100
0000
,
0010
0010
0010
0000
,
1000
0000
1000
0000
,
0001
0000
0001
0000
,
0010
0000
0010
0000
,
0100
0100
0100
0000
,
1000
0000
0000
0000
,
0010
0000
0000
0000
,
0100
0000
0000
0000
,
0001
0000
0000
0000
,
1000
0000
0000
0000
,
0100
0000
0000
0000
,
0010
0000
0000
0000
,
0001
0000
0000
0000
,
1000
0000
0010
0000
,
0100
0100
0100
0000
,
0001
0000
0010
0000
,
0100
0100
0100
0000
,
1000
0000
0010
0000
,
0100
0000
0001
0000
,
0010
0010
0010
0000
,
0100
0100
0100
0000
,
2002
0000
0000
0000
,
3003
0000
0000
0000
,
0002
0000
0003
0000
,
2000
0000
3000
0000
,
0001
0000
0010
0000
,
0100
0000
1000
0000
,
0001
0000
0100
0000
,
0010
0000
1000
0000
,
0001
0001
0001
0000
,
0010
0000
0100
0000
,
1000
1000
1000
0000
,
0010
0000
0100
0000
,
0002
0000
0003
0000
,
0010
0000
0100
0000
,
2000
0000
3000
0000
,
0010
0010
0010
0000
,
0000
0000
0000
0000
,
0000
0000
0000
0000
,
1000
1000
1000
0000
,
0001
0001
0001
0000
,
0100
0100
0100
0000
,
0010
0000
1000
0000
,
0200
0000
0300
0000
,
0010
0010
0010
0000
,
0001
0000
0100
0000
,
0010
0000
1000
0000
,
0001
0001
0001
0000
,
1000
1000
1000
0000
,
0100
0100
0100
0000
,
0010
0000
0001
0000
,
0200
0000
0300
0000
,
0010
0010
0010
0000
,
1000
0000
0100
0000
,
0010
0000
0001
0000
,
1000
0000
0010
0000
,
0100
0000
0001
0000
,
0010
0010
0010
0000
,
0100
0100
0100
0000
,
1000
0000
0001
0000
,
0100
0100
0100
0000
,
0010
0010
0010
0000
,
0000
2002
0000
0000
,
0000
0000
0000
0000
,
0000
0000
0000
0000
,
3003
0000
0000
0000
;

//--------------- dance-single - KAYSTAR ----------------
#NOTEDATA:;
#STEPSTYPE:dance-single;
#DESCRIPTION:KAYSTAR;
#DIFFICULTY:Easy;
#METER:9;
#RADARVALUES:0,0,0,0,0;
#NOTES:
0000
0000
0000
0000
,
0000
0000
0000
0000
,
0000
0000
0000
0000
,
0000
0000
0000
0000
,
0000
0000
0000
0000
,
2000
0000
3000
0000
,
0010
0000
0100
0000
,
0002
0000
0003
0000
,
0000
0000
0000
0000
,
1000
0100
0010
0010
,
0001
0100
0020
0030
,
1000
0100
0010
0010
,
0001
0000
0000
0001
0000
0000
0001
0000
1000
0000
0000
0000
0001
0000
0000
0000
,
0010
0100
1000
1000
,
0010
0100
0001
0001
,
1000
0100
0010
0001
,
1000
0000
0000
1000
0000
0000
1000
0000
0001
0000
0000
0000
1000
0000
0000
0000
,
0100
0100
0010
0010
,
0001
1000
0020
0000
,
0130
0100
0010
0010
,
1000
0100
0010
0001
,
1000
0010
0100
0000
,
0001
0010
0100
0000
,
1000
0010
0100
0001
,
0010
0001
0000
0000
1000
0100
0000
0000
,
1000
1000
0001
0001
,
0100
0010
2000
0000
,
3001
0001
1000
1000
,
0001
0010
0100
1000
,
0010
0100
0001
0000
,
0010
0100
1000
0000
,
0010
0010
0010
0000
,
0100
0100
0100
0000
,
2002
0000
0000
0000
,
3003
0000
0000
0000
,
0000
0000
0000
0000
,
0000
0000
0000
0000
,
0001
0010
0100
0000
,
1000
0010
0100
0000
,
0002
0000
0023
0000
,
0230
0000
2300
0000
,
3001
0100
0010
0010
,
1000
0100
0010
0000
,
0100
1000
0010
0010
,
0100
0001
0010
0100
,
2000
0000
0000
0000
,
3010
0000
0100
0000
,
0002
0000
0000
0000
,
0013
0000
0000
0010
0000
0000
0010
0000
0100
0000
0000
0100
0000
0000
0100
0000
,
0000
0000
0000
0000
,
0000
0000
0000
0000
,
1000
0000
0001
0010
0001
0000
0100
0000
,
0001
0000
1000
0010
1000
0000
0100
0000
,
1000
0000
0001
0100
0010
0000
1000
0000
,
0200
0000
0310
0110
,
0001
1000
0001
1000
0001
0000
0200
0000
,
0320
2030
3002
0023
,
0130
0000
1000
0001
0200
0000
0310
0000
,
1000
0000
0001
1000
0200
0000
0310
0000
,
0001
0000
1000
0100
1000
0000
0010
0000
,
1000
0000
0001
0100
0001
0000
0010
0000
,
0001
0000
1000
0010
0100
0000
0001
0000
,
0020
0000
0130
0110
,
1000
0001
1000
0001
1000
0000
0020
0000
,
0230
0302
2003
3200
,
0310
0001
0100
0100
,
0010
1000
0200
0300
,
1000
0010
0100
0100
,
0001
0000
0000
0001
0000
0000
0001
0000
1000
0000
0000
0000
0001
0000
0000
0000
,
0100
0010
1000
1000
,
0100
0010
0001
0001
,
1000
0000
0010
1000
0000
0001
0100
0000
,
0001
0000
0000
0001
0000
0000
0001
0000
0010
0000
0000
0000
0100
0000
0000
0000
,
1000
0000
0000
1000
0000
0000
1000
0000
0010
0000
0000
0000
0100
0000
0001
0000
,
0000
2002
0000
0000
,
0000
0000
0000
0000
,
0000
0000
0000
0000
,
3003
0000
0000
0000
;

//--------------- dance-single - KAYSTAR ----------------
#NOTEDATA:;
#STEPSTYPE:dance-single;
#DESCRIPTION:KAYSTAR;
#DIFFICULTY:Medium;
#METER:12;
#RADARVALUES:0,0,0,0,0;
#NOTES:
0000
0000
0000
0000
,
0000
0000
0000
0000
,
0000
0000
0000
0000
,
0000
0000
0000
0000
,
0000
0000
0000
0000
,
2000
0000
0000
0000
,
3200
0000
0320
0000
,
0032
0000
0000
0000
,
0003
0000
0000
0000
,
1000
1000
0100
0100
1000
0010
0100
0001
,
0010
0010
0001
0001
1000
0000
1001
0000
,
0001
0001
1000
1000
0010
0100
0001
0010
,
0100
0000
1000
0001
0000
1000
0001
0000
0100
0000
0010
0000
2000
0000
0000
0000
,
3001
0001
0100
0100
0001
0010
0100
1000
,
0010
0010
1000
1000
0001
0000
1001
0000
,
1000
1000
0001
0001
0010
0100
1000
0010
,
0100
0000
0001
1000
0000
0001
1000
0000
0100
0000
0010
0000
0002
0000
0000
0000
,
1003
0000
0010
1000
0001
0000
0010
0001
,
0010
0001
0100
0010
1000
0100
0010
0001
,
1000
0000
0100
1000
0001
0000
0100
1000
,
0100
0001
0010
0100
1000
0000
1001
0000
,
0001
0010
0001
0010
0100
1000
0100
1000
,
0001
0100
0001
0100
0010
1000
0010
1000
,
0002
0023
0230
1300
,
0001
0001
0000
0000
1000
1000
0000
0000
,
0001
0000
0100
0001
1000
0000
0100
1000
,
0100
1000
0010
0100
0001
0010
0100
1000
,
0001
0000
0010
0001
1000
0000
0010
0001
,
0010
1000
0100
0010
0001
0000
1001
0000
,
1000
0100
1000
0100
0010
0001
0010
0001
,
1000
0010
1000
0010
0100
0001
0100
0001
,
1000
0000
0100
0010
0002
0000
1003
0000
,
0001
0000
0000
0100
0000
0000
0010
0000
2000
0000
0000
0000
3001
0000
0000
0000
,
2002
0000
0000
0000
,
3003
0000
0000
0000
,
1000
0001
1000
0000
,
0010
0010
0100
0100
,
0002
0000
0023
0000
,
0230
0000
2300
0000
,
3020
0000
0130
0000
,
2002
0000
0000
3003
,
1000
1000
0100
0010
0001
0000
0100
0010
,
1000
1000
0100
0010
0002
0000
1003
0000
,
0001
0001
0100
0010
1000
0000
0100
0010
,
0001
0001
0100
0010
2000
0000
3001
0000
,
0022
0000
0000
0033
,
2200
0000
0000
3300
,
0001
0100
0010
1000
0001
1000
0100
0010
,
0001
0000
0000
0101
0000
0000
0100
0000
0010
0000
0000
1010
0000
0000
1000
0000
,
0000
0000
0000
0000
,
0000
0000
0000
0000
,
1000
0000
0010
0000
0100
0000
0001
2000
0000
0000
3100
0000
0010
0000
0010
0000
,
0001
0000
0100
0000
0010
0000
1000
0002
0000
0000
0013
0000
0100
0000
1000
0000
,
0010
0000
0100
0000
0001
0000
0010
0200
0000
0000
1300
0000
0001
0000
0001
0000
,
0100
0000
0000
1000
0000
0000
0100
0000
0020
0000
0000
0000
1030
0000
0000
0000
,
0001
0010
0100
1000
0010
0100
0001
0000
,
0011
1001
1010
1001
,
0001
0010
0100
0001
0100
1000
0010
0000
,
0120
0000
0100
0000
0130
0000
0001
0010
0000
0100
1000
0000
,
0001
0000
0100
0000
0010
0000
1000
0002
0000
0000
0013
0000
0100
0000
0100
0000
,
1000
0000
0010
0000
0100
0000
0001
2000
0000
0000
3100
0000
0010
0000
0001
0000
,
0100
0000
0010
0000
1000
0000
0100
0020
0000
0000
0031
0000
1000
0000
1000
0000
,
0010
0000
0000
0001
0000
0000
0010
0000
0200
0000
0000
0000
0301
0000
0000
0000
,
1000
0100
0010
0001
0100
0010
1000
0000
,
1100
1001
0101
1001
,
0001
0001
0100
0100
0010
1000
0100
0001
,
0100
1000
0010
0100
0001
0000
0011
0000
,
0010
0010
0100
0100
1000
0010
0100
0001
,
0010
0000
0001
1000
0000
0001
1000
0000
0010
0000
0100
0000
0002
0000
0000
0000
,
1003
1000
0100
0100
0010
0001
0100
1000
,
0100
0001
0010
0100
1000
0010
0200
0000
,
0301
0000
0010
0010
0010
0000
0110
0000
,
1000
0000
0001
0100
0000
0100
0010
0000
1000
0000
0100
0000
0010
0000
0000
0000
,
0001
0000
1000
0010
0000
0010
0100
0000
0001
0000
0010
0000
0100
0000
1000
0000
,
0000
2002
0000
0000
,
0000
0000
0000
0000
,
0000
0000
0000
0000
,
3003
0000
0000
0000
;

//--------------- dance-single - KAYSTAR ----------------
#NOTEDATA:;
#STEPSTYPE:dance-single;
#DESCRIPTION:KAYSTAR;
#DIFFICULTY:Hard;
#METER:15;
#RADARVALUES:0,0,0,0,0;
#NOTES:
0000
0000
0000
0000
,
0000
0000
0000
0000
,
0000
0000
0000
0000
,
0000
0000
0000
0000
,
0000
0000
0000
0000
,
2000
0000
0000
0000
,
3020
0000
0230
0000
,
0302
0000
0000
0000
,
1003
0000
0100
0000
0010
0000
0001
1000
0000
0000
0000
0000
0010
0100
0010
1000
,
0001
0000
0010
0000
0100
0000
0100
1000
0000
0000
0010
0000
0100
0000
0001
0000
,
1000
0000
0100
0000
0010
0000
0010
0001
0000
0000
1000
0000
0010
0000
0100
0000
,
0001
0000
0010
0000
0100
0000
0100
1000
0000
0000
0001
0000
0100
0010
0100
0000
,
1000
0000
0100
0010
0000
0010
0100
0000
0001
1000
0001
0010
0200
0000
0000
0000
,
1300
0000
0010
0000
0100
0000
0100
0001
0000
0000
0010
0000
0100
0000
1000
0000
,
0001
0000
0100
0000
0010
0000
0010
1000
0000
0000
0001
0000
0010
0000
0100
0000
,
1000
0000
0010
0000
0100
0000
0100
0001
0000
0000
1000
0000
0100
0010
0100
0000
,
0001
0000
0000
0110
0000
0000
1001
0000
1000
0001
1000
0010
0200
0000
0000
0000
,
0301
1000
0100
0010
0002
0000
0103
2000
,
0000
3100
0010
1000
0001
0010
0100
1000
,
0010
0000
0100
0001
2000
0000
3100
0002
,
0000
0103
0010
0001
1001
0000
0110
0000
,
1000
0010
0100
0001
0001
0100
0010
1000
,
1000
0100
0010
0001
0001
0010
0100
1000
,
0001
0100
0001
0000
1000
0010
1000
0000
0001
0010
0000
0010
0100
0000
1000
0001
,
1000
1001
0000
0000
0110
0110
0000
0000
,
1000
0001
0010
0100
2000
0000
3010
0002
,
0000
0013
0100
0001
1000
0100
0010
0001
,
0100
0000
0010
1000
0002
0000
0013
2000
,
0000
3010
0100
1000
1001
0000
0110
0000
,
0001
0100
1000
0100
0001
1000
0100
0001
,
0100
0000
1000
0000
0001
0000
0100
0000
0010
0000
1000
0000
0100
0010
0001
1000
,
0001
0000
0000
0000
1000
0000
0010
1000
0010
0000
0000
0000
0110
0000
0000
0000
,
0001
0000
0000
0001
0000
0000
0010
0001
0010
0000
0100
0000
0110
0000
0000
0000
,
2002
0000
0000
0000
,
3003
0000
0000
0000
,
0001
0000
0100
0000
0010
0000
1000
0001
0000
0000
0000
0000
0010
0000
0100
0000
,
1000
0000
1000
0000
0001
0000
0001
0000
0100
0010
0100
0000
0001
0000
1000
0000
,
0200
0010
2300
0010
,
3002
0100
0023
0100
,
0032
0000
0103
0010
2000
0000
3100
0010
,
0002
0000
0000
0000
1003
0010
0100
0001
,
0010
0001
0010
0000
0100
0000
1000
0001
0000
0000
0000
0000
0100
0000
0100
0000
,
0010
1000
0010
0000
0100
0000
0001
1000
0000
0000
0100
0000
0010
0000
0001
0000
,
0100
0001
0100
0000
0010
0000
1000
0001
0000
0000
0000
0000
0010
0000
0010
0000
,
0100
1000
0100
0000
0010
0000
0001
0000
1000
0010
1000
0000
0001
0100
0001
0000
,
2000
0000
0000
0000
,
3200
0000
0320
0000
,
0031
0100
0010
1000
0100
1000
0010
0100
,
0001
0000
0010
0100
0000
0010
0001
0000
1000
0000
0010
0100
0000
0010
1000
0000
,
0000
0000
0000
0000
,
0000
0000
0000
0000
0000
0000
0000
0000
0000
0000
0000
0000
0001
1000
0001
0010
,
0100
0000
1000
0000
0010
0000
0100
0001
0100
0000
0010
0000
1000
0100
0010
0000
,
0001
0000
0100
0000
0010
0000
1000
0100
1000
0000
0001
0000
0100
0010
0100
0000
,
0001
0000
1000
0000
0100
0000
0010
0001
0010
0000
0100
0000
1000
0010
0100
0000
,
0001
0000
0010
0100
0000
0100
1000
0000
0020
0000
0000
0000
0130
0000
0000
0000
,
0001
0000
1000
0000
0100
0000
0001
0000
0100
0000
1000
0000
0001
0010
0001
0000
,
1000
0100
1000
0000
0010
1000
0010
0000
0100
0001
0100
0000
0002
0000
0000
0000
,
1003
0000
0100
0010
0100
0000
1000
0000
0010
0000
0001
0000
0010
0000
1000
0000
,
1001
0000
0011
0000
1100
0000
2002
0000
0000
3003
0000
0000
,
1000
0000
0001
0000
0010
0000
0100
1000
0100
0000
0010
0000
0001
0100
0010
0000
,
1000
0000
0100
0000
0010
0000
0001
0100
0001
0000
1000
0000
0100
0010
0100
0000
,
1000
0000
0001
0000
0100
0000
0010
1000
0010
0000
0100
0000
0001
0010
0100
0000
,
1000
0000
0010
0100
0000
0100
0001
0000
0020
0000
0000
0000
0130
0000
0000
0000
,
1000
0001
0100
1000
0100
0001
1000
0000
,
1100
0000
0000
0000
0110
0000
0000
0000
0011
0000
0000
0000
0001
1000
0001
0100
,
0010
0000
1000
0000
0100
0000
0100
1000
0000
0010
0100
0000
0001
0000
0010
0000
,
0100
0000
1000
0000
0010
0000
0010
1000
0000
0000
0001
0000
0010
0100
0010
0000
,
0001
0000
1000
0000
0010
0000
0010
0100
0000
0001
1000
0000
0100
0000
0010
0000
,
0011
0000
0000
1100
0000
0000
1001
0000
0001
0100
0010
1000
0200
0000
0000
0000
,
0310
0000
0001
0000
0100
0000
0100
0001
0000
0010
0100
0000
1000
0000
0010
0000
,
0100
0000
0001
0000
0010
0000
0010
0001
0000
0000
1000
0000
0010
0100
0010
0000
,
1000
0000
0100
1000
0100
1000
0001
0000
0010
0001
0010
0001
1000
0000
0010
0000
,
1010
0000
0000
0101
0000
0000
1001
0000
1000
0100
0010
0001
0200
0000
0000
0000
,
0310
0000
0000
0110
0000
0000
1001
0000
1000
0010
0100
0001
1000
0001
0010
0100
,
1000
2002
0000
0000
,
0000
0000
0000
0000
,
0000
0000
0000
0000
,
3003
0000
0000
0000
;

//--------------- dance-single - KAYSTAR ----------------
#NOTEDATA:;
#STEPSTYPE:dance-single;
#DESCRIPTION:KAYSTAR;
#DIFFICULTY:Challenge;
#METER:17;
#RADARVALUES:0,0,0,0,0;
#NOTES:
0000
0000
0000
0000
,
0000
0000
0000
0000
,
0000
0000
0000
0000
,
0000
0000
0000
0000
,
0000
0000
0000
0000
,
0001
0100
0010
2000
0000
0000
3001
0000
,
1000
0100
0020
0000
0031
0100
0020
0000
,
1030
0000
0100
0000
0010
0000
0010
0002
0000
0000
0103
0000
0010
0000
1000
0000
,
0001
0000
0010
0000
0100
0000
0100
2000
0000
0000
0000
0000
3001
0100
0001
0100
,
0010
0000
1000
0000
0100
00M0
0100
0001
0000
1000
0100
0000
0010
0001
0010
0000
,
0100
0000
1000
0000
0010
0M00
0020
0001
0000
0000
0130
0000
1000
0000
0010
0000
,
0100
0000
0001
0000
0010
0M00
0010
1000
0000
0100
0010
0000
0001
1000
0001
0000
,
0100
0000
0010
1000
0000
0001
0010
0000
0100
1000
0001
1000
0040
0000
0000
0000
,
0130
0000
0001
0000
0010
0M00
0010
1000
0000
0001
0010
0000
0100
1000
0100
0000
,
0010
0000
0001
0000
0100
00M0
0200
1000
0000
0000
0310
0000
0001
0000
0100
0000
,
0010
0000
1000
0000
0100
00M0
0100
0001
0000
0010
0100
0000
1000
0001
0100
0010
,
1000
0000
0100
0010
000M
0010
0100
0000
0001
1000
0001
1000
0010
0100
0001
0010
,
0100
0000
1000
0000
0100
1000
0100
0000
0010
0000
0001
0000
0100
0010
0100
0000
,
0010
0000
1000
0000
0100
1000
0100
0000
0010
0000
0002
0000
0203
0000
0320
0000
,
2030
0000
3001
0000
0010
0001
0010
0000
0100
0000
1000
0000
0010
0100
0010
0000
,
0100
0000
0001
0000
0010
0001
0010
0000
0100
0000
1000
0000
1001
0000
0000
0000
,
0001
0000
0100
0000
1000
000M
2000
0010
0000
0000
3001
0000
0100
0000
0010
0000
,
1000
0000
0100
0000
0001
0000
0002
M010
0000
0000
1003
0010
0100
0000
0001
1000
,
0001
1000
0100
0010
0001
0010
0100
1000
0001
0100
0001
0100
0010
1000
0010
1000
,
0001
0000
0011
0000
0000
0000
0000
0000
1100
0000
0100
1000
0001
1000
0001
0100
,
0010
0000
1000
0000
0010
1000
0010
0000
0100
0000
0001
0000
0010
0100
0010
0000
,
0100
0000
1000
0000
0010
1000
0010
0000
0100
0000
0001
1000
0100
0000
0010
0001
,
1000
0000
0010
0000
0100
0001
0100
0000
0001
0000
0010
0000
0100
0010
0100
0000
,
1000
0000
0010
0000
0100
0001
0100
0000
0001
1000
0100
0000
0010
0001
1000
0001
,
1000
0010
0100
0000
1000
000M
2000
0000
0000
0000
3010
0100
0001
0000
1000
0000
,
0001
0010
0100
0000
0001
M000
0002
0000
0000
0000
0013
0100
1000
0001
1000
0000
,
0020
0000
0000
0000
0130
0000
0001
1000
0100
0000
1000
0000
0010
0000
0000
0000
,
0210
0000
0000
0310
0000
0000
1000
0001
0010
0000
0001
0000
0101
0000
0000
0000
,
2002
0000
0000
0000
,
3003
0000
0000
0000
,
1000
0100
1000
0000
0001
0000
0010
0001
0000
0000
0000
0000
1000
0000
0010
0000
,
1000
0000
0100
0000
0010
0000
0001
0000
0100
0001
0100
0000
0010
0000
1000
0000
,
0002
0000
0013
0100
2000
0000
3001
0000
,
0200
0000
0310
1000
0200
0000
0310
0001
,
1000
0010
0100
0001
0020
0000
0130
0000
,
2002
0000
0000
0000
3003
0000
0001
0100
0010
1000
0001
1000
0100
0010
0001
0000
,
0100
0001
0100
0000
0010
0000
1000
0100
0010
0000
0100
0000
1000
0000
1000
0000
,
0010
0100
0010
0000
1000
0000
0001
0010
0100
0000
1000
0001
0000
1000
0001
0100
,
0010
1000
0010
0000
0100
0000
0001
0010
0100
0000
0010
0000
0001
0000
0001
0000
,
0100
0010
0100
0000
0001
0000
1000
0000
0100
1000
0100
1000
0001
0100
0010
1000
,
0200
0000
0001
1000
,
0320
0000
1000
0100
,
0031
0000
1000
0010
1000
0100
0010
0001
0100
0001
1000
0100
0010
0001
0100
0010
,
1000
0000
0001
0010
0M00
0010
1000
0000
0001
0000
1000
0010
0M00
0010
0001
0000
,
0000
0000
0000
0000
,
0000
0000
0000
0000
0000
0000
0000
0000
0000
0000
0000
0000
0001
1000
0001
1000
,
0100
0010
0001
1000
0001
0100
0010
1000
0100
1000
0010
0100
0001
1000
0100
0010
,
0001
0100
0010
1000
0001
1000
0100
0010
0001
0100
0001
0010
0100
1000
0001
0100
,
0010
0100
0001
1000
0001
0010
0100
1000
0010
1000
0100
0010
0001
1000
0010
0100
,
0001
0010
0001
0100
0010
1000
0001
0010
0100
1000
0100
1000
0001
0100
0001
0100
,
0010
1000
0100
0010
0001
1000
0001
0010
0100
1000
0001
0100
0010
1000
0010
1000
,
0001
0010
0001
0010
0100
1000
0100
1000
0001
0100
0001
0100
0010
1000
0001
0010
,
0100
1000
0001
1000
0100
1000
0001
0100
0010
1000
0001
0010
0001
1000
0001
0010
,
0200
0000
1300
0000
1001
0000
0001
0100
0010
0100
0001
1000
,
0100
0010
0001
1000
0010
0100
0010
1000
0100
0010
0100
1000
0001
0100
0001
0010
,
0100
1000
0010
1000
0001
0010
0100
0010
0001
0100
0010
0100
0001
1000
0100
0010
,
0001
1000
0010
0100
0001
0010
0001
0100
0010
1000
0100
1000
0001
0100
0010
1000
,
0001
0010
0100
1000
0001
1000
0100
0010
0001
1000
0010
1000
0010
0100
0001
0100
,
0001
0000
0000
1000
0000
0000
0100
0000
0000
0010
0000
0000
0001
0000
0000
0100
0000
0000
0010
0000
0000
1000
0000
0000
0100
0000
0000
0010
0000
0000
0001
0000
0000
0000
0000
0000
0000
0000
0000
0000
0000
0000
1000
0000
0001
0000
1000
0000
,
0001
0000
0000
0000
0202
0000
0303
0000
2020
0000
3030
0000
1000
0001
1000
0001
,
0010
0100
1000
0000
0010
0M00
0010
0001
0000
0100
0010
0000
1000
0001
1000
0000
,
0100
0010
0001
0000
0100
00M0
0200
1000
0000
0000
0310
0000
0001
0000
1000
0000
,
0010
0100
0001
0000
0010
0M00
0010
1000
0000
0100
0010
0000
0001
1000
0001
0000
,
0101
0000
0000
0110
0000
0000
1010
0000
1000
0001
0010
0100
1000
0100
0010
0001
,
1000
0010
0100
0000
1000
000M
1000
0010
0000
0100
0001
0000
1000
0001
1000
0000
,
0001
0010
0100
0000
0001
M000
0002
0010
0000
0000
1003
0000
0001
0100
0010
0000
,
1000
0000
0000
0001
0000
0000
1000
0000
0000
0100
0000
0000
1000
0000
0000
0001
0000
0000
0010
0000
0000
0000
0000
0000
0001
0000
1000
0000
0001
0000
0100
0000
0001
0000
1000
0000
0010
0000
0000
0000
0000
0000
1000
0000
0000
0001
0000
0000
,
1000
0000
0100
0010
M000
0010
0100
0000
0001
0010
0100
1000
0010
1000
0100
0010
,
0001
0000
0100
0010
000M
0010
0100
0000
1000
0010
0100
0001
0010
0001
0100
0010
,
1000
0000
0000
0001
1000
0002
2000
0000
0000
0000
0000
0000
0000
0000
0000
0000
0000
0000
0000
0000
0000
0000
0000
0000
,
0000
0000
0000
0000
,
0000
0000
0000
0000
,
3003
0000
0000
0000
;

//--------------- dance-double - KAYSTAR ----------------
#NOTEDATA:;
#STEPSTYPE:dance-double;
#DESCRIPTION:KAYSTAR;
#DIFFICULTY:Easy;
#METER:9;
#RADARVALUES:0,0,0,0,0;
#NOTES:
00000000
00000000
00000000
00000000
,
00000000
00000000
00000000
00000000
,
00000000
00000000
00000000
00000000
,
00000000
00000000
00000000
00000000
,
00000000
00000000
00000000
00000000
,
20000000
00000000
30000000
00000000
,
00100000
00000000
01000000
00000000
,
00020000
00000000
00030000
00000000
,
00000000
00000000
00000000
00000000
,
10000000
01000000
00100000
00100000
,
00010000
01000000
00200000
00300000
,
10000000
01000000
00100000
00001000
,
00010000
00000000
00000000
00010000
00000000
00000000
00010000
00000000
00000100
00000000
00000000
00000000
00002000
00000000
00000000
00000000
,
00003001
00000100
00000010
00000010
,
00001000
00000100
00000020
00000030
,
00000001
00000100
00000010
00010000
,
00001000
00000000
00000000
00001000
00000000
00000000
00001000
00000000
01000000
00000000
00000000
00000000
00020000
00000000
00000000
00000000
,
10030000
00010000
10000000
00000000
,
01000000
00010000
00002000
00000000
,
00013000
00001000
00010000
00000000
,
00001000
00000010
00000001
00000000
,
00001000
00000010
00000100
00000100
,
00000001
00000010
00000100
00000100
,
00010000
00000010
00010000
00000010
,
00001000
00002000
00000000
00000000
00000001
00003001
00000000
00000000
,
00000001
00001000
00000001
00000000
,
00000010
00001000
00020000
00000000
,
00031000
00010000
00001000
00000000
,
00010000
01000000
10000000
00000000
,
00010000
01000000
00100000
00100000
,
10000000
01000000
00100000
00100000
,
00010000
00010000
00010000
00000000
,
10000000
10000000
10000000
00000000
,
20020000
00000000
00000000
00000000
,
30030000
00000000
00000000
00000000
,
00000000
00000000
00000000
00000000
,
00000000
00000000
00000000
00000000
,
10000000
00100000
01000000
00000000
,
00010000
00100000
00001000
00000000
,
00020000
00000000
00030200
00000000
,
00000320
00000000
00000032
00000000
,
00001003
00000010
00000100
00000100
,
00000001
00001000
00000100
00000000
,
00000010
00000001
00001000
00001000
,
00000010
00010000
00001000
01000000
,
00020000
00000000
00000000
00000000
,
00130000
00000000
01000000
00000000
,
20000000
00000000
00000000
00000000
,
30100000
00000000
00000000
00100000
00000000
00000000
00100000
00000000
01000000
00000000
00000000
01000000
00000000
00000000
01000000
00000000
,
00000000
00000000
00000000
00000000
,
00000000
00000000
00000000
00000000
,
00010000
00000000
00100000
00010000
00100000
00000000
01000000
00000000
,
10000000
00000000
00010000
10000000
00010000
00000000
01000000
00000000
,
00100000
00000000
10000000
00100000
10000000
00000000
00010000
00000000
,
00200000
00000000
00301000
00011000
,
00010000
00001000
00010000
00001000
00010000
00000000
00002000
00000000
,
00023000
00030200
00000320
00000032
,
00001003
00000000
00000001
00000100
00000020
00000000
00001030
00000000
,
00000001
00000000
00001000
00000100
00000020
00000000
00000031
00000000
,
00001000
00000000
00000010
00001000
00000010
00000000
00000100
00000000
,
00000001
00000000
00001000
00000001
00001000
00000000
00000100
00000000
,
00000010
00000000
00000001
00000010
00000001
00000000
00001000
00000000
,
00000020
00000000
00010030
00011000
,
00001000
00010000
00001000
00010000
00001000
00000000
00020000
00000000
,
00032000
02003000
03200000
20300000
,
30010000
00100000
01000000
01000000
,
10000000
00000000
00000000
00000000
00100000
00000000
00000000
00000000
00020000
00000000
00000000
00030000
00000000
00000000
00000000
00000000
,
00001000
00100000
00010000
00100000
,
00001000
00000000
00000000
00001000
00000000
00000000
00001000
00000000
00010000
00000000
00000000
00000000
00000100
00000000
00000000
00000000
,
00001000
00000010
00000100
00000100
,
00000001
00000000
00000000
00000000
00000010
00000000
00000000
00000000
00002000
00000000
00000000
00003000
00000000
00000000
00000000
00000000
,
00010000
00000010
00001000
00000010
,
00010000
00000000
00000000
00010000
00000000
00000000
00010000
00000000
00001000
00000000
00000000
00000000
00010000
00000000
00000000
00000000
,
00001000
00000000
00000000
00001000
00000000
00000000
00001000
00000000
00100000
00000000
00000000
00000000
01000000
00000000
10000000
00000000
,
00000000
20020000
00000000
00000000
,
00000000
00000000
00000000
00000000
,
00000000
00000000
00000000
00000000
,
30030000
00000000
00000000
00000000
;

//--------------- dance-double - KAYSTAR ----------------
#NOTEDATA:;
#STEPSTYPE:dance-double;
#DESCRIPTION:KAYSTAR;
#DIFFICULTY:Medium;
#METER:12;
#RADARVALUES:0,0,0,0,0;
#NOTES:
00000000
00000000
00000000
00000000
,
00000000
00000000
00000000
00000000
,
00000000
00000000
00000000
00000000
,
00000000
00000000
00000000
00000000
,
00000000
00000000
00000000
00000000
,
20000000
00000000
00000000
00000000
,
32000000
00000000
03200000
00000000
,
00320000
00000000
00000000
00000000
,
00030000
00000000
00000000
00000000
,
10000000
10000000
00100000
00100000
01000000
00010000
10000000
01000000
,
00100000
00100000
00001000
00001000
00020000
00000000
00031000
00000000
,
00010000
00010000
00000100
00000100
00001000
00000100
00000010
00000001
,
00001000
00000000
00000010
00000100
00000000
00000100
00000001
00000000
00000010
00000000
00000100
00000000
00002000
00000000
00000000
00000000
,
00003001
00000001
00000010
00000010
00000100
00001000
00000001
00000100
,
00000010
00000010
00010000
00010000
00002000
00000000
00013000
00000000
,
00001000
00001000
01000000
01000000
00010000
01000000
00100000
10000000
,
00010000
00000000
00100000
01000000
00000000
01000000
10000000
00000000
00100000
00000000
01000000
00000000
00020000
00000000
00000000
00000000
,
10030000
00000000
01000000
00100000
00010000
00000000
10000000
00100000
,
01000000
00100000
10000000
00010000
00100000
01000000
10000000
00010000
,
01000000
00000000
00100000
10000000
00010000
00000000
00100000
02000000
,
00000000
03010000
00001000
00010000
00001000
00000000
00011000
00000000
,
00010000
00100000
00010000
00100000
10000000
00010000
10000000
00010000
,
10000000
01000000
10000000
01000000
00010000
01000000
00010000
00000000
,
00021000
00032000
00003200
00000320
,
00001030
00001000
00000000
00000000
00000001
00000001
00000000
00000000
,
00000001
00000000
00000010
00000100
00001000
00000000
00000001
00000100
,
00000010
00000100
00000001
00001000
00000100
00000010
00000001
00001000
,
00000010
00000000
00000100
00000001
00001000
00000000
00000100
00000020
,
00000000
00001030
00010000
00001000
00010000
00000000
00011000
00000000
,
00001000
00000100
00001000
00000100
00000001
00001000
00000001
00001000
,
00000001
00000010
00000001
00000010
00001000
00000010
00001000
00000000
,
00012000
00100000
00023000
00000010
,
00031000
00000000
00000000
01000000
00000000
00000000
00010000
00000000
00100000
00000000
01000000
00000000
10000000
00000000
00000000
00000000
,
20020000
00000000
00000000
00000000
,
30030000
00000000
00000000
00000000
,
10000000
00010000
10000000
00000000
,
00100000
00100000
01000000
01000000
,
00020000
00000000
00230000
00000000
,
00302000
00000000
00023000
00000000
,
00030020
00000000
00000130
00000000
,
00002002
00000000
00000000
00003003
,
00000001
00000001
00000010
00000100
00001000
00000000
00000010
00000000
,
00000100
00000100
00001000
00010000
00100000
00000000
01000000
00000000
,
00010000
00010000
10000000
01000000
00100000
00000000
01000000
00010000
,
00001000
00010000
01000000
00100000
00002000
00000000
00013000
00000000
,
00022000
00000000
00000000
00033000
,
00022000
00000000
00000000
00033000
,
00010000
00001000
00000100
00001000
00010000
00000010
00001000
00000001
,
00000010
00000000
00000000
00000011
00000000
00000000
00000001
00000000
00001000
00000000
00000000
00001100
00000000
00000000
00001001
00000000
,
00000000
00000000
00000000
00000000
,
00000000
00000000
00000000
00000000
,
00000001
00000000
00000100
00000000
00000010
00000000
00001000
00000002
00000000
00000000
00000013
00000000
00000100
00000000
00000100
00000000
,
00001000
00000000
00000010
00000000
00000100
00000000
00000001
00002000
00000000
00000000
00003100
00000000
00000010
00000000
00000001
00000000
,
00000100
00000000
00000010
00000000
00010000
00000000
00001000
00020000
00000000
00000000
00031000
00000000
01000000
00000000
01000000
00000000
,
00100000
00000000
00000000
10000000
00000000
00000000
01000000
00000000
00200000
00000000
00000000
00000000
00301000
00000000
00000000
00000000
,
00021000
00000000
00230000
00000000
02300000
00000000
03010000
10000000
,
01000000
00010000
01000000
00010000
00001000
00000010
00001000
00000010
,
00000002
00000000
00001003
00000010
00020000
00000000
00031000
00000000
,
02000000
00000000
00010000
00000000
03010000
00000000
10000000
01000000
00000000
00100000
00010000
00000000
,
10000000
00000000
00100000
00000000
01000000
00000000
00010000
20000000
00000000
00000000
31000000
00000000
00100000
00000000
00100000
00000000
,
00010000
00000000
01000000
00000000
00100000
00000000
10000000
00020000
00000000
00000000
00130000
00000000
01000000
00000000
10000000
00000000
,
00100000
00000000
01000000
00000000
00001000
00000000
00010000
00002000
00000000
00000000
00013000
00000000
00000010
00000000
00000010
00000000
,
00000100
00000000
00000000
00000001
00000000
00000000
00000010
00000000
00000200
00000000
00000000
00000000
00010300
00000000
00000000
00000000
,
00012000
00000000
00003200
00000000
00000320
00000000
00001030
00000001
,
00000010
00000011
00000110
00001100
,
00000001
00000001
00001000
00001000
00000010
00000100
00001000
00010000
,
00100000
00100000
00010000
00010000
00002000
00000000
01003000
00000000
,
00001000
00001000
00010000
00010000
01000000
00100000
00010000
10000000
,
00100000
00000000
01000000
00010000
00000000
00010000
01000000
00000000
00100000
00000000
10000000
00000000
00020000
00000000
00000000
00000000
,
10030000
10000000
00010000
00010000
00100000
01000000
00010000
00001000
,
00000010
00000010
00001000
00001000
00020000
00000000
00030100
00000000
,
00001000
00000000
00000001
00000001
00000001
00000000
00001001
00000000
,
00001000
00000000
00000010
00000100
00000000
00000100
00000001
00000000
00000010
00000000
00000100
00000000
00001000
00000000
00000000
00000000
,
00000010
00000000
00000100
00001000
00000000
00001000
00010000
00000000
00100000
00000000
01000000
00000000
00001000
00000000
00010000
00000000
,
00000000
00022000
00000000
00000000
,
00000000
00000000
00000000
00000000
,
00000000
00000000
00000000
00000000
,
00033000
00000000
00000000
00000000
;

//--------------- dance-double - KAYSTAR ----------------
#NOTEDATA:;
#STEPSTYPE:dance-double;
#DESCRIPTION:KAYSTAR;
#DIFFICULTY:Hard;
#METER:15;
#RADARVALUES:0,0,0,0,0;
#NOTES:
00000000
00000000
00000000
00000000
,
00000000
00000000
00000000
00000000
,
00000000
00000000
00000000
00000000
,
00000000
00000000
00000000
00000000
,
00000000
00000000
00000000
00000000
,
20000000
00000000
00000000
00000000
,
30200000
00000000
02300000
00000000
,
03020000
00000000
00000000
00000000
,
10030000
00000000
01000000
00000000
00100000
00000000
00001000
00010000
00000000
00000000
00000000
00000000
00001000
00010000
00001000
00010000
,
00000010
00000000
00001000
00000000
00000100
00000000
00000100
00000010
00000000
00000000
00000001
00000000
00000010
00000000
00000100
00000000
,
00001000
00000000
00000001
00000000
00000100
00000000
00000100
00000010
00000000
00000000
00010000
00000000
00001000
00000000
01000000
00000000
,
00010000
00000000
00100000
00000000
01000000
00000000
01000000
10000000
00000000
00000000
01000000
00000000
00100000
00000000
00010000
00000000
,
02000000
00000000
00000000
03200000
00000000
00000000
10300000
00000000
00010000
10000000
00010000
00100000
02000000
00000000
00000000
00000000
,
13000000
00000000
00010000
00000000
01000000
00000000
01000000
00100000
00000000
00000000
10000000
00000000
01000000
00000000
00100000
00000000
,
00001000
00000000
00010000
00000000
00000100
00000000
00000100
00001000
00000000
00000000
00000001
00000000
00000100
00000000
00000010
00000000
,
00001000
00000000
00000100
00000000
00000010
00000000
00000010
00000001
00000000
00000000
00001000
00000000
00000010
00000000
00000100
00000000
,
00001000
00000000
00010000
00001000
00000000
00001000
00010000
00000000
00001000
00000000
00010000
00000000
01000000
00000000
00100000
00000000
,
00020000
00000000
10030000
00100000
02000000
00000000
03010000
20000000
,
00000000
31000000
00100000
00010000
01000000
00002000
00023000
00032000
,
00023000
00030010
00001000
00000100
00000020
00000000
00000031
00002000
,
00000000
00003010
00000001
00000010
00001000
00000000
00001001
00000000
,
00000001
00000010
00000100
00001000
00000010
00000100
00001000
00010000
,
00100000
01000000
00010000
00100000
01000000
10000000
00020000
00000000
,
10030000
00100000
10000000
00000000
00010000
01000000
00010000
00000000
10000000
01000000
00000000
01000000
00100000
00000000
00010000
00000000
,
00110000
00220000
00330000
00000000
00001100
00002200
00003300
00000000
,
00002000
00000000
00003001
00000100
00000020
00000000
00001030
00000002
,
00000000
00000000
00000013
00000000
00000100
00000000
00001000
00000000
00000010
00000000
00010000
00001000
00010000
00000000
00001000
00010000
,
00001000
01000000
00010000
00100000
02000000
00000000
13000000
00020000
,
00000000
01030000
10000000
00010000
00100000
10000000
00020000
00000000
,
10030000
01000000
00100000
00010000
01000000
00100000
00010000
00001000
,
00000100
00000000
00000010
00000000
00001000
00000000
00000100
00000000
00000010
00000000
00000001
00000000
00001000
00000001
00001000
00000010
,
00000100
00000000
00000000
00000000
00000001
00000000
00001000
00000100
00001000
00000000
00000000
00000000
00001010
00000000
00000000
00000000
,
00000010
00000000
00010000
00001000
00000000
00010000
00001000
00000000
01000000
00000000
00010000
00000000
00110000
00000000
00000000
00000000
,
20020000
00000000
00000000
00000000
,
30030000
00000000
00000000
00000000
,
10000000
00000000
01000000
00000000
00100000
00000000
00010000
10000000
00000000
00000000
00000000
00000000
00100000
00000000
00010000
00000000
,
00001000
00000000
00001000
00000000
00010000
00000000
00010000
00000000
00001000
00010000
00001000
00000000
00000010
00000000
00000100
00000000
,
00002000
00000010
00003002
00000100
,
00002003
00000000
00003100
00000020
00000000
00000031
00000100
00001000
,
00020000
00100000
00230000
10000000
,
20300000
00000000
00010000
00000000
30010000
00100000
01000000
10000000
,
00100000
10000000
00100000
00000000
01000000
00000000
00010000
10000000
00000000
00000000
00000000
00000000
01000000
00000000
01000000
00000000
,
00100000
00010000
00100000
00000000
00001000
00000000
00010000
00002000
00000000
00000000
00000000
00000000
00013000
00000000
00000100
00000000
,
00000010
00000001
00000010
00000000
00000100
00000000
00001000
00000001
00000000
00000000
00000000
00000000
00000100
00000000
00000100
00000000
,
00000010
00001000
00000010
00000000
00010000
00000000
00001000
00000000
01000000
00010000
01000000
00000000
00100000
10000000
00100000
00000000
,
20000000
00000000
32000000
00000000
,
03020000
00000000
00032000
00000000
,
00003020
00000032
00000203
00001300
,
00011000
00000000
00001000
01000000
00000000
00010000
01000000
00000000
00100000
00000000
10000000
01000000
00000000
00100000
00010000
00000000
,
00000000
00000000
00000000
00000000
,
00000000
00000000
00000000
00000000
00000000
00000000
00000000
00000000
00000000
00000000
00000000
00000000
10000000
00010000
10000000
00100000
,
01000000
00000000
00010000
00000000
10000000
00000000
01000000
10000000
01000000
00000000
00100000
00000000
00010000
01000000
00100000
00000000
,
10000000
00000000
00010000
00000000
00100000
00000000
00001000
00010000
00001000
00000000
00010000
00000000
00000100
00001000
00000100
00000000
,
00000010
00000000
00000001
00000000
00001000
00000000
00000010
00001000
00000010
00000000
00000100
00000000
00000001
00000010
00000100
00000000
,
00001000
00000000
00000010
00010000
00000000
00001000
01000000
00000000
00020000
00000000
00000000
00000000
20030000
00000000
00000000
00000000
,
31000000
00000000
00010000
00000000
00001000
00000000
00010000
00000000
00100000
00000000
10000000
00000000
00010000
00100000
00010000
00000000
,
00100000
00001000
00100000
00000000
00001000
00010000
00001000
00000000
00010000
00000100
00010000
00000000
00000100
00001000
00000100
00000000
,
00001000
00000010
00000001
00000010
00001000
00000001
00000010
00001000
,
00010000
00000000
00011000
00000000
00011000
00000000
00001000
01000000
00010000
01000000
00001000
00010000
,
00000010
00000000
00001000
00000000
00000001
00000000
00000010
00000001
00000010
00000000
00000100
00000000
00001000
00000010
00000100
00000000
,
00000001
00000000
00001000
00000000
00000100
00000000
00010000
00001000
00010000
00000000
00001000
00000000
00100000
00010000
00100000
00000000
,
01000000
00000000
10000000
00000000
00010000
00000000
01000000
00010000
01000000
00000000
00100000
00000000
10000000
01000000
00100000
00000000
,
00010000
00000000
01000000
00001000
00000000
00010000
00000010
00000000
00002000
00000000
00000000
00000000
00003002
00000000
00000000
00000000
,
00000013
00001000
00010000
00001000
00000100
00000001
00000000
00000000
,
00000011
00000000
00000000
00000000
00000110
00000000
00000000
00000000
00001100
00000000
00000000
00000000
00010000
00001000
00010000
00001000
,
00100000
00000000
00010000
00000000
01000000
00000000
01000000
00100000
00000000
10000000
00010000
00000000
00100000
00000000
01000000
00000000
,
10000000
00000000
00100000
00000000
01000000
00000000
01000000
00002000
00000000
00000000
00013000
00000000
00000100
00000000
00001000
00000000
,
00000100
00000000
00000010
00000000
00000001
00000000
00000001
00000100
00000000
00000010
00001000
00000000
00000010
00010000
00000010
00000000
,
00020000
00000000
00000000
00032000
00000000
00000000
01003000
00000000
00010000
10000000
00010000
00100000
02000000
00000000
00000000
00000000
,
13000000
00000000
00010000
00000000
01000000
00000000
01000000
00100000
00000000
10000000
01000000
00000000
00010000
00000000
00001000
00000000
,
00100000
00000000
00010000
00000000
00001000
00000000
00001000
00000100
00000000
00000010
00000001
00000000
00000100
00000000
00001000
00000000
,
00010000
00000000
00001000
00010000
00001000
00010000
00000010
00000000
00010000
00001000
00010000
00001000
00100000
00000000
01000000
00000000
,
20000000
00000000
00000000
30200000
00000000
00000000
01300000
00000000
00010000
00100000
00010000
00100000
00001000
00010000
00000100
00000000
,
00002000
00000000
00000000
00003020
00000000
00000000
00000130
00000000
00000001
00000010
00000001
00000010
00000100
00001000
00000001
00000100
,
00000010
00002002
00000000
00000000
,
00000000
00000000
00000000
00000000
,
00000000
00000000
00000000
00000000
,
00003003
00000000
00000000
00000000
;

//--------------- dance-double - KAYSTAR ----------------
#NOTEDATA:;
#STEPSTYPE:dance-double;
#DESCRIPTION:KAYSTAR;
#DIFFICULTY:Challenge;
#METER:18;
#RADARVALUES:0,0,0,0,0;
#NOTES:
00000000
00000000
00000000
00000000
,
00000000
00000000
00000000
00000000
,
00000000
00000000
00000000
00000000
,
00000000
00000000
00000000
00000000
,
00000000
00000000
00000000
00000000
,
10000000
01000000
00100000
00020000
00000000
00000000
10030000
00000000
,
00100000
00010000
00001000
00000000
00010000
00001000
00000100
00000000
,
00000001
00000000
00000010
00000000
00000100
00000000
00000100
00001000
00000000
00000000
00000001
00000000
00000100
00000000
00000010
00000000
,
00001000
00000000
00000100
00000000
00000010
00000000
00000010
00000002
00000000
00000000
00000000
00000000
00001003
00000010
00001000
00000010
,
00000100
00000000
00000001
00000000
00000010
00000M00
00000010
00001000
00000000
00000001
00000010
00000000
00000100
00001000
00000100
00000000
,
00000010
00000000
00000001
00000000
00001000
00000000
00000010
00020000
00000000
00000000
00031000
00000000
01000000
00010000
01000000
00000000
,
00100000
00000000
10000000
00000000
01000000
00M00000
01000000
00010000
00000000
10000000
01000000
00000000
00100000
00010000
00100000
00000000
,
00001000
00000000
00010000
00001000
00000000
00001000
00010000
00000000
00000100
00001000
00000100
00000010
00000004
00000000
00000000
00000000
,
00001003
00000000
00000001
00000000
00000100
000000M0
00000100
00001000
00000000
00000010
00000100
00000000
00000001
00000010
00000001
00000000
,
00001000
00000000
00000010
00000000
00000100
00000000
00001000
00020000
00000000
00000000
00031000
00000000
00100000
00010000
00100000
00000000
,
01000000
00000000
10000000
00000000
00100000
0M000000
00100000
00010000
00000000
01000000
00100000
00000000
10000000
01000000
10000000
01000000
,
00100000
00000000
00001000
00010000
00000000
00010000
00001000
00000000
00010000
00001000
00010000
00000100
00001000
00000100
00000010
00000001
,
00001000
00000000
00000010
00000000
00000100
00000001
00000100
00000000
00000001
00000000
00000010
00000000
00000100
00001000
00000100
00000000
,
00010000
00001000
00000010
00000001
00000100
00000020
00020030
00032000
,
02003000
00000000
03010000
00000000
00100000
00010000
00100000
00000000
01000000
00000000
10000000
00000000
00100000
10000000
00100000
00000000
,
00010000
00000000
00001000
00000000
01000000
00000000
00010000
00000000
10000000
01000000
00100000
00000000
00002000
00000000
00000000
00000000
,
00013000
00000000
00000010
00000000
00001000
0000000M
00002000
00010000
00000000
00000000
00013000
00000000
00100000
00000000
00010000
00000000
,
00001000
00000000
00100000
00000000
00010000
M0000000
00020000
00001000
00000000
00000000
00031000
00000000
00000010
00000000
00001000
00000000
,
00010000
00000100
00001000
00000100
00000010
00000001
00001000
00000010
00010000
00001000
00010000
00001000
01000000
00010000
01000000
00100000
,
10000000
00000000
11000000
00000000
00000000
00000000
00000000
00000000
00110000
00000000
00010000
10000000
00010000
10000000
00100000
01000000
,
00010000
00000000
00100000
00000000
01000000
10000000
01000000
00000000
10000000
00000000
00100000
00000000
00010000
00001000
00010000
00000000
,
01000000
00000000
10000000
00000000
00010000
00000000
01000000
00000000
00001000
00000000
00010000
00001000
00010000
00000000
00001000
00010000
,
00000010
00000000
00001000
00000000
00000100
00001000
00000100
00000000
00000010
00000000
00000001
00000000
00000100
00001000
00010000
00000000
,
00001000
00000000
00000010
00000000
00000001
00000000
00001000
00000000
00000010
00010000
00001000
00000000
00010000
00001000
00010000
00000000
,
00001000
00000000
00100000
00000000
00010000
M0000000
00020000
00000000
00000000
00000000
00031000
01000000
00010000
00000000
00100000
00001000
,
00010000
00000000
00000100
00000000
00001000
0000000M
00002000
00000000
00000000
00000000
00013000
00000000
00000010
00010000
00001000
01000000
,
00010000
00000000
00000000
00000000
10000000
00000000
01000000
00100000
00010000
00000000
10000000
00000000
00200000
00000000
00000000
00000000
,
01300000
00000000
00010000
10000000
00000000
01000000
00100000
00000000
00001000
00000000
00010000
00000000
00011000
00000000
00000000
00000000
,
00022000
00000000
00000000
00000000
,
00033000
00000000
00000000
00000000
,
00001000
00010000
00001000
00000000
00010000
00000000
00000100
00001000
00000000
00000000
00000000
00000000
00000001
00000000
00000100
00000000
,
00000010
00000000
00001000
00000000
00000010
00000000
00010000
00000000
00001000
00010000
00001000
00000000
00100000
00000000
01000000
00000000
,
20000000
00000000
30100000
01000000
00020000
00000000
00130000
00000000
,
00002000
00000000
00013000
00002000
00000000
00013000
00000010
00000100
,
00000002
00000000
00000013
00000100
00002000
00000000
00003001
00000000
,
00002002
00000000
00000000
00000000
00003003
00000000
00000001
00000100
00000010
00001000
00000001
00001000
00000100
00000010
00000001
00000000
,
00000100
00000001
00000100
00000000
00000010
00000000
00001000
00000001
00000000
00000000
00000010
00000000
00000100
00000000
00010000
00000000
,
00001000
00010000
00001000
00000000
00000100
00000000
00001000
00010000
00001000
00000000
00010000
00100000
00000000
01000000
00010000
10000000
,
01000000
10000000
01000000
00000000
00100000
00000000
00010000
10000000
00000000
00000000
00100000
00000000
01000000
00000000
00001000
00000000
,
00010000
00001000
00010000
00000000
01000000
00000000
00100000
00000000
00001000
00010000
00000010
00001000
00000010
00000100
00000001
00000000
,
00002001
00000100
00000001
00000010
,
00023000
01000000
10000000
00100000
,
00031000
00000000
00000100
00001000
00000100
00000010
00000001
00001000
00000010
00000100
00001000
00000100
00001000
00010000
00100000
00010000
,
00100000
00000000
01000000
00010000
00M00000
00010000
00001000
00000000
00010000
00000000
00000100
00001000
000000M0
00001000
00010000
00000000
,
00000000
00000000
00000000
00000000
,
00000000
00000000
00000000
00000000
00000000
00000000
00000000
00000000
00000000
00000000
00000000
00000000
00001000
00010000
00001000
00010000
,
00000010
00001000
00000010
00000100
00000001
00001000
00000100
00001000
00000001
00000100
00000010
00001000
00000010
00010000
00001000
00010000
,
00001000
00100000
00010000
00100000
01000000
10000000
00010000
01000000
00010000
10000000
01000000
00100000
00010000
00100000
00001000
00010000
,
00001000
00010000
00000010
00001000
00000010
00000100
00001000
00000100
00001000
00010000
00001000
00100000
00010000
00100000
01000000
00010000
,
01000000
00010000
00001000
00010000
00001000
00000010
00001000
00000010
00000001
00001000
00000010
00000100
00000001
00001000
00000100
00000010
,
00000001
00001000
00000010
00000100
00001000
00000100
00001000
00010000
00001000
00010000
00100000
00010000
00100000
10000000
00010000
00100000
,
01000000
10000000
00010000
01000000
00100000
10000000
00010000
00100000
01000000
00100000
00010000
10000000
00100000
01000000
00100000
10000000
,
00010000
00100000
00001000
00100000
00001000
00010000
00000100
00001000
00000010
00010000
00000010
00010000
00001000
01000000
00010000
00100000
,
00001000
00000000
00011000
00000000
00011000
00000000
00001000
00010000
00100000
10000000
01000000
00100000
,
00001000
00010000
00001000
00010000
00000100
00000010
00000001
00001000
00000010
00000100
00000010
00001000
00000001
00000010
00000100
00010000
,
00001000
00010000
00001000
01000000
00100000
10000000
00010000
00100000
01000000
00100000
00010000
10000000
00100000
01000000
00001000
00010000
,
00001000
00010000
00100000
01000000
00010000
10000000
01000000
00100000
01000000
00010000
00001000
00010000
00001000
00000010
00000100
00001000
,
00000001
00000100
00001000
00010000
00001000
00000100
00000001
00001000
00000010
00010000
00001000
00010000
00001000
01000000
00010000
10000000
,
01000000
00000000
00000000
00010000
00000000
00000000
00001000
00000000
00000000
00010000
00000000
00000000
01000000
00000000
00000000
10000000
00000000
00000000
00010000
00000000
00000000
01000000
00000000
00000000
00100000
00000000
00000000
01000000
00000000
00000000
00010000
00000000
00000000
00000000
00000000
00000000
00000000
00000000
00000000
00000000
00000000
00000000
10000000
00000000
00010000
00000000
10000000
00000000
,
00010000
00000000
00000000
00000000
22000000
00000000
33000000
00000000
00220000
00000000
00330000
00000000
00001000
00010000
00001000
00010000
,
00000100
00000000
00001000
00000001
00000100
000000M0
00000100
00001000
00000000
00000010
00000100
00000000
00000001
00000010
00000100
00000000
,
00010000
00000000
00000010
00000100
00001000
00000000
00010000
00200000
00000000
00000000
00310000
00000000
00001000
00010000
00001000
00000000
,
01000000
00000000
00010000
10000000
00100000
0M000000
00100000
00010000
00000000
01000000
00100000
00000000
10000000
01000000
00100000
01000000
,
00010000
00000000
00000000
00011000
00000000
00000000
00011000
00000000
00001000
00000100
00000010
00000100
00000001
00001000
00000100
00000010
,
00000001
00000000
00000100
00000010
00001000
00M00000
00001000
00010000
00000000
00001000
00100000
00000000
00010000
01000000
00100000
00000000
,
10000000
00000000
01000000
00100000
00010000
00000M00
00010000
00001000
00000000
00010000
00000010
00000000
00000100
00001000
00010000
00000000
,
00000010
00000000
00000000
00001000
00000000
00000000
00000010
00000000
00000000
00001000
00000000
00000000
00000100
00000000
00000000
00010000
00000000
00000000
00001000
00000000
00000000
00000000
00000000
00000000
00100000
00000000
00010000
00000000
00100000
00000000
00010000
00000000
01000000
00000000
00001000
00000000
00010000
00000000
00000000
00000000
00000000
00000000
00000010
00000000
00000000
00000100
00000000
00000000
,
00000001
00000000
00000010
00001000
000M0000
00001000
00000100
00000000
00010000
00000010
00000100
00001000
00010000
00100000
01000000
00010000
,
10000000
00000000
01000000
00010000
0000M000
00010000
00100000
00000000
00001000
01000000
00100000
00010000
00001000
00000100
00000010
00001000
,
00000001
00000000
00000000
00001000
00000001
00002000
00000002
00000000
00000000
00000000
00000000
00000000
00000000
00000000
00000000
00000000
00000000
00000000
00000000
00000000
00000000
00000000
00000000
00000000
,
00000000
00000000
00000000
00000000
,
00000000
00000000
00000000
00000000
,
00003003
00000000
00000000
00000000
;
