#VERSION:0.83;
#TITLE:You're Not Here;
#SUBTITLE:;
#ARTIST:Akira Yamaoka ft. Mary Elizabeth McGlynn;
#TITLETRANSLIT:;
#SUBTITLETRANSLIT:;
#ARTISTTRANSLIT:;
#GENRE:EMOTIONAL ROCK;
#ORIGIN:;
#CREDIT:;
#BANNER:You're Not Here.png;
#BACKGROUND:You're Not Here-bg.png;
#PREVIEWVID:;
#JACKET:You're Not Here-jacket.png;
#CDIMAGE:;
#DISCIMAGE:;
#LYRICSPATH:You're Not Here.lrc;
#CDTITLE:;
#MUSIC:You're Not Here.ogg;
#OFFSET:-0.181906;
#SAMPLESTART:69.751213;
#SAMPLELENGTH:12.000000;
#SELECTABLE:YES;
#DISPLAYBPM:70.000000:138.000000;
#BPMS:0.000=138.000,
219.000=125.000,
220.000=120.000,
221.000=107.000,
222.000=74.000,
222.500=69.000,
223.000=97.000,
224.000=86.000;
#STOPS:;
#DELAYS:;
#WARPS:;
#TIMESIGNATURES:0.000=4=4;
#TICKCOUNTS:0.000=4;
#COMBOS:0.000=1;
#SPEEDS:0.000=1.000=0.000=0;
#SCROLLS:0.000=1.000;
#FAKES:;
#LABELS:0.000=Song Start;
#BGCHANGES:0.000=You're Not Here.mp4=1.000=0=0=0=StretchNoLoop====,
99999=-nosongbg-=1.000=0=0=0 // don't automatically add -songbackground-
;
#KEYSOUNDS:;
#ATTACKS:
;

//---------------dance-single - ----------------
#NOTEDATA:;
#CHARTNAME:;
#STEPSTYPE:dance-single;
#DESCRIPTION:;
#CHARTSTYLE:;
#DIFFICULTY:Hard;
#METER:13;
#RADARVALUES:0.568998,0.611466,0.183681,0.580046,0.116009,412.000000,393.000000,19.000000,60.000000,0.000000,0.000000,0.000000,0.000000,0.000000,0.568998,0.611466,0.183681,0.580046,0.116009,412.000000,393.000000,19.000000,60.000000,0.000000,0.000000,0.000000,0.000000,0.000000;
#CREDIT:Ben Speirs;
#DISPLAYBPM:70.000000:138.000000;
#NOTES:
// measure 0
0000
0000
0000
0000
,  // measure 1
0000
0000
0000
0000
,  // measure 2
0000
0000
0000
0000
,  // measure 3
0000
0000
0000
0000
,  // measure 4
1000
0100
1000
0100
0010
0100
0010
0100
,  // measure 5
0001
0100
0001
0100
0010
0100
1000
0000
,  // measure 6
0001
0100
0001
0100
0010
0100
0010
0100
,  // measure 7
1000
0000
0100
0000
1000
0000
0100
0000
0010
0000
0100
0000
0001
1000
0001
1000
,  // measure 8
0002
0000
1003
0100
2100
0000
3001
0100
,  // measure 9
1000
0100
0010
1000
0200
0000
0310
0001
,  // measure 10
2000
0000
3001
0100
0102
0000
1003
0100
,  // measure 11
0001
0100
0010
0001
0100
0000
0110
0000
,  // measure 12
1002
0000
0103
1000
0200
0000
0310
0001
,  // measure 13
0010
1000
0100
0010
0002
0000
1003
0100
,  // measure 14
2100
0000
3100
0001
0200
0000
0310
1000
,  // measure 15
0010
0001
0100
0010
1000
0100
3010
0001
,  // measure 16
1001
0000
1010
0000
0001
0010
0100
1000
,  // measure 17
0010
0100
0010
0100
0001
1000
0100
0010
,  // measure 18
0002
0000
2003
0000
0010
0010
3010
1000
,  // measure 19
0002
0000
0013
1000
0013
0001
0100
0000
,  // measure 20
0001
0000
1000
0000
0001
0010
1000
0010
,  // measure 21
0001
0000
1000
0010
0001
0010
1000
0001
,  // measure 22
0020
0000
0130
1000
0001
0100
0010
0010
,  // measure 23
0200
0000
0000
0000
0301
0000
0010
0000
0011
0000
0000
0000
1000
0100
1000
0100
,  // measure 24
1000
0001
0100
0010
0100
0100
0001
0010
,  // measure 25
0100
0010
1000
0010
0001
1000
0010
0100
,  // measure 26
0101
0000
2010
0000
0001
0001
3001
0010
,  // measure 27
0200
0000
0301
0100
1000
0010
0100
0000
,  // measure 28
2010
0000
3001
0010
0100
0100
1000
0010
,  // measure 29
0100
0010
0001
0010
1000
0100
0010
0001
,  // measure 30
2000
0000
3010
0100
0002
0000
0013
0100
,  // measure 31
2000
0000
0000
0000
3010
0100
0010
0000
1000
0010
1000
0000
0001
1000
0001
1000
,  // measure 32
0002
0023
2030
3002
0203
2300
3020
0130
,  // measure 33
0010
0010
0010
0000
1010
0000
0101
0000
,  // measure 34
2000
3200
0302
2003
3020
0032
0203
0310
,  // measure 35
0100
0100
0100
0000
0101
0000
1010
0000
,  // measure 36
0002
0023
2030
3002
0203
2300
3020
0230
,  // measure 37
0301
0000
1000
0000
0001
0000
1000
0000
0020
0000
0000
0000
1030
0001
1000
0001
,  // measure 38
1000
0000
0001
0000
0100
0000
0010
1000
0010
0000
1000
0000
0100
0000
0010
0001
,  // measure 39
0010
0100
1000
0010
0110
0000
0110
0000
,  // measure 40
1001
0000
0001
0000
0010
0000
0100
0000
1000
0010
1000
0000
0001
0000
0100
0000
,  // measure 41
0010
0100
0010
0000
1000
0000
0100
0000
0001
0000
0100
0000
1000
0000
0010
0000
,  // measure 42
0100
0001
0100
0001
1000
0100
0010
0001
,  // measure 43
2000
0010
3002
0010
0203
0000
0010
0310
,  // measure 44
2000
0000
0000
0000
3010
0000
0100
0000
0001
0010
0001
0000
1000
0000
0100
0000
,  // measure 45
0010
0100
0010
0000
0001
0000
0100
0000
1000
0000
0100
0000
0001
0000
0010
0000
,  // measure 46
0100
1000
0100
1000
0001
0100
0010
1000
,  // measure 47
0002
0000
0010
0000
2003
0000
0010
0000
3200
0000
0000
0000
1300
0010
1300
0010
,  // measure 48
1000
0000
0001
0000
0100
0000
0010
0000
1000
0100
0010
0000
0001
0000
1000
0000
,  // measure 49
0001
0100
0010
0000
1000
0000
0100
0000
1000
0001
0010
0000
0001
0000
0100
0000
,  // measure 50
0020
1000
1030
0000
2000
0001
3001
0010
,  // measure 51
0002
0100
2003
0100
3020
0000
0100
0130
,  // measure 52
0001
0000
1000
0000
0010
0000
0100
0000
0001
0010
0100
0000
1000
0000
0001
0000
,  // measure 53
1000
0010
0100
0000
0001
0000
0010
0000
0001
1000
0100
0000
1000
0000
0010
0000
,  // measure 54
0200
0001
0301
1000
0020
0100
0130
0001
,  // measure 55
1000
0100
0001
0100
1000
0010
0100
0000
,  // measure 56
2002
0000
0000
0000
,  // measure 57
0000
0000
3003
0000
;

//---------------dance-single - ----------------
#NOTEDATA:;
#CHARTNAME:;
#STEPSTYPE:dance-single;
#DESCRIPTION:;
#CHARTSTYLE:;
#DIFFICULTY:Medium;
#METER:9;
#RADARVALUES:0.414319,0.472496,0.280356,0.560712,0.000000,300.000000,271.000000,29.000000,58.000000,0.000000,0.000000,0.000000,0.000000,0.000000,0.414319,0.472496,0.280356,0.560712,0.000000,300.000000,271.000000,29.000000,58.000000,0.000000,0.000000,0.000000,0.000000,0.000000;
#CREDIT:Ben Speirs;
#DISPLAYBPM:70.000000:138.000000;
#NOTES:
0000
0000
0000
0000
,
0000
0000
0000
0000
,
0000
0000
0000
0000
,
0000
0000
0000
0000
,
0001
0100
0001
0000
1000
0010
1000
0000
,
0001
0010
0100
0000
1000
0000
0000
0001
,
1000
0100
1000
0000
0001
0010
0001
0000
,
1000
0010
0100
0000
0001
0000
0000
1000
,
0200
0000
0010
0000
0310
0001
2000
0000
,
3002
0000
0103
0010
0200
0000
0301
0010
,
0200
0000
0010
0000
0310
0001
2000
0000
,
3020
0000
0130
0001
0200
0000
0310
1000
,
0200
0000
0010
0000
0310
0001
2000
0000
,
3002
0000
1003
0010
0200
0000
0301
0100
,
0020
0000
0100
0000
0130
0001
2000
0000
,
0200
0000
0000
3300
,
1002
0000
0103
0000
0001
0100
0010
0000
,
2000
3010
2000
3001
,
1001
0000
0101
0000
1000
0100
0010
0001
,
1000
0000
0001
0010
0100
1000
0001
0000
,
0200
0000
0300
0000
0001
0100
0010
0000
,
2000
0000
3001
0010
0100
0010
0100
0010
,
0200
0000
1300
0000
0001
0000
1000
0010
,
0200
0301
0101
1010
,
2002
0000
3003
0000
1000
0010
0100
0000
,
0001
0100
0010
0000
1000
0100
0010
0001
,
2000
0000
3200
0000
0010
0010
0320
0000
,
0032
0000
0103
0101
,
1000
0001
1000
0000
0001
0100
0010
0000
,
1000
0100
0010
0000
0001
0010
0100
1000
,
0020
0000
0130
0000
0002
0000
1003
0100
,
2000
3001
1001
0101
,
2020
0000
3030
0000
1000
0001
0010
0001
,
1000
0001
1100
0110
,
0022
0000
0033
0000
0001
1000
0100
1000
,
0020
0030
1010
0110
,
2002
0000
3003
0000
0001
0010
0100
1000
,
0020
0030
1010
0101
,
1000
0100
1000
0100
0010
0001
0010
0001
,
1000
0010
1000
0010
0100
0000
0100
0000
,
1001
0000
1000
0100
1000
0001
0100
0001
,
0020
0000
0130
0000
0020
0000
0031
1000
,
0020
0000
0130
0001
2000
0000
3100
0000
,
1100
0000
0110
0000
0011
0000
1000
0001
,
1000
0000
0001
0100
0001
1000
0100
1000
,
0020
0000
0130
0001
0020
0000
0130
1000
,
0020
0000
1030
0001
2000
0000
3100
0000
,
1100
0011
2002
3003
,
0001
0100
0001
0100
0010
1000
0010
1000
,
0200
0000
0310
0001
0200
0000
0310
0000
,
2000
0001
3002
0013
,
0011
0000
0110
0000
1100
0000
0001
1000
,
0001
0000
1000
0010
1000
0001
0010
0001
,
0200
0000
0301
0100
0020
0000
1030
0100
,
0020
0000
0031
0000
1000
0010
1000
0010
,
0100
0001
1000
0100
,
2002
0000
0000
0000
,
0000
0000
3003
0000
;

//---------------dance-single - ----------------
#NOTEDATA:;
#CHARTNAME:;
#STEPSTYPE:dance-single;
#DESCRIPTION:;
#CHARTSTYLE:;
#DIFFICULTY:Easy;
#METER:5;
#RADARVALUES:0.249972,0.333527,0.096674,0.348028,0.000000,181.000000,171.000000,10.000000,36.000000,0.000000,0.000000,0.000000,0.000000,0.000000,0.249972,0.333527,0.096674,0.348028,0.000000,181.000000,171.000000,10.000000,36.000000,0.000000,0.000000,0.000000,0.000000,0.000000;
#CREDIT:Ben Speirs;
#DISPLAYBPM:70.000000:138.000000;
#NOTES:
0000
0000
0000
0000
,
0000
0000
0000
0000
,
0000
0000
0000
0000
,
0000
0000
0000
0000
,
1000
0010
0100
0001
,
0010
0100
1000
0000
,
0001
0100
0010
1000
,
0100
0010
0001
0000
,
2000
3000
0001
0100
,
0200
0300
0020
0030
,
2002
3003
1000
0100
,
0200
0300
0020
0030
,
2002
3003
1000
0010
,
0020
0030
0200
0300
,
2002
3003
0001
0010
,
0020
0000
0000
0030
,
0001
1000
0010
0100
,
0001
1000
0100
1000
,
0010
0010
0010
0000
,
0100
0100
0100
0000
,
0001
0010
0100
1000
,
0010
0100
0001
1000
,
0200
0300
0000
0010
,
0020
0030
0001
1000
,
2002
3003
1000
0001
,
0100
0100
0010
1000
,
0100
0100
0010
0010
,
0002
0003
1000
1000
,
0002
0003
1000
0010
,
0100
0001
0010
0100
,
0200
0300
1000
0010
,
0200
0300
0010
0010
,
2002
3003
0001
1000
,
0020
0030
1000
0100
,
0020
0030
0001
1000
,
0002
0003
1000
0001
,
0200
0300
0001
0100
,
0020
0030
1000
0001
,
2000
3100
0020
0031
,
2000
3010
1001
1001
,
2002
3003
0001
0100
,
0010
0010
1000
0100
,
0010
0010
0001
1000
,
0001
0100
0100
0000
,
1001
0000
0001
0010
,
0100
0100
1000
0010
,
0100
0100
0001
1000
,
0010
0010
0010
0000
,
1000
0100
0010
0001
,
1000
0001
0100
0010
,
1000
0100
1000
0001
,
0100
0100
0100
0000
,
0001
1000
0010
1000
,
0100
0010
0001
1000
,
0010
0010
0100
0100
,
0001
0000
1000
0000
,
2002
0000
0000
0000
,
0000
0000
3003
0000
;

//---------------dance-single - ----------------
#NOTEDATA:;
#CHARTNAME:;
#STEPSTYPE:dance-single;
#DESCRIPTION:;
#CHARTSTYLE:;
#DIFFICULTY:Beginner;
#METER:3;
#RADARVALUES:0.146393,0.194557,0.077340,0.058005,0.000000,106.000000,98.000000,8.000000,6.000000,0.000000,0.000000,0.000000,0.000000,0.000000,0.146393,0.194557,0.077340,0.058005,0.000000,106.000000,98.000000,8.000000,6.000000,0.000000,0.000000,0.000000,0.000000,0.000000;
#CREDIT:Ben Speirs;
#DISPLAYBPM:70.000000:138.000000;
#NOTES:
0000
0000
0000
0000
,
0000
0000
0000
0000
,
0000
0000
0000
0000
,
0000
0000
0000
0000
,
0001
0000
0000
0000
,
1000
0000
0000
0010
,
0010
0000
0000
0000
,
0100
0000
0000
0000
,
1001
0000
0000
1000
,
1000
0000
0100
0000
,
0010
0000
0000
0001
,
0001
0000
0100
0000
,
0010
0000
0000
1000
,
1000
0000
0100
0000
,
0010
0000
0000
0001
,
0001
0000
0000
0000
,
1001
0000
1000
0000
,
1000
0000
0000
0000
,
0010
0010
0010
0000
,
0010
0000
0000
0000
,
0100
0000
0100
0000
,
0100
0000
0000
0000
,
0001
0001
0000
0000
,
0001
0001
0000
0000
,
1001
0000
1000
0000
,
0010
0000
0010
0000
,
0100
0100
0100
0000
,
0200
0000
0300
0000
,
0001
0000
0001
0000
,
0010
0000
0010
0000
,
0100
0000
0100
0000
,
1000
0000
0010
0010
,
0010
0000
0000
0100
,
0100
0000
0001
0000
,
0010
0000
0000
0100
,
0100
0000
1000
0000
,
0010
0000
0000
0100
,
0100
0000
0001
0000
,
2000
3000
0200
0300
,
0020
0000
0000
0030
,
1001
0000
0001
0000
,
0100
0000
0100
0000
,
0010
0000
0000
0000
,
1000
1000
1000
0000
,
1001
0000
1000
0000
,
0100
0000
0100
0000
,
0010
0000
0000
0000
,
0001
0001
0001
0000
,
1001
0000
0001
0000
,
0100
0000
0100
0000
,
0010
0000
0000
0000
,
1000
1000
1000
0000
,
1001
0000
1000
0000
,
0100
0000
0100
0000
,
0010
0000
0000
0000
,
0001
0000
1000
0000
,
2002
0000
0000
0000
,
0000
0000
3003
0000
;

//---------------dance-double - ----------------
#NOTEDATA:;
#CHARTNAME:;
#STEPSTYPE:dance-double;
#DESCRIPTION:;
#CHARTSTYLE:;
#DIFFICULTY:Hard;
#METER:13;
#RADARVALUES:0.552425,0.611466,0.212684,0.377030,0.116009,400.000000,378.000000,22.000000,39.000000,0.000000,0.000000,0.000000,0.000000,0.000000,0.552425,0.611466,0.212684,0.377030,0.116009,400.000000,378.000000,22.000000,39.000000,0.000000,0.000000,0.000000,0.000000,0.000000;
#CREDIT:Ben Speirs;
#DISPLAYBPM:70.000000:138.000000;
#NOTES:
00000000
00000000
00000000
00000000
,
00000000
00000000
00000000
00000000
,
00000000
00000000
00000000
00000000
,
00000000
00000000
00000000
00000000
,
00000001
00000100
00000001
00000100
00001000
00013000
00001000
00010000
,
01000000
10000000
01000000
10000000
00100000
01000000
00010000
00000000
,
10000000
01000000
10000000
01000000
00010000
00001000
00010000
00001000
,
00000100
00000000
00000001
00000000
00000100
00000000
00000001
00000000
00001000
00000000
00000100
00000000
00013000
00001000
00010000
00001000
,
00020000
00000000
00031000
00100000
00102000
00000000
00003010
00001000
,
00010000
00001000
01000000
00100000
00020000
00000000
00031000
00000000
,
00012000
00000000
00013000
00000100
00020100
00000000
01030000
00010000
,
00001000
00010000
00000010
00000100
00002000
00000000
00013000
00001000
,
02000000
00000000
03010000
01000000
10000000
01000000
00100000
10000000
,
02000000
00000000
03010000
00001000
00020000
00000000
00031000
00010000
,
00000020
00000000
00001030
00000010
00000001
00000010
00000100
00000001
,
00000020
00000000
00001030
00000000
00010000
00000000
00001000
01000000
,
02001000
00000000
03100000
00000000
10000000
10000000
00100000
10000000
,
01000000
00100000
01000000
00100000
00010000
01000000
00001000
00000000
,
00010010
00000000
00010010
00000000
00010000
00000100
00000010
00000100
,
00010000
00000000
00000100
00010000
00000010
00000100
00000001
00001000
,
00000002
00000000
00000013
00000000
00000001
00000010
00001000
00000010
,
00000200
00000000
00010300
00001000
00010000
00001000
01000000
00100000
,
20000000
00000000
30010000
00000000
00100000
00000000
00010000
00010000
,
02000000
00000000
00000000
00000000
03001000
00000000
00000000
00000000
01001000
00000000
00000000
00000000
00001000
00010000
00001000
00010000
,
00002000
00000300
00013000
00000100
00001000
00001000
00000001
00000100
,
00000010
00000100
00001000
00000100
00000001
00000010
00000100
00010000
,
00002000
00000000
00203000
00000000
01000000
01000000
01300000
10000000
,
00200000
00000000
10300000
01000000
00020000
00000000
00031000
00000000
,
00010020
00000000
00000130
00000000
00000001
00000001
00001000
00000100
,
00000001
00000100
00010000
00001000
01000000
00100000
01000000
01000000
,
00020000
00000000
00130000
01000000
20000000
00000000
30010000
01000000
,
00002000
00000000
00000000
00000000
00103000
00010000
00100000
00000000
00010000
01000000
00010000
00000000
10000000
00010000
10000000
00010000
,
10000000
01000000
00010000
00001000
00000010
00000001
00001000
00000001
,
00000200
00000310
00000101
00001010
,
00000001
00000010
00001000
00010000
01000000
10000000
00010000
10000000
,
00200000
01300000
10100000
01010000
,
10000000
01000000
00010000
00001000
00000010
00000001
00001000
00000001
,
00000100
00000000
00000100
00000000
00000100
00000000
00000000
00000000
00000110
00000000
00000000
00000000
00001000
00000001
00001000
00000001
,
00001000
00000000
00000100
00000000
00010000
00000000
00001000
00010000
00001000
00000000
00100000
00000000
00010000
00000000
01000000
00010000
,
01000000
00100000
10000000
01000000
11000000
00000000
01010000
00000000
,
10020000
00000000
00000000
00000000
00130000
00000000
01000000
00000000
00100000
00010000
00100000
00000000
00010000
00000000
10000000
00000000
,
00100000
10000000
00100000
00000000
01000000
00000000
00010000
00000000
00100000
00000000
00001000
00000000
00010000
00000000
00100000
00000000
,
00010000
00001000
00000100
00000010
00001000
00000100
00000010
00000001
,
00002000
00000100
00003002
00000100
00000023
00000000
00000130
00000000
,
00002001
00000000
00000000
00000000
00003100
00000000
00000010
00000000
00000100
00001000
00000100
00000000
00001000
00000000
00000001
00000000
,
00000100
00000001
00000100
00000000
00000010
00000000
00001000
00000000
00000100
00000000
00010000
00000000
00001000
00000000
00000100
00000000
,
00001000
00010000
00100000
01000000
00010000
00100000
01000000
10000000
,
00020000
00000000
00100000
00000000
20030000
00000000
00100000
00000000
32000000
00000000
00000000
00000000
13000000
00010000
10000000
00010000
,
10000000
00000000
00100000
00000000
01000000
00000000
00010000
00000000
10000000
01000000
00100000
00000000
00010000
00000000
01000000
00000000
,
00001000
00010000
00001000
00000000
00010000
00000000
00000100
00000000
00001000
00000010
00000100
00000000
00000001
00000000
00001000
00000000
,
00000100
00000010
00000100
00000010
00000001
00000100
00001000
00010000
,
00011000
00000000
00101000
00000000
00010020
00000000
00001330
00000001
,
00002001
00000000
00000000
00000000
00003010
00000000
00001000
00000000
00000001
00000010
00000100
00000000
00001000
00000000
00000010
00000000
,
00010000
00001000
00010000
00000000
00001000
00000000
00100000
00000000
00010000
01000000
00100000
00000000
10000000
00000000
00010000
00000000
,
00100000
01000000
00100000
01000000
10000000
00100000
01000000
00010000
,
00100000
00001000
00010000
00000100
00000010
00000001
00001000
00000000
,
00002002
00000000
00000000
00000000
,
00000000
00000000
00003003
00000000
;

//---------------dance-double - ----------------
#NOTEDATA:;
#CHARTNAME:;
#STEPSTYPE:dance-double;
#DESCRIPTION:;
#CHARTSTYLE:;
#DIFFICULTY:Medium;
#METER:9;
#RADARVALUES:0.429511,0.444702,0.406032,0.725058,0.000000,311.000000,269.000000,42.000000,75.000000,0.000000,0.000000,0.000000,0.000000,0.000000,0.429511,0.444702,0.406032,0.725058,0.000000,311.000000,269.000000,42.000000,75.000000,0.000000,0.000000,0.000000,0.000000,0.000000;
#CREDIT:;
#DISPLAYBPM:70.000000:138.000000;
#NOTES:
00000000
00000000
00000000
00000000
,
00000000
00000000
00000000
00000000
,
00000000
00000000
00000000
00000000
,
00000000
00000000
00000000
00000000
,
10000000
01000000
10000000
00000000
00010000
01000000
00010000
00000000
,
00100000
00001000
00100000
00000000
00001000
00010000
00001000
00010000
,
00000010
00001000
00000010
00000000
00001000
00000100
00001000
00000000
,
00000001
00000100
00000001
00000000
00001000
00000100
00001000
00000000
,
00001002
00000000
00000103
00000000
00000001
00000100
00000020
00000000
,
00002030
00000000
00003100
00010000
00002000
00000000
00103000
00000000
,
00120000
00000000
10030000
00000000
00010000
10000000
00200000
00000000
,
02300000
00000000
03010000
00100000
00002000
00000000
00013000
00000000
,
00012000
00000000
00103000
00000000
00001000
00100000
00020000
00000000
,
20030000
00000000
30100000
01000000
00002000
00000000
00013000
00000000
,
00010020
00000000
00001030
00000000
00000010
00001000
00000200
00000000
,
00000320
00000031
00001000
00000000
,
00001002
00000000
00000103
00000000
00000001
00000100
00000010
00000000
,
00001000
00000100
00001000
00000100
00010000
00001000
00010000
00000000
,
00201000
00000000
00320000
00000000
10030000
00100000
10000000
00100000
,
02000000
00000000
03010000
00100000
00010000
00100000
02000000
00000000
,
13000000
00000000
00010000
00000000
10000000
00100000
10000000
00010000
,
00200000
00000000
00301000
00010000
00001000
00010000
00001000
00010000
,
00000020
00000000
00001030
00000000
00000001
00000000
00001000
00000100
,
00000020
00000031
00000011
00001100
,
00002002
00000000
00003003
00000000
00001000
00000020
00000000
00020030
,
00000000
00032000
00000000
00103000
00010000
00100000
00010000
00000000
,
00110000
00000000
01100000
00000000
10000000
00010000
20000000
00000000
,
30200000
00000000
00000000
00000000
01300000
00010000
10000000
00000000
,
10100000
00000000
01010000
00000000
00100000
00002000
00000000
00023000
,
00000000
00030200
00000000
00002300
00000000
00003001
00000100
00000001
,
00000200
00000000
00000310
00000000
00002000
00000000
00003001
00000010
,
00000200
00010300
00010100
00011000
,
00202000
00000000
00303000
00000000
00100000
00010000
01000000
00010000
,
00200000
00301000
00101000
00011000
,
00020020
00000000
00030030
00000000
00010000
00000010
00001000
00000010
,
00020000
00030010
00010010
00011000
,
02002000
00000000
03003000
00000000
00001000
01000000
00010000
01000000
,
00002000
01003000
01001000
00011000
,
00020100
00031000
00102000
00013000
,
00020010
00031000
00011000
00011000
,
00201000
00000000
00310000
10000000
00010000
10000000
00100000
01000000
,
00020000
00000000
00230000
00000000
00302000
00000000
00013000
00000010
,
00002000
00000000
00003100
00000010
00000002
00000000
00001003
00000000
,
00001010
00000000
00000101
00000000
00002001
00000000
00003100
00010000
,
00002000
00000000
00103000
00010000
00100000
00010000
20000000
00000000
,
30020000
00000000
01030000
00100000
02000000
00000000
03010000
00100000
,
00002000
00000000
00013000
00000010
00002000
00000000
00003100
00000000
,
00001100
00000110
00002002
00003003
,
00000102
00000000
00001003
00000010
00001000
00000010
00000100
00000001
,
00002000
00000000
00003100
00010000
00000200
00000000
00010300
00000000
,
00012000
00000000
00103000
00010000
02000000
00000000
03010000
00000000
,
01010000
00000000
01100000
00000000
20100000
00000000
30010000
10000000
,
00020000
00000000
10030000
01000000
10000000
01000000
00100000
00010000
,
02000000
00000000
03010000
00100000
00002000
00000000
00013000
00000000
,
00000100
00010000
00000100
00000000
00001000
00000010
00001000
00000000
,
00000001
00000100
00000010
00000000
00001000
00000000
00000100
00000000
,
00022000
00000000
00000000
00000000
,
00000000
00000000
00033000
00000000
;

//---------------dance-double - ----------------
#NOTEDATA:;
#CHARTNAME:;
#STEPSTYPE:dance-double;
#DESCRIPTION:;
#CHARTSTYLE:;
#DIFFICULTY:Easy;
#METER:5;
#RADARVALUES:0.236162,0.305733,0.096674,0.367363,0.000000,171.000000,161.000000,10.000000,38.000000,0.000000,0.000000,0.000000,0.000000,0.000000,0.236162,0.305733,0.096674,0.367363,0.000000,171.000000,161.000000,10.000000,38.000000,0.000000,0.000000,0.000000,0.000000,0.000000;
#CREDIT:Ben Speirs;
#DISPLAYBPM:70.000000:138.000000;
#NOTES:
00000000
00000000
00000000
00000000
,
00000000
00000000
00000000
00000000
,
00000000
00000000
00000000
00000000
,
00000000
00000000
00000000
00000000
,
00010000
00001000
00100000
00000000
,
00100000
00010000
01000000
00000000
,
01000000
00010000
10000000
00000000
,
10000000
01000000
00100000
00000000
,
20020000
30030000
00010000
01000000
,
02000000
03000000
00002000
00003000
,
00020000
00030000
00010000
00000100
,
00000200
00000300
00002000
00003000
,
00000020
00000030
00001000
00000001
,
00000002
00000003
00000020
00000030
,
00000200
00000300
00010000
00001000
,
00002000
00000000
00003000
00000000
,
00022000
00033000
00100000
00100000
,
00010000
10000000
00100000
00000000
,
10000000
01000000
10000000
00000000
,
00010000
01000000
00010000
00000000
,
00100000
00000000
00100000
00000000
,
00001000
00010000
00001000
00010000
,
00000020
00000030
00001000
00000100
,
00000200
00000300
00000010
00000010
,
00002002
00003003
00000001
00000100
,
00000010
00000010
00001000
00000100
,
00020000
00030000
00001000
00001000
,
02000000
03000000
00100000
00000000
,
20020000
30030000
10000000
10000000
,
01000000
01000000
00100000
00010000
,
02000000
03000000
00001000
00010000
,
00002000
00003000
00010000
00000100
,
00002002
00003003
00000001
00000100
,
00000020
00000030
00001000
00000100
,
00020000
00030000
00001000
01000000
,
00200000
00300000
10000000
00010000
,
00200000
00300000
01000000
01000000
,
20000000
30000000
00010000
01000000
,
00002000
00003000
00020000
00030000
,
00000020
00000030
00001001
00001001
,
00002002
00003003
00000001
00001000
,
00000100
00000100
00010000
00001000
,
00100000
00100000
00010000
10000000
,
00100000
00100000
00100000
00000000
,
10010000
00000000
10000000
01000000
,
00100000
00100000
00010000
01000000
,
00001000
00001000
00010000
00000100
,
00000010
00000010
00000010
00000000
,
00000001
00001000
00000010
00000010
,
00001000
00000100
00010000
00010000
,
00001000
01000000
00100000
00100000
,
10000000
01000000
00100000
00000000
,
00010000
10000000
00100000
00100000
,
01000000
00010000
00100000
00100000
,
00001000
00010000
00000010
00000100
,
00000001
00000000
00001000
00000000
,
00002002
00000000
00000000
00000000
,
00000000
00000000
00003003
00000000
;
