#VERSION:0.83;
#TITLE:You Keep Me Up At Night;
#SUBTITLE:;
#ARTIST:THE DRIVER ERA;
#TITLETRANSLIT:;
#SUBTITLETRANSLIT:;
#ARTISTTRANSLIT:;
#GENRE:Indie Pop;
#CREDIT:jenro-2024;
#MUSIC:You Keep Me Up At Night.ogg;
#BANNER:You Keep Me Up At Night-bn.png;
#BACKGROUND:You Keep Me Up At Night-bg.jpg;
#CDTITLE:;
#SAMPLESTART:57.552;
#SAMPLELENGTH:12.429;
#SELECTABLE:YES;
#OFFSET:-0.981;
#BPMS:0.000=140.000;
#STOPS:;
#BGCHANGES:-1.838=You Keep Me Up At Night.mp4=1.000=1=0=0=StretchNoLoop==CrossFade==,
99999.000=-nosongbg-=1.000=0=0=0=StretchNoLoop====
;
#FGCHANGES:;

//--------------- dance-single - jenro-2024 ----------------
#NOTEDATA:;
#STEPSTYPE:dance-single;
#DESCRIPTION:jenro-2024;
#DIFFICULTY:Beginner;
#METER:2;
#RADARVALUES:0.137676,0.189891,0.007139,0.099943,0,135,134,1,14,0,0,0.137676,0.189891,0.007139,0.099943,0,135,134,1,14,0,0;
#NOTES:
0000
0000
0000
0000
,
0000
0000
0000
0000
,
0000
0000
0000
0000
,
0000
0000
0000
0000
,
0100
0000
0000
0000
,
0100
0000
0000
0000
,
0100
0000
0000
0000
,
0100
0000
0000
0000
,
0100
0000
0000
0000
,
0100
0000
0000
0000
,
0010
0000
0000
0000
,
2000
0000
3000
0000
,
1000
0000
0001
0000
,
1000
0000
0001
0000
,
0100
0000
0001
0000
,
1000
0000
0001
0000
,
0100
0000
1000
0000
,
0001
0000
1000
0000
,
0100
0000
0001
0000
,
0100
0000
1000
0000
,
0200
0000
0000
0300
0000
0000
0000
0000
,
0010
0000
0010
0000
,
0001
0000
0001
0000
,
1000
0000
1000
0000
,
0200
0000
0000
0300
0000
0000
0000
0000
,
0010
0000
0010
0000
,
1000
0000
1000
0000
,
0001
0000
0001
0000
,
0200
0000
0000
0300
0000
0000
0000
0000
,
0010
0000
0010
0000
,
0200
0000
0000
0300
0000
0000
0000
0000
,
0100
0000
0000
0000
,
1000
0000
0001
0000
,
1000
0000
0100
0000
,
0001
0000
1000
0000
,
0001
0000
0100
0000
,
1000
0000
0001
0000
,
1000
0000
0100
0000
,
0001
0000
1000
0000
,
0001
0000
0000
0000
,
1000
1000
1000
0000
,
1000
1000
1000
0000
,
0001
0001
0001
0000
,
0001
0001
0001
0000
,
1000
1000
1000
0000
,
0001
0001
0001
0000
,
1000
1000
1000
0000
,
0001
0001
0001
0000
,
0200
0000
0000
0300
0000
0000
0000
0000
,
0010
0000
0010
0000
,
0100
0000
1000
0000
,
0010
0000
0010
0000
,
0100
0000
0001
0000
,
0010
0000
0010
0000
,
0100
0000
1000
0000
,
0100
0000
1001
0000
,
0020
0000
0000
0030
0000
0000
0000
0000
,
0100
0000
1000
0000
,
0020
0000
0000
0030
0000
0000
0000
0000
,
0000
0000
0000
0000
,
2000
0000
3000
0000
,
0002
0000
0003
0000
,
2000
0000
3000
0000
,
0002
0000
0003
0000
,
1000
0000
0001
0000
,
1000
0000
0001
0000
,
1000
0000
0001
0000
,
0020
0000
0030
0000
,
0001
0001
0001
0000
,
0100
0100
0100
0000
,
0010
0010
0010
0000
,
0100
0100
0100
0000
,
1000
1000
1000
0000
,
0100
0100
0100
0000
,
0010
0010
0010
0000
,
0200
0000
0000
0000
,
0300
0000
0000
0000
;

//--------------- dance-single - jenro-2024 ----------------
#NOTEDATA:;
#STEPSTYPE:dance-single;
#DESCRIPTION:jenro-2024;
#DIFFICULTY:Easy;
#METER:6;
#RADARVALUES:0.241699,0.325528,0.192747,0.221302,0,237,210,27,31,0,0,0.241699,0.325528,0.192747,0.221302,0,237,210,27,31,0,0;
#NOTES:
0000
0000
0000
0000
,
0000
0000
0000
0000
,
0000
0000
0000
0000
,
0000
0000
0000
0000
,
0010
0000
0001
0001
,
0000
0000
0100
0100
,
0000
0000
0010
0010
,
0100
0000
1000
0000
,
0100
1000
0010
0001
,
0010
1000
0100
0001
,
0010
0000
0001
0001
,
1000
0001
1000
0001
,
1000
0000
0100
0100
,
1000
1000
0010
0010
,
1000
0000
0100
0100
,
0001
0001
0010
0010
,
0001
0000
1000
1000
,
0001
0001
1000
0001
,
0100
0000
0001
1000
,
0100
0001
0100
1000
,
0020
0000
0000
0030
0000
0000
0000
0000
,
0100
0101
1000
0100
,
0020
0000
0000
0030
0000
0000
0000
0000
,
1000
1100
0001
0101
,
0020
0000
0000
0030
0000
0000
0000
0000
,
0100
1000
0010
0100
,
0002
0000
0000
0003
0000
0000
0000
0000
,
1000
1001
0001
0110
,
2000
0000
0000
3000
0000
0000
0000
0000
,
0110
0000
1001
0000
,
0120
0000
0000
0030
0000
0000
0000
0000
,
0001
1000
0001
1000
,
0100
0100
0100
0010
,
1000
1000
1000
0100
,
0010
0010
0010
1000
,
1001
0000
1001
0000
,
0100
0100
0100
1000
,
0001
0001
0001
0100
,
0010
0010
0010
0001
,
2000
0000
3001
0000
,
1001
0000
0100
0110
,
0000
0000
0100
0110
,
0000
0000
0100
0110
,
1000
0110
0001
0110
,
0001
0000
1000
1010
,
0000
0000
0001
0011
,
0000
0000
1000
0001
,
0010
0100
0010
1000
,
0002
0000
0000
0003
0000
0000
0000
0000
,
0100
1100
0001
0100
,
0020
0000
0000
0030
0000
0000
0000
0000
,
0001
0101
1000
1100
,
0020
0000
0000
0030
0000
0000
0000
0000
,
0100
0001
0010
0100
,
2000
0000
0000
3000
0000
0000
0000
0000
,
0001
1001
1000
0110
,
0002
0000
0000
0003
0000
0000
0000
0000
,
0110
0000
1001
0000
,
0120
0000
0000
0030
0000
0000
0000
0000
,
0000
0000
0000
0000
,
1000
0000
0100
0100
,
0001
0000
0100
0100
,
0010
0000
0100
0100
,
1000
0100
0001
0100
,
1000
0000
1000
1000
,
0010
0000
0001
0001
,
0010
0000
0100
0100
,
2002
0000
0000
3003
,
2000
3010
2000
3100
,
2000
3010
2000
3001
,
0002
0103
0002
0013
,
0002
0103
0002
1003
,
2000
3100
2000
3010
,
2000
3100
2000
3001
,
0002
0013
0002
0103
,
0002
0013
0002
1003
,
1000
0000
0000
0000
,
0000
0000
0000
0000
,
0001
0000
0000
0000
,
0010
0000
0000
0000
;

//--------------- dance-single - jenro-2024 ----------------
#NOTEDATA:;
#STEPSTYPE:dance-single;
#DESCRIPTION:jenro-2024;
#DIFFICULTY:Medium;
#METER:8;
#RADARVALUES:0.313086,0.354976,0.214163,0.185608,0,307,277,30,26,0,0,0.313086,0.354976,0.214163,0.185608,0,307,277,30,26,0,0;
#NOTES:
0000
0000
0000
0000
,
0000
0000
0000
0000
,
0000
0000
0000
0000
,
0000
0000
0000
0000
,
1000
0001
0010
0100
,
1000
0001
0010
0100
,
1000
0001
0010
0100
,
1000
0010
0100
0001
,
1000
0001
0010
0100
,
1000
0001
0010
0100
,
1000
0001
0010
0100
,
1000
1001
1001
0000
,
1000
0000
0020
0130
,
0002
1003
0200
0310
,
1001
0000
0200
0310
,
2000
3001
0020
0130
,
1001
0000
0002
1003
,
0020
0130
2000
3001
,
0110
0000
2000
3001
,
0010
0110
0110
0110
,
0020
0000
0000
0130
0000
0000
0000
0000
,
2000
3100
0002
0103
,
2000
0000
0000
3001
0000
0000
0000
0000
,
0002
0013
2000
3010
,
0002
0000
0000
1003
0000
0000
0000
0000
,
0100
1000
0100
0000
0001
0000
1000
0000
,
0020
0000
0000
1030
0000
0000
0000
0000
,
0101
0011
0101
0011
,
2000
0000
0000
3100
0000
0000
0010
0001
,
0000
0000
1000
0100
0000
0000
1000
0010
,
0100
0000
0000
0100
0000
0000
0000
0000
,
0001
0001
0001
0001
,
1000
0001
0010
0100
,
1000
0001
0010
0100
,
1000
0001
0010
0100
,
1000
0010
0100
0001
,
1000
0001
0010
0100
,
1000
0001
0010
0100
,
1000
0001
0010
0100
,
1000
1001
1001
0000
,
1000
0000
0000
0001
0100
0001
0010
0000
,
0000
0000
0000
0000
0010
0100
1000
0000
,
0000
0000
0000
0000
1000
0001
1000
0100
,
1000
0010
0100
0000
0010
1000
0100
0000
,
0000
1000
0000
0001
0100
0001
0010
0100
,
0000
0000
0000
0000
1000
0001
0100
0000
,
0000
0000
0000
0000
0001
1000
0100
1000
,
0001
1000
0010
0000
0000
0001
1000
0001
,
0010
0000
0000
0110
0000
0000
0000
1000
,
0100
1000
0100
1000
0010
1000
0010
1000
,
0000
0000
0000
0000
0000
0000
0001
0100
,
0000
0001
0010
0100
0010
0001
0010
0001
,
0000
0000
0000
0000
0000
0000
0000
1000
,
0100
0010
0001
1000
0010
0000
1000
0100
,
0000
0000
0000
0000
0000
0000
1000
0001
,
0000
1100
0101
0110
,
2000
0000
0000
3001
0000
0001
0010
0001
,
0000
0000
1000
0100
0000
0000
1000
0010
,
0100
0000
0000
0100
0000
0000
0000
0000
,
1000
1000
1000
1000
,
1000
0001
0100
0010
,
1000
0001
0100
0010
,
1000
0001
0100
0010
,
1000
0100
0010
0001
,
1000
0001
0100
0010
,
1000
0001
0100
0010
,
1000
0001
0100
0010
,
1000
1001
2002
3003
,
1000
0100
1001
0100
,
0001
0100
1001
0100
,
1000
0100
1001
0100
,
0002
0103
2000
3100
,
1001
0100
0001
0100
,
1001
0100
1000
0100
,
1001
0100
0001
0100
,
1001
0000
1001
1001
,
0220
0000
0330
0000
;

//--------------- dance-single - jenro2024 ----------------
#NOTEDATA:;
#STEPSTYPE:dance-single;
#DESCRIPTION:jenro2024;
#DIFFICULTY:Hard;
#METER:11;
#RADARVALUES:0.499714,0.484678,0.207025,0.099943,0.039263,490,461,29,14,0,0,0.499714,0.484678,0.207025,0.099943,0.039263,490,461,29,14,0,0;
#NOTES:
0000
0000
0000
0000
,
0000
0000
0000
0000
,
0000
0000
0000
0000
,
0000
0000
0000
0000
,
1000
0001
0010
0100
,
1000
0001
0010
0100
,
1000
0001
0010
0100
,
1000
0010
0100
0001
,
1000
0010
1000
0010
,
1000
0100
1000
0100
,
1000
0001
1000
0001
,
0101
0000
0000
0000
0001
0000
0000
0000
1100
0000
0000
1000
0000
0000
1001
0000
,
0000
0000
0000
0000
1000
0100
1000
0010
,
1000
0001
1000
0010
1000
0100
1000
0010
,
0100
0000
1010
0000
0001
0100
0001
0010
,
0001
1000
0001
0010
0001
0100
0001
0010
,
0100
0000
1100
0000
0001
1000
1000
0001
,
1000
0100
1000
0001
1000
0100
0010
0100
,
0001
0000
0101
0000
1000
0100
0010
0001
,
0100
1001
1001
0010
,
0200
0000
0000
0301
0000
0000
0000
0010
,
1000
0100
1000
0010
1000
0100
0010
0001
,
2000
0000
0000
3001
0000
0000
0010
1000
,
1000
0001
0001
0010
0100
1000
0001
1000
,
0002
0000
0000
1003
0000
0000
0000
1000
,
0010
1000
0010
0100
0010
0010
0010
1000
,
0200
1000
1000
1300
0000
0000
0001
1001
,
0000
1010
1100
1001
,
1000
0010
1000
0001
0010
0010
0010
0100
,
1000
0001
0001
0001
1000
0010
0010
0010
,
1000
0100
0010
0001
1000
1000
1000
1000
,
0001
0100
0100
0100
0010
1000
1000
0100
,
1000
0001
0010
0100
,
1000
0001
0010
0100
,
1000
0001
0010
0100
,
2002
3003
2002
3003
,
1000
0000
1000
0010
1000
0010
1000
0010
,
1000
0100
1000
0100
1000
0100
1000
0100
,
1000
0001
1000
0001
1000
0001
1000
0001
,
1000
0000
0000
0000
0101
0000
0000
0000
1100
0000
0000
1000
0000
0000
1001
0000
,
0000
0000
0000
0010
1000
1000
0010
0000
,
0100
0000
0101
0000
0100
0100
0001
0000
,
0010
0000
0110
0000
0100
0100
1000
1000
,
0100
0100
0010
0100
1000
0100
0010
0100
,
1000
0001
0000
0100
0001
0100
0001
1000
,
0100
1000
0100
1000
0001
1000
0010
1000
,
0100
0010
0001
0000
1000
0100
0010
0001
,
1000
0001
0100
0000
0000
0001
1000
0010
,
0200
0000
0000
0310
0000
0000
0000
0100
,
0001
0010
0001
0100
0001
0010
0100
1000
,
0002
0000
0000
1003
0000
0000
0100
0001
,
0001
1000
1000
0100
0010
0001
1000
0001
,
2000
0000
0000
3001
0000
0000
0000
0001
,
0100
0001
0100
0010
0100
0100
0100
0001
,
0020
0001
0001
0031
0000
0000
1000
1001
,
0000
0101
0011
1001
,
0001
0100
0001
1000
0100
0100
0100
0010
,
0001
1000
1000
1000
0001
0100
0100
0100
,
0001
0010
0100
1000
0001
0001
0001
0001
,
1000
0010
0010
0010
0100
0001
0001
0010
,
0001
0000
1000
0100
0010
0000
0001
1000
,
0000
0100
0010
0001
1000
0100
0010
0001
,
1000
0000
0100
0010
0001
0001
1000
0100
,
0010
0001
0100
0010
1000
0100
0010
0001
,
1000
1000
0100
0100
0010
0010
0001
0001
,
0000
1000
1000
0100
0100
0010
0010
0001
,
0001
1000
1000
0010
0010
0100
0100
0001
,
0001
0000
0000
0000
0101
0000
0000
0000
1100
0000
0000
0001
0000
0000
1001
0000
,
2000
0000
0000
0000
3001
0000
0000
1000
0010
0000
1000
0000
0001
0000
0000
0000
,
0001
0000
0010
0000
0100
0000
0000
1000
0001
0000
0001
0000
1000
0000
0000
0000
,
0100
0000
1000
0000
0100
0000
0000
0100
1000
0000
0100
0000
1000
0000
0000
0000
,
0020
0000
0000
0000
1030
0000
0000
0000
1010
0000
0000
0001
0000
0000
1100
0000
,
1000
0000
0001
0000
0010
0000
0000
0001
0010
0000
0001
0000
0010
0000
0000
0000
,
0100
0000
1000
0000
0001
0000
0000
1000
0001
0000
1000
0000
0001
0000
0000
0000
,
0100
0000
0010
0000
0100
0000
0000
0010
0100
0000
0001
0000
1000
0000
0000
0000
,
0100
0000
0000
0000
0110
0000
0000
0000
1000
0000
0000
1000
0000
0000
1000
0000
,
1000
0000
0100
0010
0001
0000
1000
0100
,
0000
0010
0001
1000
0100
0010
0001
1000
,
0100
0100
0010
0010
0001
0001
1000
1000
,
0010
0010
0100
0100
0001
0000
0001
0001
;

//--------------- dance-single - jenro-2024 ----------------
#NOTEDATA:;
#STEPSTYPE:dance-single;
#DESCRIPTION:jenro-2024;
#DIFFICULTY:Edit;
#METER:12;
#RADARVALUES:0,0,0,0,0;
#NOTES:
0000
0000
0000
0000
,
0000
0000
0000
0000
,
0000
0000
0000
0000
,
0000
0000
0000
0000
0000
0001
1000
0100
,
0010
0001
0010
0001
0100
0001
0100
0001
,
0000
1000
0100
1000
0100
1000
0010
1000
,
0010
0100
0001
0100
0001
0010
0001
0010
,
0100
0000
0100
0010
0001
0000
0001
0100
,
0010
1000
0010
0100
0001
0000
0010
0100
,
0000
1000
0001
0100
0001
0010
0100
1000
,
0100
0010
0001
0100
0010
1000
0001
0100
,
0001
0000
0000
0000
0010
0000
0000
0000
0110
0000
0000
0100
0000
0000
0220
0000
,
0000
0330
0000
0000
1000
1000
0001
0001
,
0100
0100
0001
0001
1000
1000
0001
0001
,
0100
0000
0110
0000
0001
0001
1000
1000
,
0100
0100
1000
1000
0001
0001
1000
1000
,
0100
0000
0110
0000
0010
0001
0100
0010
,
1000
0100
0010
0001
0100
0010
1000
0001
,
1001
0000
0110
0000
0001
1000
0001
1000
,
1001
0110
1001
0110
,
0010
0001
0100
0002
0000
0000
0000
1003
,
0100
1000
0010
1000
0001
1000
0100
1000
,
2000
0000
0000
3001
0000
0000
0001
0001
,
0010
0001
0100
0001
1000
0001
0010
0001
,
0002
0000
0000
1003
0000
0000
0000
0100
,
0010
0001
1000
0010
0100
0010
1000
0001
,
0010
0100
1000
0001
0100
0010
1000
0001
,
0010
1010
0101
1001
,
1000
0001
0100
0001
1000
0100
1000
0010
,
0100
0010
0100
0001
0010
0100
1000
0010
,
0100
0001
0010
0100
1000
0010
0100
0001
,
1000
0100
0010
0001
0010
0001
0100
0010
,
1000
1000
0100
1000
1000
0010
0100
0001
,
0000
0001
0001
0100
0001
0010
0100
1000
,
0001
0001
1000
1000
0001
0001
1000
1000
,
0100
0110
0010
0110
,
1000
0001
0100
0001
1000
0100
1000
0001
,
0001
0001
1000
0100
1000
0001
0100
0001
,
1000
1000
0001
0100
0001
1000
0100
1000
,
0001
0000
0000
0000
0100
0000
0000
0000
0110
0000
0000
0100
0000
0000
0220
0000
,
0000
0000
0330
0000
0000
0000
0000
0001
1000
0000
0010
0000
0010
0000
0000
0000
,
0100
0000
0001
0000
0100
0000
0000
0010
1000
0000
0100
0000
0100
0000
0000
0000
,
0010
0000
0001
0000
1000
0000
0000
0100
1000
0000
0001
0000
1000
0000
1000
0000
,
0100
0000
0010
0000
0001
0000
0000
0100
0010
0000
0100
0000
0001
0000
1000
0000
,
0100
0000
0010
0000
0001
0000
0000
0001
1000
0000
0100
0000
1000
0000
0000
0000
,
0010
0000
0100
0000
0001
0000
0000
0001
1000
0000
0100
0000
1000
0000
0000
0000
,
0001
0000
0010
0000
0001
0000
0000
0100
0010
0000
0100
0000
0100
0000
0001
0000
,
1000
0000
1000
0000
0100
0000
0000
0001
0010
0000
0100
0000
0001
0000
0100
0000
,
0010
1000
0001
0100
0000
0000
0000
1000
,
0001
0100
0100
0001
1000
0010
0100
0100
,
0001
1000
0100
0010
0100
0100
1000
0100
,
0100
0010
0001
0001
0100
0010
0100
0001
,
1000
1000
0100
0010
0001
0001
0100
0010
,
1000
0001
0001
0100
0001
0100
0100
0010
,
1000
0001
0001
1000
0100
0010
0010
0100
,
1000
0001
0001
1000
1000
0001
0001
1000
,
1000
0100
0010
0001
1000
0100
0010
0001
,
1000
0100
0010
0001
1000
0001
0001
1000
,
0010
0100
0001
1000
1000
0001
0001
0100
,
0100
0010
0010
1000
0001
0100
0010
0100
,
0002
0000
1003
0100
0010
0100
0010
0001
,
0000
0001
0100
0010
0100
0010
0100
0010
,
1000
0000
1000
0100
0010
0100
0010
0001
,
0100
0000
0010
1000
0100
0000
0010
0000
,
1001
0000
0100
0001
0100
0000
1000
0001
,
0000
1000
0100
1000
0001
0010
0001
0100
,
0010
1000
0001
0100
0001
0010
0100
1000
,
0001
0000
0000
0000
0010
0000
0000
0000
0110
0000
0000
0100
0000
0000
0110
0000
,
0001
0000
1000
0000
0001
0000
0000
0100
0001
0000
0010
0000
0001
0000
0000
0000
,
1000
0000
0100
0000
0010
0000
0000
0001
1000
0000
0010
0000
0100
0000
0000
0000
,
0100
0000
0001
0000
0010
0000
0000
0100
0001
0000
1000
0000
0100
0000
0000
0000
,
0001
0000
0000
0000
0100
0000
0000
0000
0110
0000
0000
0100
0000
0000
0110
0000
,
0001
0000
1000
0000
0100
0000
0000
0010
0100
0000
0010
0000
0001
0000
0100
0000
,
0010
0000
0100
0000
0001
0000
0000
1000
0100
0000
0010
0000
0001
0000
0100
0000
,
0001
0000
1000
0000
0100
0000
0000
1000
0001
0000
0100
0000
0010
0000
0010
0000
,
0100
0000
0001
0000
1000
0000
0100
0000
0110
0000
0000
0100
0000
0000
0110
0000
,
0001
0000
1000
0100
1000
0000
0001
1000
,
0000
0001
0010
0001
0001
0100
0001
1000
,
0100
0010
0100
1000
0001
0100
0010
1000
,
0001
0000
1000
0100
1000
0000
0001
1000
;
