#TITLE:Year Zero;
#SUBTITLE:;
#ARTIST:Ghost;
#TITLETRANSLIT:;
#SUBTITLETRANSLIT:;
#ARTISTTRANSLIT:;
#GENRE:;
#CREDIT:azureFrights;
#BANNER:Year Zero-bn.png;
#BACKGROUND:Year Zero-bg.png;
#LYRICSPATH:;
#CDTITLE:;
#MUSIC:Year Zero.ogg;
#OFFSET:-0.048000;
#SAMPLESTART:62.999001;
#SAMPLELENGTH:31.475000;
#SELECTABLE:YES;
#BPMS:0.000000=122.000000
;
#STOPS:
;
#BGCHANGES:0.000=Year Zero.avi=1.000=1=0=0=StretchNoLoop==CrossFade==,
99999=-nosongbg-=1.000=0=0=0 // don't automatically add -songbackground-
;
#KEYSOUNDS:;
#ATTACKS:TIME=15.620000:LEN=0.490000:MODS=*4.066 Beat:TIME=17.590000:LEN=0.490000:MODS=*4.066 Beat:TIME=19.559999:LEN=0.490000:MODS=*4.066 Beat:TIME=23.490000:LEN=0.490000:MODS=*4.066 Beat:TIME=25.459999:LEN=0.490000:MODS=*4.066 Beat:TIME=27.420000:LEN=0.490000:MODS=*4.066 Beat:TIME=78.820000:LEN=15.740000:MODS=*0.50 100% Drunk:TIME=94.559998:LEN=15.740000:MODS=*1.00 Beat:TIME=128.000000:LEN=3.930000:MODS=*0.25 25% Drunk:TIME=131.929993:LEN=3.930000:MODS=*0.25 50% Drunk:TIME=135.869995:LEN=3.930000:MODS=*0.25 100% Drunk:TIME=139.800003:LEN=3.930000:MODS=*0.50 150% Drunk;

//---------------dance-single - ----------------
#NOTES:
     dance-single:
     :
     Hard:
     13:
     0.431315,0.424083,0.054770,0.191695,0.020539,441.000000,433.000000,8.000000,28.000000,0.000000,0.000000,0.431315,0.424083,0.054770,0.191695,0.020539,441.000000,433.000000,8.000000,28.000000,0.000000,0.000000:
// measure 0
0000
0000
0000
0000
,  // measure 1
0000
0000
0000
0000
,  // measure 2
0000
0000
0000
0000
,  // measure 3
0000
0000
0000
0000
,  // measure 4
1000
0100
0100
1000
0000
0000
0001
0000
,  // measure 5
0100
0001
0001
0100
0000
0000
0010
0000
,  // measure 6
0100
0001
0001
0010
0100
0100
1000
0100
,  // measure 7
0001
0100
0100
2000
0000
0000
3000
0000
,  // measure 8
1000
0000
0000
0001
0100
0000
0010
0000
0100
0000
0100
0000
0001
0000
1000
0000
,  // measure 9
0001
0000
0000
1000
0100
0000
0010
0000
0100
0000
0100
0000
1000
0000
0001
0000
,  // measure 10
0100
0000
0000
0010
0100
0000
0010
0000
0100
0000
0100
0000
0001
0000
1000
0000
,  // measure 11
0010
1000
0100
0020
0000
0031
0001
0100
,  // measure 12
0010
0000
0000
1000
0010
0000
0100
0000
0010
0000
0010
0000
1000
0000
0001
0000
,  // measure 13
0010
0000
0000
0100
0010
0000
0100
0000
0010
0000
0010
0000
0001
0000
1000
0000
,  // measure 14
0010
0000
0000
0100
0010
0000
0100
0000
0010
0000
0010
0000
1000
0000
0100
0000
,  // measure 15
0010
0001
0100
0020
0030
0100
1001
0000
,  // measure 16
0001
1000
0001
0100
0000
0010
0100
0001
,  // measure 17
0000
1000
0001
0010
0000
0001
0010
0100
,  // measure 18
0000
1000
0010
0100
0000
0001
1000
0001
,  // measure 19
0000
1000
0100
0010
0001
0000
0010
0000
,  // measure 20
0001
0100
0010
0100
0000
0001
0100
0010
,  // measure 21
0000
0010
1000
0001
0000
1000
0100
0010
,  // measure 22
0000
0001
0010
1000
0000
1000
0010
0001
,  // measure 23
0000
1000
0001
0100
0010
0000
0010
0000
,  // measure 24
0100
0001
1000
0100
0000
1000
0001
0010
,  // measure 25
0000
0001
0010
1000
0000
1000
0010
0001
,  // measure 26
0000
1000
0010
0100
0000
0001
0010
0100
,  // measure 27
1000
0001
0100
0001
0101
0000
1100
0000
,  // measure 28
0100
0010
0001
0100
0000
0010
1000
0100
,  // measure 29
0000
0010
0001
1000
0000
0010
0100
0001
,  // measure 30
1000
0100
0010
0001
0000
1000
0001
1000
,  // measure 31
1001
1001
0000
0000
,  // measure 32
0011
0010
0001
0100
,  // measure 33
1010
0010
1000
0100
,  // measure 34
2000
0010
0010
0001
0001
0100
0100
3001
,  // measure 35
0002
0010
0010
1000
1000
0100
0100
1003
,  // measure 36
1000
0000
0010
1000
0001
0100
0010
0100
,  // measure 37
0001
1000
0100
1000
0010
0001
0010
1000
,  // measure 38
0002
0100
0100
0103
0100
0010
1000
0001
,  // measure 39
1000
0100
1000
0100
1000
0100
1000
1000
,  // measure 40
0001
0100
0001
1000
0010
1000
0001
0020
,  // measure 41
0030
0100
1000
0200
0300
1000
0001
1000
,  // measure 42
0020
0000
1030
0000
0200
0300
2000
3000
,  // measure 43
0001
0010
0100
0000
0010
0100
1000
0000
,  // measure 44
0010
0100
0010
1000
0010
0100
0001
2000
,  // measure 45
3000
0001
0010
0200
0000
0300
0000
1000
,  // measure 46
0002
0000
0203
0000
2300
0000
3200
0300
,  // measure 47
0001
0100
0001
0100
0001
0000
1000
0100
,  // measure 48
0010
0001
1000
0000
0010
1000
0001
0020
,  // measure 49
0030
0100
1000
0002
0003
0100
0001
1000
,  // measure 50
0010
1000
0100
0001
1000
0010
0001
2000
,  // measure 51
3000
0001
1000
0010
1000
0100
0100
0000
,  // measure 52
0010
0001
0010
0000
0100
1000
0100
0020
,  // measure 53
0000
0030
0100
2000
3000
0001
0010
0001
,  // measure 54
0100
0001
0010
0000
0100
1000
0010
0000
,  // measure 55
0100
0001
0100
0001
1000
0000
0100
0000
,  // measure 56
0010
0001
0010
0001
0010
0001
0010
0001
,  // measure 57
0100
0100
0000
0000
0000
0000
0000
0000
,  // measure 58
2002
0000
0000
3003
,  // measure 59
0010
0001
0100
0001
0010
0001
0100
0010
,  // measure 60
0010
1000
0100
1000
0010
1000
0100
0010
,  // measure 61
0001
0000
0100
0010
1000
1000
0001
0000
,  // measure 62
0001
0000
0010
0100
1000
1000
0001
0000
,  // measure 63
0001
1000
0200
0000
1300
0001
0200
0000
,  // measure 64
0310
1000
0002
0000
0013
0001
2000
3000
,  // measure 65
0100
0000
1000
0100
0010
0100
1000
0000
,  // measure 66
0001
0000
0010
0001
1000
0001
0010
0000
,  // measure 67
0100
0000
1000
0010
0100
0010
0100
0000
,  // measure 68
0001
0100
0001
0000
0100
0010
0100
0000
,  // measure 69
0010
0000
1000
0010
0100
0001
0100
0000
,  // measure 70
0001
0000
0010
0100
1000
0100
1000
0001
,  // measure 71
0100
0000
0010
0100
1000
0100
0001
0000
,  // measure 72
1000
0100
0010
0001
1000
0100
0010
0001
;

//---------------dance-single - ----------------
#NOTES:
     dance-single:
     :
     Challenge:
     15:
     0.596603,0.723436,0.219081,0.082155,0.215657,610.000000,578.000000,32.000000,12.000000,1.000000,0.000000,0.596603,0.723436,0.219081,0.082155,0.215657,610.000000,578.000000,32.000000,12.000000,1.000000,0.000000:
0000
0000
0000
0000
,
0000
0000
0000
0000
,
0000
0000
0000
0000
,
0000
0000
0000
0000
,
1000
0000
0100
1000
0100
0000
0010
0000
0100
1000
0100
0000
1000
0010
0100
0000
,
0001
0000
0010
0001
0010
0000
0100
0000
0010
0001
0010
0000
0001
0010
0100
0000
,
1000
0000
0010
1000
0010
0000
1000
0000
0010
0100
0001
0000
0010
0100
1000
0000
,
0001
0000
0000
0000
0000
0000
0100
0000
0000
0010
0000
0000
1000
0000
0000
0000
0000
0000
0001
0000
0000
0000
0000
0000
0000
0000
0000
0000
0000
0000
1000
0000
0001
0000
1000
0000
0100
0000
0000
0000
0000
0000
0010
0000
0000
0000
0000
0000
,
0100
0000
1000
0001
0100
0000
0001
0000
0010
0000
0100
0000
1000
0000
1000
0000
,
0100
0000
1000
0001
0100
0000
0001
0000
1000
0000
0010
0000
0100
0000
0001
0000
,
1000
0000
0001
1000
0010
0000
0100
0000
0001
0000
1000
0000
0100
0000
0010
0000
,
0011
0010
0100
0110
0100
1000
1100
1000
,
0001
0000
1000
0001
0100
0000
0010
0000
0100
0000
0001
0000
1000
0000
0010
0000
,
0100
0000
0001
1000
0100
0000
0010
0000
0100
0000
1000
0000
0001
0000
0010
0000
,
0001
0000
1000
0010
0100
0000
0010
0000
0001
0000
0010
0000
1000
0000
0100
0000
,
1100
0100
0010
0011
0000
0001
0100
0001
,
0010
0010
0001
0010
0100
0010
0001
0010
,
0100
1000
0001
1000
0010
1000
0100
0010
,
0001
0010
0100
0010
1000
0010
0001
0100
,
0001
0100
0010
1000
1010
0100
1010
0000
,
0010
1000
0100
0010
0001
0010
0100
0010
,
0001
0100
0001
0100
1000
0100
0001
0010
,
0100
0010
0001
0010
0100
0010
0100
0001
,
0100
1000
0001
0100
0101
0010
0101
0000
,
0001
0000
0100
0010
0100
0000
0001
0000
0100
0010
0100
0000
0010
0000
0100
0000
,
0010
0000
1000
0100
1000
0000
0010
0000
1000
0100
1000
0000
0100
0000
1000
0000
,
0100
0000
0010
0100
0010
0000
0100
0000
0010
0100
0010
0000
0100
0000
0010
0000
,
0001
0000
0100
0001
0100
0000
0001
0000
0101
0000
0010
0000
0101
0000
0000
0000
,
0001
0000
0100
0010
0100
0000
0010
0000
1000
0010
1000
0000
0100
1000
0100
0000
,
1000
0000
0100
1000
0100
0000
1000
0000
0010
0100
0010
0000
0100
0010
1000
0000
,
0001
0000
0010
0001
0010
0000
0001
0000
0010
0000
0100
0000
1000
0000
0001
0000
,
1001
2020
3030
0000
,
1000
0000
0010
1000
0010
0000
1000
0010
0100
0001
0100
0001
1000
0001
1000
0001
,
1000
0000
0100
1000
0100
0000
1000
0100
0010
0001
0010
0001
1000
0100
1000
0100
,
0010
0001
1000
0001
0010
0001
1000
0100
,
0010
0000
0001
0000
0010
0000
0001
0000
0010
0000
0001
0000
0010
0001
0010
0001
,
0100
0000
0010
1000
0010
0000
1000
0010
0100
0001
0100
0001
1000
0001
1000
0001
,
0100
0000
0010
0100
0010
0000
0100
0010
1000
0010
1000
0010
1000
0001
1000
0001
,
0010
0001
0010
0100
1000
0010
1000
0001
,
0101
0100
0110
0100
0110
0010
1010
0010
,
0210
0000
0301
0000
1000
0000
0001
0000
0010
0001
0010
0001
1000
0100
2000
0000
,
0000
3100
1100
0100
0110
0100
0110
0010
,
0001
0100
1000
0100
0001
0100
0010
1000
,
0010
0001
0010
1000
0001
1000
0100
1000
,
0010
1000
0001
0100
0001
1000
0100
0010
,
0001
0010
0100
2000
0100
0000
3100
0000
,
1000
0001
0100
0100
0001
1000
0010
1000
,
0100
0010
0100
0010
0100
0010
0100
0010
,
0001
0100
0001
0001
1000
0001
1000
0020
,
0100
0030
0100
0002
0100
0003
0100
0010
,
1000
0000
0001
0000
0010
0M00
0010
0000
1000
0000
0001
0000
0010
0000
0200
0000
,
1000
0010
0001
0010
,
1300
0001
0010
0010
0001
1000
0010
2000
,
0001
3000
0001
0200
0001
0300
0001
0100
,
0010
1000
0010
0100
0010
0001
0010
0100
,
0010
1000
0010
1000
0010
1000
0010
1000
,
0001
0001
0001
0001
0011
0011
0011
0011
,
0100
0100
0000
0000
0000
0000
0000
0000
,
2002
0000
0000
3003
,
0001
0100
0001
1000
0100
1000
0001
0100
,
0101
0100
0110
0100
0110
0010
1010
1000
,
0001
0010
0100
1000
0100
1000
0001
1000
,
0100
0010
0001
0100
0001
1000
0001
0100
,
0101
0100
0010
1000
0001
0100
0010
1000
,
1100
0000
0100
0000
0010
0000
0100
0000
1000
0000
0001
0000
1000
0100
0000
0000
,
0100
0100
1000
0100
0010
0010
0100
1000
,
0100
0100
0001
0100
0010
0100
0010
0001
,
0010
0001
0100
0010
1000
0100
1000
0010
,
0100
1000
0001
0010
1000
0001
0100
1000
,
0100
0100
0001
1000
0001
0001
1000
0001
,
0100
0100
0010
0001
0010
0010
1000
0100
,
0001
1000
0010
0001
1000
0010
0100
1000
,
0001
0010
1000
0100
0010
0001
1000
0100
;
