#TITLE:Y&Co. is dead or alive;
#SUBTITLE:;
#ARTIST:Y&Co.;
#TITLETRANSLIT:;
#SUBTITLETRANSLIT:;
#ARTISTTRANSLIT:;
#GENRE:;
#CREDIT:pentaxel&Evergreen.;
#MUSIC:Y&Co. is dead or alive.ogg;
#BANNER:;
#BACKGROUND:;
#CDTITLE:;
#SAMPLESTART:25.000;
#SAMPLELENGTH:15.000;
#SELECTABLE:YES;
#OFFSET:0.000;
#BPMS:0.000=165.000
,1.000=145.000
,194.000=153.000
,195.000=154.000
,196.000=163.000
,197.000=167.000
,199.000=175.000
,200.000=178.000
,201.000=181.000
,202.000=188.000
,203.000=194.000
,204.000=204.000
,206.000=218.000
,207.000=221.000
,208.000=240.000
,209.000=246.000
,210.000=268.000
,211.000=265.000
,212.000=290.000
,213.000=294.000
,215.000=300.000
,216.000=325.000
,218.000=375.000
,219.000=350.000
,220.000=392.000
,221.000=420.000
,223.000=388.000
,224.000=510.000
,225.000=468.000
,228.000=540.000
,237.000=694.000
,239.000=822.000
,243.000=840.000
,245.000=876.000
,289.000=145.000
,290.000=72.500
,290.500=36.250
,291.000=145.000
;
#STOPS:;
#BGCHANGES:;
#FGCHANGES:;

//--------------- dance-single - ----------------
#NOTES:
     dance-single:
     :
     Easy:
     11:
     0,0,0,0,0:
0000
0000
0000
0000
,
0000
0000
0000
0000
,
0000
0000
1000
0001
0010
0000
0001
1000
,
0010
0000
0100
0100
0001
0000
0010
0100
,
1000
0000
0001
0000
1000
0000
0100
0000
0010
0000
0000
0001
0000
0000
1000
0000
,
0010
0000
0000
0000
1000
0000
0010
0000
0100
0000
0000
0001
0000
0000
1000
0000
,
0100
0000
0000
0000
1000
0000
0100
0000
0010
0000
0000
0001
0000
0000
1000
0000
,
0001
0000
1000
0100
1000
0000
0001
0100
,
0001
0000
0010
0000
0001
0000
0100
0000
0010
0000
0000
1000
0000
0000
0001
0000
,
0010
0000
0000
0000
0001
0000
0010
0000
0100
0000
0000
1000
0000
0000
0001
0000
,
0100
0000
0000
0000
0001
0000
0100
0000
0010
0000
0000
1000
0000
0000
0001
0000
,
1000
0000
0001
0100
0001
0000
1000
0100
,
1000
0010
0200
0000
0302
0000
1003
0100
,
1000
0000
0002
0000
0023
0000
0130
1000
,
0100
1000
0020
0000
0230
0000
0301
0100
,
0001
0000
2000
0000
3020
0000
0130
0001
,
1000
0100
0020
0000
0032
0000
1003
0010
,
1000
0000
0002
0000
0203
0000
0310
1000
,
0010
1000
0200
0000
0320
0000
0031
0010
,
0001
0000
2000
0000
3200
0000
0310
0001
,
1000
0010
0100
0001
0100
0000
0001
1000
,
0001
0000
1000
0100
1000
0000
0001
0010
,
0100
1000
0001
0100
0001
0000
1000
0100
,
1000
0000
0010
0100
0001
0000
0010
0100
,
1000
0001
1000
0000
0001
0000
1000
0000
,
0001
0000
0100
0000
0010
0100
0000
0001
,
1000
0000
0100
0010
0000
0001
1000
0000
,
0010
0100
0000
0001
1000
0000
0100
0010
,
0001
1000
0010
0100
0010
1000
0001
0000
,
0001
0000
0010
0100
0010
0001
1000
0001
,
1000
0000
0010
0100
0001
1000
0100
0010
,
0001
0000
0010
0100
1000
0100
0010
0100
,
1000
0001
0020
0000
0000
0000
0000
0000
,
0000
0230
0000
0000
,
0000
2300
0000
0000
,
0000
3002
0000
0000
,
0000
0000
1003
0010
1000
0000
0010
0100
,
0001
0000
0010
0001
0010
0000
0100
1000
,
0001
0000
1000
0100
0010
0000
0001
0100
,
0010
2000
0000
0000
,
0000
0000
3001
0000
0100
0000
0001
0010
,
0001
0000
1000
0000
0010
0000
1000
0100
,
1000
0000
0010
0000
0100
0000
0001
1000
,
0001
0000
0010
0000
0100
0000
1000
0100
,
0010
0001
1000
0000
0010
0000
0100
0010
,
1000
0000
0001
0000
0010
0000
0100
0010
,
0001
0000
0000
0000
1000
0000
0000
0010
0000
0000
1000
0000
0001
0000
0000
0010
,
0000
0001
1000
0100
0010
0001
1000
0001
,
1000
2002
0000
0000
,
0000
0000
0000
0000
,
0000
0000
0000
0000
,
0000
0000
0000
0000
,
0000
0000
0000
0000
,
0000
0000
0000
0000
,
0000
0000
0000
0000
,
0000
0000
0000
0000
,
0000
0000
0000
0000
,
0000
0000
0000
0000
,
0000
0000
0000
0000
,
0000
0000
0000
0000
,
0000
0000
0000
0000
,
0000
0000
0000
0000
,
0000
0000
0000
0000
,
0000
0000
0000
0000
,
0000
0000
0000
0000
,
0000
0000
0000
0000
,
0000
0000
0000
0000
,
0000
0000
0000
0000
,
0000
0000
0000
0000
,
0000
0000
0000
0000
,
0000
0000
0000
0000
,
0000
0000
0000
0000
,
0000
0000
0000
0000
0000
0000
0000
0000
3003
0000
0000
1000
0001
0000
0100
0000
,
0010
0000
0000
1000
0000
0000
0001
0000
0010
0000
0000
0000
0001
0000
0010
0000
,
0100
0000
0000
1000
0000
0000
0001
0000
0100
0000
0000
0000
0001
0000
0100
0000
,
0010
0000
0000
1000
0000
0000
0001
0000
1000
0000
0000
0000
0001
0000
0100
0000
,
0001
0000
1000
0100
1000
0010
1000
0001
,
0100
0001
1000
0100
0010
0001
1000
0010
,
1000
0001
0010
0100
1000
0001
1000
0010
,
1000
0001
0010
0001
1000
0100
0010
0000
,
0001
0000
1000
0000
0010
0000
0100
0001
,
0100
0000
0001
1000
0001
0000
1000
0100
,
1000
0000
0010
0100
0010
0000
1000
0100
,
1000
0000
0001
1000
0001
0000
0100
0001
,
0100
0000
0010
0100
0010
1000
0100
0010
,
0001
1000
0100
1000
0001
0100
0010
1000
,
0001
0100
0010
0100
0001
1000
0100
0010
,
0100
0010
1000
0001
1000
0001
1000
0000
,
0000
0000
0000
0000
0000
0000
0000
0000
0000
0000
0000
2002
0000
0000
3003
0000
;

//--------------- dance-single - ----------------
#NOTES:
     dance-single:
     :
     Medium:
     14:
     0,0,0,0,0:
0000
0000
0000
0000
,
0000
0000
0000
0000
,
0000
0000
0000
0000
1000
0000
0010
0000
1000
0000
0010
1000
0000
0001
0010
0000
,
0001
0000
0000
0000
0010
0000
0100
0000
1000
0000
0001
1000
0010
0000
0100
0000
,
0001
0000
1000
0001
1000
0000
0100
0000
0010
0000
0001
0010
0000
0010
0001
0000
,
1000
0000
0000
0000
0001
0000
0100
0000
0010
0000
1000
0010
0000
0010
1000
0000
,
0001
0000
0000
0000
1000
0000
0010
0000
0100
0000
0001
0100
0000
0100
0001
0000
,
1000
0000
0000
0000
0001
0000
0010
0000
0100
0000
1000
0100
0000
0100
1000
0000
,
0001
0000
0200
0000
0310
0000
0100
0000
0001
0000
0010
0100
0000
0100
1000
0000
,
0001
0000
0000
0000
0010
0000
0100
0000
1000
0000
0010
0100
0000
0100
0001
0000
,
1000
0000
0000
0000
0010
0000
0100
0000
0001
0000
0010
0100
0000
1000
0001
0000
,
1000
0000
0000
0000
0001
0000
0010
0001
1000
0000
0010
0100
0001
0000
0010
0100
,
1000
0000
0001
0000
2000
0000
0000
0020
3000
0000
0200
0030
0301
0000
0100
0000
,
0001
0000
0000
0000
0020
0000
0000
0230
0000
0000
2300
0000
3001
0000
1000
0000
,
0001
0000
0000
0000
2000
0000
0000
3002
0000
0000
0203
0000
0301
0000
0010
0000
,
0100
0000
0000
0000
2000
0000
0000
3020
0000
0000
0230
0000
0301
0000
1000
0000
,
0001
0000
0020
0000
0230
0000
0000
2300
0000
0000
3002
0000
0103
0000
1000
0000
,
0100
0000
0001
0000
2000
0000
0000
3200
0000
0000
0320
0000
0031
0000
0010
0000
,
1000
0000
0010
0000
0002
0000
0000
2003
0000
0000
3020
0000
0130
0000
0001
0000
,
0010
0000
0100
0000
1000
0000
0001
0100
0001
0000
1000
0000
0010
0100
0001
0000
,
0010
0100
1000
0000
0001
0000
0010
0001
0010
0000
0100
0000
1000
0000
0010
1000
,
0010
1000
0010
0000
1000
0000
0010
1000
0010
0000
0100
0001
0100
0000
0001
0010
,
0001
0010
0001
0000
1000
0000
0010
1000
0010
0000
0100
0000
0001
0000
0010
0001
,
0010
0001
0010
0000
0001
0010
0100
0000
1000
0000
0010
0000
0100
0001
0100
0001
,
1000
0001
1000
0001
1000
0000
0000
0010
0000
0000
0100
0000
0001
0000
1000
0000
,
0001
0000
0010
0100
1000
0100
1000
0001
,
1000
0001
0100
0001
0100
0010
0100
0010
,
1000
0010
1000
0001
1000
0001
0010
0001
,
0010
0000
0100
1000
0001
0000
0100
0001
1000
0000
0100
0020
0000
0000
0001
0000
,
0031
0000
1000
0000
1000
0000
0100
1000
0001
0000
0100
0020
0000
1030
0010
0000
,
1000
0000
0001
0000
0001
0000
0010
0001
1000
0000
0010
0200
0000
0000
0001
0000
,
0301
0000
1000
0000
1000
0000
0100
0010
0001
0000
0100
0010
1000
0000
0001
0100
,
0001
1000
0100
1000
0002
0000
0000
0000
0000
0000
0000
0000
0000
0000
0000
0000
,
0000
2003
0000
0000
,
0000
3200
0000
0000
,
0000
0320
0000
0000
,
0000
0000
0031
0000
1000
0000
0010
0000
0100
0000
0001
0010
0001
0000
1000
0000
,
0001
0000
0000
0000
1000
0000
0010
0000
0100
0000
0001
0010
0001
0000
0010
0000
,
0100
1000
0000
1000
0001
0000
0010
0000
0100
0000
1000
0010
1000
0000
0001
0000
,
1000
0002
0000
0000
,
0000
0000
1003
0000
0010
0100
0001
0000
0010
0000
1000
0000
0010
0000
0001
0000
,
1001
0000
0000
0000
1000
0100
1000
0000
0001
0000
0000
0000
0001
0100
0001
0000
,
1000
0000
1000
0010
0001
0010
1000
0100
,
1000
0000
0001
0010
0001
0000
1000
0000
0010
0000
1000
0010
1000
0000
0001
0000
,
0010
0000
0100
1000
0001
0000
0100
0000
0001
0000
0010
0000
0100
0000
1000
0000
,
1100
0000
1000
0010
0100
0001
0010
0001
,
0011
0000
0000
0000
0001
0010
0000
0001
0000
0000
0000
0000
1000
0010
0000
1000
,
0000
0000
0000
0000
0001
0000
0010
0000
0100
0000
1000
0000
0001
0100
0010
1000
,
0001
1000
2002
0000
0000
0000
0000
0000
,
0000
0000
0000
0000
,
0000
0000
0000
0000
,
0000
0000
0000
0000
,
0000
0000
0000
0000
,
0000
0000
0000
0000
,
0000
0000
0000
0000
,
0000
0000
0000
0000
,
0000
0000
0000
0000
,
0000
0000
0000
0000
,
0000
0000
0000
0000
,
0000
0000
0000
0000
,
0000
0000
0000
0000
,
0000
0000
0000
0000
,
0000
0000
0000
0000
,
0000
0000
0000
0000
,
0000
0000
0000
0000
,
0000
0000
0000
0000
,
0000
0000
0000
0000
,
0000
0000
0000
0000
,
0000
0000
0000
0000
,
0000
0000
0000
0000
,
0000
0000
0000
0000
,
0000
0000
0000
0000
,
0000
0000
0000
0000
3003
0000
0000
0000
0000
0000
2000
3002
1003
0000
0010
0000
,
0100
0000
0001
0100
0000
0100
0001
0000
1000
0000
0000
0000
0001
0000
0010
0000
,
0100
0000
1000
0100
0000
0100
1000
0000
0001
0000
0000
0000
1000
0000
0100
0000
,
0010
0000
0001
0010
0000
0010
0001
0000
1000
0000
0000
0000
0001
0000
0100
0000
,
0010
0000
1000
0010
0000
0010
1000
0000
0001
0000
0020
0000
0130
0010
0001
0000
,
1000
0000
0010
0100
0001
0000
1000
0000
0001
0010
0100
1000
0001
0000
1000
0010
,
0100
0000
0001
0000
1000
0100
0010
0001
1000
0000
0001
0010
0001
0010
0001
0000
,
1000
0000
0010
0100
0001
1000
0100
0010
0001
0000
1000
0000
0001
0000
0010
0000
,
0100
0000
0000
0000
1000
0000
0010
0000
0100
0001
0100
0000
0001
0000
0010
0000
,
0100
0000
1000
0010
M000
0010
0001
0000
1000
0100
0010
0100
1000
0000
0010
0000
,
0100
0000
0001
0010
000M
0010
1000
0000
0001
0100
0010
0100
0001
0000
0010
0000
,
0100
0000
1000
0001
0000
0001
1000
0000
0001
0000
1000
0010
0100
0000
0001
0000
,
1000
0000
0001
0010
0000
0010
0100
1000
0010
0100
0001
0000
1000
0010
1000
0000
,
0001
0000
1000
0100
1000
0000
0001
0000
1000
0010
0100
0001
1000
0000
0001
0100
,
0001
0000
1000
0000
0001
0010
0001
0000
1000
0000
0010
0000
0100
1000
0100
0000
,
0010
0000
1000
0000
0100
0001
0100
0000
1000
0000
0001
0000
2000
0000
3000
0000
,
0000
0000
0000
0000
0000
0000
0000
0000
0000
0000
0000
2002
0000
0000
3003
0000
;

//--------------- dance-single - ----------------
#NOTES:
     dance-single:
     :
     Hard:
     16:
     0,0,0,0,0:
0000
0000
0000
0000
,
0000
0000
0000
0000
,
0000
0000
0000
0000
0001
0000
1000
0100
0010
0000
0001
0100
0010
1000
0000
0001
,
0010
0000
0001
0010
0001
0000
0001
1000
0001
0000
1000
0100
1000
0010
1000
0010
,
0100
0001
0010
0100
1000
0000
0010
0000
0100
0000
0001
0010
000M
0010
1000
0000
,
0001
1000
0001
0000
1000
0000
0100
0000
0010
0000
0001
0100
000M
0100
1000
0000
,
0001
1000
0001
0000
1000
0000
0010
0000
0100
0000
0001
0010
000M
0010
1000
0000
,
0001
1000
0001
1000
0001
0000
0010
0000
0100
0000
1000
0010
1000
0000
0001
0010
,
0100
0010
0001
1000
0001
0000
0010
0000
0100
0000
1000
0010
M000
0010
0001
0000
,
1000
0001
1000
0000
0001
0000
0100
0000
0010
0000
1000
0100
M000
0100
0001
0000
,
1000
0001
1000
0000
0001
0000
0010
0000
0100
0000
1000
0010
M000
0010
0001
0000
,
1000
0001
1000
0001
2000
0000
3020
0000
0230
0000
0301
0010
0200
0000
2300
0000
,
3001
0100
0010
1000
0002
0000
0000
0023
0000
0000
2030
0000
3020
0000
0032
0000
,
1003
0000
0001
0000
2000
0000
0000
3020
0000
0000
0032
0000
0023
0000
2030
0000
,
3001
0000
1000
0100
0020
0000
0000
2030
0000
0000
3020
0000
0032
0000
2003
0000
,
3020
0000
0230
0000
0320
0000
0000
0032
0000
0000
0023
0000
2030
0000
3020
0000
,
2030
0000
3001
1000
0200
0000
0000
0302
0000
0000
0203
0000
2300
0000
3002
0000
,
0203
0000
0320
0000
0230
0000
0000
2300
0000
0000
3200
0000
0302
0000
0023
0000
,
0032
0000
0013
0100
2000
0000
0000
3020
0000
0000
0230
0000
2300
0000
3200
0000
,
0320
0000
1030
0000
0200
0000
0000
0302
0000
0000
0203
0000
0320
0000
0031
1000
,
0001
0000
1000
0010
0100
0000
0001
0010
0100
0001
0100
1000
0000
0010
0100
0001
,
1000
0100
1000
0010
0100
0000
0001
0010
0001
0100
1000
0100
0010
1000
0001
0010
,
0100
0001
0100
0010
0001
0000
1000
0010
0100
1000
0100
0001
0000
0010
0100
1000
,
0001
0100
0001
0010
0100
0000
1000
0010
1000
0100
0001
0100
0010
0001
1000
0010
,
1000
0010
0100
0001
1000
0000
0000
0100
0010
0000
0001
0000
1000
0000
0010
0000
,
0100
0010
2000
3010
0100
0002
0010
1003
,
0002
0013
0100
2000
0010
3001
0200
0310
,
1000
0002
0100
1003
0200
0310
0001
1000
,
0001
1000
0001
1000
0001
0000
1000
0100
0010
0000
0001
0100
0000
0000
0010
0000
,
0M10
0000
0001
0000
1000
0000
0001
0100
0010
0000
1000
0100
0000
1000
0010
0000
,
0M10
0000
0001
0000
1000
0000
0001
0100
0010
0000
1000
0100
0000
0000
0010
0000
,
0M10
0000
1000
0000
0001
0000
0010
0100
1000
0000
0010
0100
0001
1000
0010
0100
,
0001
0010
0100
1000
0002
0000
0000
0000
0000
0000
0000
0000
0000
0000
0000
0000
,
0000
2003
0000
0000
,
0000
3200
0000
0000
,
0000
0320
0000
0000
,
0030
0000
0001
0000
1000
0000
0010
0100
0001
1000
0000
0010
1000
0000
0010
0100
,
0000
0010
1000
0001
0010
0000
0001
0010
0100
0010
0000
0001
0010
0000
0100
0010
,
0000
0001
0010
0001
0100
0000
0010
1000
0001
1000
0000
0001
0010
0000
0001
1000
,
0000
0001
1000
0020
2000
0000
0000
0000
0000
0000
0000
0000
0000
0000
0000
0000
,
3030
0000
0010
0000
1000
0000
0100
0000
0010
0000
0001
1000
0010
0100
0001
0000
,
2000
0000
3000
0000
0001
0100
0001
0000
0020
0000
0000
0030
0001
0100
0000
0010
,
0000
1000
0010
0100
0001
0000
0010
0001
1000
0000
0001
0000
1000
0000
0010
1000
,
0001
0000
0010
0001
0100
0000
0010
1000
0010
0000
1000
0100
1000
0000
0001
0100
,
0001
1000
0100
M100
0001
0000
0010
0001
0100
0000
0010
0000
0100
0001
1000
0100
,
0020
0000
0000
0030
0100
0000
0010
0001
1000
0000
0010
1000
0010
0100
0001
0010
,
0200
0000
1300
0000
0001
1000
0000
1100
0000
0000
0010
0000
1000
0001
0000
0101
,
0000
0000
0001
0010
0100
0000
1000
0000
1001
0000
0001
0100
0010
1000
0100
0010
,
0001
1000
0001
1000
0001
0000
0000
0000
1000
0000
0000
0000
0001
0000
0000
0000
,
1000
0001
1000
0001
,
1000
0001
1000
0001
,
1000
0001
1000
0000
,
0001
1000
0001
1000
,
0001
2000
0002
0000
,
0000
0000
0000
0000
,
0000
0000
0000
0000
,
0000
0000
0000
0000
,
0000
0000
0000
0000
,
0000
0000
0000
0000
,
0000
0000
0000
0000
,
0000
0000
0000
0000
,
0000
0000
0000
0000
,
0000
0000
0000
0000
,
0000
0000
0000
0000
,
0000
0000
0000
0000
,
0000
0000
0000
0000
,
0000
0000
0000
0000
,
0000
0000
0000
0000
,
0000
0000
0000
0000
,
0000
0000
0000
0000
,
0000
0000
0000
0000
,
0000
0000
0000
0000
,
0000
0000
0000
0000
3003
0000
0000
0000
0000
0000
0200
0302
1003
0000
0010
0100
,
0001
0000
1000
0010
000M
0010
0100
0000
1000
0001
1000
0000
0001
0000
0100
0010
,
1000
0000
0001
0010
000M
0010
0100
0000
0001
1000
0001
0000
1000
0000
0010
0100
,
0010
0000
1000
0100
000M
0100
0010
0000
1000
0010
0100
0001
1000
0000
0100
0010
,
0001
0000
1000
0000
0001
0010
0100
1000
0010
0100
0002
1003
0001
0010
0100
1000
,
0010
0100
0001
1000
0001
0100
1000
0000
0100
0001
1000
0100
1000
0010
0100
0001
,
0010
0100
1000
0010
0100
0001
1000
0001
0010
0001
1000
0010
1000
0100
0010
0001
,
0100
0010
1000
0100
0001
0000
0100
1000
0010
0100
0001
1000
0100
1000
0001
0100
,
0010
0000
1000
0010
1000
0000
0001
0010
0100
1000
0001
0100
0010
0000
1000
0000
,
0100
0000
1000
0001
0100
010M
1000
0001
0100
0000
0001
0000
0010
0000
0001
0000
,
0100
0000
0001
1000
0100
M100
0001
1000
0100
0000
1000
0001
0010
0000
0100
0000
,
1000
0000
0100
1000
0010
M010
0001
0100
0001
0000
1000
0000
0010
0000
0100
0000
,
0001
0000
0100
0001
0010
001M
1000
0001
0100
0000
0010
1000
0001
0010
0001
1000
,
0100
1000
0001
0100
0001
1000
0100
1000
0001
0100
0010
1000
0001
0010
0100
1000
,
0001
0100
0010
0100
0001
1000
0100
0010
0100
1000
0001
0100
0010
1000
0010
1000
,
0001
0100
0001
0100
0001
0010
0001
0010
0100
1000
0100
1000
0001
0000
0000
0000
,
0000
0000
0000
0000
0000
0000
0000
0000
0000
0000
0000
2002
0000
0000
0000
3003
;

//--------------- dance-single - ----------------
#NOTES:
     dance-single:
     :
     Challenge:
     17:
     0,0,0,0,0:
0000
0000
0000
0000
,
0000
0000
0000
0000
,
0000
0000
0000
0000
1000
0100
M100
0001
1000
0000
0001
0100
0010
1000
0100
M100
,
0001
0000
1000
0100
1000
0010
1000
0001
0010
0000
0001
0010
0000
0100
1000
0001
,
0100
0010
1000
0010
1000
0001
0010
0100
1000
0000
1000
0010
0000
M010
0001
0100
,
0010
1000
0100
0010
0001
1000
0010
0100
0001
0000
0001
0010
0000
001M
1000
0100
,
0010
0001
0100
0010
1000
0001
1000
0100
1000
0000
1000
0010
0000
M010
0001
1000
,
0100
0010
0001
1000
0010
0100
0001
1000
0100
0000
M100
0001
1000
0010
0100
0010
,
1000
0000
0000
0001
0000
0000
1000
0000
0001
0000
1000
0000
0001
0000
0000
1000
0000
0000
0010
0000
0000
0100
0000
0000
0001
0000
0000
0000
0000
0000
0001
0000
0000
0010
0000
0000
0000
0000
0000
001M
0000
0000
1000
0000
0000
0100
0000
0000
,
0010
0001
0100
0010
0100
0001
0010
0100
1000
0000
1000
0010
0000
M010
0001
0100
,
0010
1000
0100
0010
0100
1000
0001
0100
0001
0000
0001
0010
0000
001M
1000
0001
,
0100
0000
0000
0010
0000
0000
1000
0000
0000
0001
0000
0000
0020
0000
0000
0000
0000
0000
0230
0000
0000
0000
0000
0000
2300
0000
0000
0000
0000
0000
3002
0000
0000
0000
0000
0000
0203
0000
0000
0000
0000
0000
0310
0000
1000
0000
0001
0000
,
0010
0100
1000
0001
0200
0000
0000
0310
0100
0000
0002
0000
0023
0000
2030
0000
,
3002
0000
0103
0000
0200
0000
0000
0310
0100
0000
2000
0000
3020
0000
0032
0000
,
2003
0000
3100
0000
0020
0000
0000
0130
0010
0000
2000
0000
3200
0000
0302
0000
,
2003
0000
3010
0000
0020
0000
0000
0130
0010
0000
0002
0000
0203
0000
2300
0000
,
3002
0000
0013
0000
2000
0000
3010
0100
1000
0000
0200
0000
0302
0000
0023
0000
,
2030
0000
3010
0000
0002
0000
0013
0100
1000
0000
0002
0000
0203
0000
2300
0000
,
3200
0000
0320
0000
2030
0000
3001
0100
0010
0000
0002
0000
0023
0000
0230
0000
,
0302
0000
0000
0000
0000
0000
1003
0000
0000
0000
0000
0000
0010
0000
0000
0000
0000
0000
1000
0000
0000
0100
0000
0000
0010
0000
0000
0000
0000
0000
0001
0000
0000
0100
0000
0000
0010
0000
0000
0100
0000
0000
0001
0000
1000
0000
0001
0000
,
1000
0000
0100
0000
0010
0000
0100
0000
1000
0000
0000
0000
0010
0000
0100
0000
0001
0000
1000
0000
0100
0000
0010
0000
0000
0000
0001
0000
1000
0000
0001
1000
,
0001
0100
0010
1000
0100
1000
0010
0100
0001
0010
0100
0001
0100
1000
0010
0100
,
0001
1000
0010
1000
0001
0100
0010
0100
1000
0100
0001
1000
0100
0010
0001
1000
,
0010
0000
1000
0000
0100
0000
0010
0001
0010
0000
0100
0000
1000
0000
0010
0000
0100
0000
0001
0000
1000
0000
0100
0000
0010
0000
0001
1000
0001
0000
1000
0000
,
0001
1000
0001
1000
0001
0000
0000
0010
0100
0000
0010
0000
0001
0000
0100
0000
,
0010
1000
0002
0010
1003
0020
0100
1030
,
0200
0000
0010
0000
1300
0000
0002
0000
0100
0000
1003
0001
2000
0000
0010
0000
,
3001
0020
0100
0031
0200
0010
0301
2000
,
0010
0000
3001
0010
0001
1000
0010
0100
0001
0000
1000
0010
0000
1000
0010
0000
,
1000
0100
M100
0001
1000
0001
0010
0100
1000
0000
0001
0100
0000
0001
0100
0000
,
0001
0010
001M
1000
0001
0100
0010
1000
0001
0000
1000
0100
0000
1000
0100
0000
,
1000
0010
M010
0001
1000
0000
0001
0100
0001
0000
1000
0100
1000
0001
0010
0001
,
1000
0010
1000
0001
0010
0000
0100
0000
0010
0100
0000
0010
0100
0000
0010
0100
,
0000
0010
0100
0000
1000
0000
0001
0000
1000
0001
0000
1000
0001
0000
1000
0001
,
0000
1000
0001
0001
0010
0000
0100
0000
0010
1000
0000
0010
1000
0000
0010
1000
,
0000
0010
0100
0000
1000
0000
0001
0000
0100
1000
0000
0100
1000
0000
0100
1000
,
0000
0100
0010
0100
0001
0000
0010
0100
1000
0001
0000
0010
0001
0000
0010
0100
,
0000
0010
1000
0010
0001
0000
1000
0010
0100
0010
0000
0001
0010
0000
0100
0010
,
0000
1000
0010
1000
0100
0000
0010
0001
1000
0001
0000
1000
0010
0000
0001
0010
,
0000
1000
0001
0020
0002
0000
0000
0000
0000
0000
0000
0000
0000
0000
0000
0000
,
0033
0000
0010
0000
1001
0000
0100
0000
1001
0000
0001
0010
0100
0010
0001
0000
,
2020
0000
3030
0000
0100
0000
1000
0000
0202
0000
0303
0000
0001
0100
0001
0010
,
0100
1000
0010
0000
2000
0000
0100
3000
0002
0000
0100
0003
0010
1000
0001
0000
,
1000
0000
0020
0000
0030
0000
1000
0010
0100
0000
1000
0100
0001
0000
0010
0100
,
1000
0001
0100
010M
1000
0000
0010
1000
0100
0000
0010
0000
0100
1000
0001
0100
,
2000
0000
0000
3000
0100
0000
0010
1000
0001
0000
0010
1000
0010
0001
1000
0100
,
0002
0000
0103
0000
1000
0001
0000
0101
0000
0000
0010
0000
0001
1000
0000
1100
,
0000
0000
0000
0000
0000
0000
1000
0000
0000
0010
0000
0000
0100
0000
0000
0000
0000
0000
0001
0000
0000
0000
0000
0000
1001
0000
0000
0000
0000
0000
1000
0000
0000
0100
0000
0000
0010
0000
0000
0001
0000
0000
0100
0000
0010
0000
0100
0000
,
0010
1000
0001
1000
0001
0000
0000
0000
1000
0000
0000
0000
0001
0000
0000
0000
,
1000
0001
1000
0001
,
1000
0001
1000
0001
,
1000
0001
1000
0001
,
1000
0001
1000
0001
,
1000
0001
1000
0001
,
1000
0001
1000
0001
,
1000
0001
1000
0001
,
1000
0001
1000
0001
,
1000
0001
1000
0001
,
1000
0001
1000
0002
,
2000
0000
0000
0000
,
0000
0000
0000
0000
,
0000
0000
0000
0000
,
0000
0000
0000
0000
,
0000
0000
0000
0000
,
0000
0000
0000
0000
,
0000
0000
0000
0000
,
0000
0000
0000
0000
,
0000
0000
0000
0000
,
0000
0000
0000
0000
,
0000
0000
0000
0000
,
0000
0000
0000
0000
,
0000
0000
0000
0000
,
0000
0000
0000
3003
0000
0000
0000
0000
0000
0000
0200
2300
3001
1000
0010
0100
,
0001
0000
0001
0010
0000
001M
1000
0100
0010
0001
0100
1000
0100
0001
0010
0100
,
1000
0000
1000
0010
0000
M010
0001
0100
0010
1000
0100
0001
0100
1000
0001
0100
,
0001
0000
0001
0010
0000
001M
1000
0001
0100
0010
1000
0001
0010
0100
1000
0001
,
0100
0000
0000
0000
0000
0000
010M
0000
0000
1000
0000
0000
0001
0000
0000
0010
0000
0000
0100
0000
0000
0010
0000
0000
0001
0000
0000
1000
0000
0000
0001
0000
1000
0000
0001
0000
1000
0000
0000
0100
0000
0000
M100
0000
0000
0001
0000
0000
,
0100
010M
1000
0001
0100
0010
0001
0010
0100
0001
1000
0001
1000
0010
M010
0001
,
0010
001M
1000
0001
0010
0100
0010
1000
0010
0100
0010
0001
1000
0100
M100
0001
,
0010
001M
1000
0010
M010
0001
0100
010M
1000
0001
0010
0001
1000
0010
1000
0010
,
1000
0000
0000
0000
0000
0000
0001
0000
0000
0010
0000
0000
0001
0000
0000
1000
0000
0000
0010
0000
0100
0000
0001
0000
1000
0000
0000
0001
0000
0000
0010
0000
0000
0100
0000
0000
1000
0000
0000
0010
0000
0000
1000
0000
0000
0010
0000
0000
,
0002
0003
0000
0000
00M0
0000
0000
0000
0002
0003
0000
0000
0100
0000
0000
0000
1000
0000
0000
0000
0100
0000
0000
0000
0010
0000
0000
0000
1000
0000
0000
0000
0002
0000
0000
0000
0000
0000
0000
0000
0013
0000
0000
0000
0000
0000
0000
0000
0001
0000
0000
0000
0010
0000
0000
0000
0001
0000
0000
0000
0010
0000
0000
0000
,
2000
3000
0000
0000
0M00
0000
0000
0000
2000
3000
0000
0000
0100
0000
0000
0000
0001
0000
0000
0000
0100
0000
0000
0000
0010
0000
0000
0000
0001
0000
0000
0000
0200
0000
0000
0000
0000
0000
0000
0000
0310
0000
0000
0000
0000
0000
0000
0000
0010
0000
0000
0000
1000
0000
0000
0000
0100
0000
0000
0000
0010
0000
0000
0000
,
2000
3000
0000
0000
0M00
0000
0000
0000
2000
3000
0000
0000
0100
0000
0000
0000
0001
0000
0000
0000
1000
0000
0000
0000
0010
0000
0000
0000
0100
0000
0000
0000
2000
0000
0000
0000
0000
0000
0000
0000
3001
0000
0000
0000
0000
0000
0000
0000
1000
0000
0000
0000
0100
0000
0000
0000
1000
0000
0000
0000
0010
0000
0000
0000
,
0002
0003
0000
0000
00M0
0000
0000
0000
0002
0003
0000
0000
0100
0000
0000
0000
1000
0000
0000
0000
0001
0000
0000
0000
0010
0000
0000
0000
0100
0000
0000
0000
0002
0000
0000
0000
0000
0000
0000
0000
1003
0000
0000
0000
0000
0000
0000
0000
0001
0000
0000
0000
0010
0000
0000
0000
0001
0000
0000
0000
0010
0000
0000
0000
,
1000
0010
0001
0100
0001
0100
1000
0100
0010
1000
0010
1000
0001
0010
1000
0010
,
1000
0010
0001
1000
0100
0001
0100
0001
0100
1000
0010
0001
0010
1000
0100
M100
,
0001
0010
001M
1000
0001
0100
010M
1000
0010
M010
0100
1000
0001
0000
0000
0000
,
0000
0000
0000
0000
0000
0000
0000
0000
0000
0000
0000
2002
0000
0000
0000
0000
,
0000
3003
0000
0000
0000
0000
0000
0000
0000
0000
0000
0000
0000
0000
0000
0000
;
