#VERSION:0.83;
#TITLE:Work;
#SUBTITLE:;
#ARTIST:Pop Evil;
#TITLETRANSLIT:;
#SUBTITLETRANSLIT:;
#ARTISTTRANSLIT:;
#GENRE:Evil Pop;
#ORIGIN:;
#CREDIT:jenro & BlindedVanguard573;
#BANNER:Work-bn.png;
#BACKGROUND:Work-bg.png;
#PREVIEWVID:;
#JACKET:Work-jacket.jpg;
#CDIMAGE:;
#DISCIMAGE:;
#LYRICSPATH:;
#CDTITLE:;
#MUSIC:Work.ogg;
#OFFSET:-0.195000;
#SAMPLESTART:68.321999;
#SAMPLELENGTH:16.312000;
#SELECTABLE:YES;
#DISPLAYBPM:63.000000:126.000000;
#BPMS:0.000=62.510,
12.000=125.059,
16.000=62.530,
66.000=125.059,
78.000=62.530,
80.000=125.059,
96.000=250.118,
98.000=125.059,
145.000=250.118,
153.000=62.529;
#STOPS:;
#DELAYS:;
#WARPS:;
#TIMESIGNATURES:0.000=4=4;
#TICKCOUNTS:0.000=4;
#COMBOS:0.000=1;
#SPEEDS:0.000=1.000=0.000=0;
#SCROLLS:0.000=1.000;
#FAKES:;
#LABELS:0.000=Song Start;
#BGCHANGES:-0.195=Work-bg.mp4=1.000=0=0=0=StretchNoLoop====,
99999=-nosongbg-=1.000=0=0=0 // don't automatically add -songbackground-
;
#KEYSOUNDS:;
#ATTACKS:
;

//---------------dance-single - jenro & BlindedVanguard573----------------
#NOTEDATA:;
#CHARTNAME:jenro & BlindedVanguard573;
#STEPSTYPE:dance-single;
#DESCRIPTION:jenro & BlindedVanguard573;
#CHARTSTYLE:;
#DIFFICULTY:Beginner;
#METER:3;
#RADARVALUES:0.108010,0.160425,0.019141,0.000000,0.000000,79.000000,77.000000,2.000000,0.000000,0.000000,0.000000,0.000000,0.000000,0.000000,0.108010,0.160425,0.019141,0.000000,0.000000,79.000000,77.000000,2.000000,0.000000,0.000000,0.000000,0.000000,0.000000,0.000000;
#CREDIT:jenro & BlindedVanguard573;
#DISPLAYBPM:63.000000:126.000000;
#NOTES:
// measure 0
0000
0000
0000
0000
,  // measure 1
0000
0000
0000
0000
,  // measure 2
0010
0000
0100
0000
,  // measure 3
1000
0000
0000
0000
,  // measure 4
0001
0000
1000
0000
,  // measure 5
0010
0000
0100
0000
,  // measure 6
0001
0000
0100
0000
,  // measure 7
1000
0000
0010
0000
,  // measure 8
0001
0000
1000
1000
,  // measure 9
0010
0010
0001
0001
,  // measure 10
0100
0100
0001
0001
,  // measure 11
0100
0000
1000
1000
,  // measure 12
0000
0001
0100
0100
,  // measure 13
0000
0000
1000
0000
,  // measure 14
0010
0000
0100
0000
,  // measure 15
0000
0000
0010
0000
,  // measure 16
1000
1000
1000
0000
,  // measure 17
0000
0000
0001
0000
,  // measure 18
0000
0000
0100
0000
,  // measure 19
0000
0000
0000
0000
,  // measure 20
0001
0000
0100
0000
,  // measure 21
0010
0000
1000
1000
,  // measure 22
1000
0000
0001
0000
,  // measure 23
0010
0000
0100
0100
,  // measure 24
0000
0000
0000
1000
,  // measure 25
0000
0001
0000
0100
,  // measure 26
0000
0010
0000
0010
,  // measure 27
0000
1000
0000
0001
,  // measure 28
0000
0100
0100
0100
,  // measure 29
0000
1000
0000
0010
,  // measure 30
0010
0010
0000
0100
,  // measure 31
0000
0001
0000
1000
,  // measure 32
1000
1000
0000
0100
,  // measure 33
0000
0001
0000
1000
,  // measure 34
0000
0001
0001
0001
,  // measure 35
0000
1000
1000
1000
,  // measure 36
0000
1001
0000
0000
,  // measure 37
0000
1001
0000
0000
;

//---------------dance-single - jenro & BlindedVanguard573----------------
#NOTEDATA:;
#CHARTNAME:jenro & BlindedVanguard573;
#STEPSTYPE:dance-single;
#DESCRIPTION:jenro & BlindedVanguard573;
#CHARTSTYLE:;
#DIFFICULTY:Easy;
#METER:7;
#RADARVALUES:0.228324,0.307093,0.095705,0.066993,0.000000,167.000000,157.000000,10.000000,7.000000,0.000000,0.000000,0.000000,0.000000,0.000000,0.228324,0.307093,0.095705,0.066993,0.000000,167.000000,157.000000,10.000000,7.000000,0.000000,0.000000,0.000000,0.000000,0.000000;
#CREDIT:jenro & BlindedVanguard573;
#DISPLAYBPM:63.000000:126.000000;
#NOTES:
// measure 0
0000
0000
0000
0000
,  // measure 1
0000
0000
0000
0000
,  // measure 2
0001
0001
1000
1000
,  // measure 3
0010
0010
0010
0010
,  // measure 4
0100
0000
0100
0000
1000
0000
0010
0010
,  // measure 5
0100
0000
0001
1000
0001
0000
1000
1000
,  // measure 6
0100
0000
0010
0001
0100
0000
1000
0001
,  // measure 7
0010
0010
0100
0000
1000
0010
0100
0000
,  // measure 8
0001
0001
1000
0000
0001
1000
0010
0000
,  // measure 9
0100
0010
0001
0000
1000
0001
0010
0000
,  // measure 10
0100
0010
1000
0000
1000
1000
0010
0100
,  // measure 11
0001
0001
1000
0000
0001
0001
0010
0100
,  // measure 12
1000
1000
0001
0000
0100
0010
0100
0010
,  // measure 13
0100
0010
0100
0000
1000
0100
1100
0000
,  // measure 14
0001
0100
0101
0001
2000
0000
0000
0000
,  // measure 15
3200
0000
0320
0000
,  // measure 16
0032
2003
3001
0001
,  // measure 17
0100
0100
0010
0010
,  // measure 18
1000
1000
0010
0010
,  // measure 19
0010
0010
0000
0000
,  // measure 20
1000
0001
0101
0001
,  // measure 21
1000
0100
0110
0010
,  // measure 22
0100
1000
1010
1000
,  // measure 23
0001
0010
1000
0010
,  // measure 24
0002
0000
0003
0101
,  // measure 25
0100
0010
1000
1100
,  // measure 26
0001
1000
1000
0010
,  // measure 27
0001
0101
0010
0010
,  // measure 28
0100
1000
1000
2000
,  // measure 29
3000
0010
1000
0100
,  // measure 30
0010
0001
0100
0010
,  // measure 31
1000
0001
0010
1000
,  // measure 32
0010
0001
1000
0100
,  // measure 33
0001
1000
0001
0100
,  // measure 34
1000
0010
0100
0001
,  // measure 35
1000
0100
0010
0001
,  // measure 36
1000
0001
0000
1001
,  // measure 37
0000
1000
0000
1001
;

//---------------dance-single - jenro & BlindedVanguard573----------------
#NOTEDATA:;
#CHARTNAME:jenro & BlindedVanguard573;
#STEPSTYPE:dance-single;
#DESCRIPTION:jenro & BlindedVanguard573;
#CHARTSTYLE:;
#DIFFICULTY:Medium;
#METER:10;
#RADARVALUES:0.382819,0.505800,0.287114,0.334967,0.334967,280.000000,250.000000,30.000000,35.000000,0.000000,0.000000,0.000000,0.000000,0.000000,0.382819,0.505800,0.287114,0.334967,0.334967,280.000000,250.000000,30.000000,35.000000,0.000000,0.000000,0.000000,0.000000,0.000000;
#CREDIT:jenro & BlindedVanguard573;
#DISPLAYBPM:63.000000:126.000000;
#NOTES:
// measure 0
0000
0000
0000
0000
,  // measure 1
0000
0000
0000
0000
,  // measure 2
0020
0001
0001
0001
0230
1000
1000
1300
,  // measure 3
0002
0203
0320
2030
,  // measure 4
3001
0100
0100
0000
1000
0100
0100
0000
1001
0000
0001
0000
0101
0000
1000
0000
,  // measure 5
1100
0001
1002
0013
1001
1000
1010
0001
,  // measure 6
0011
0000
0000
1000
0000
0000
2001
0000
0000
3100
0000
0000
1000
0000
0010
0000
0010
0000
0002
0000
0000
0000
1003
0000
,  // measure 7
0010
0010
0100
0001
1000
0000
0001
0100
0100
0010
1000
0001
,  // measure 8
0010
0000
0010
0000
0100
0000
1000
0000
0001
0000
0000
0000
0001
0000
0000
1000
0000
0000
0100
0000
0000
1001
0000
1000
,  // measure 9
0010
0000
0010
1000
0000
0000
0001
0000
0000
1001
0000
0000
0110
0000
0000
0100
0000
0000
1000
0100
1000
0100
0000
0001
,  // measure 10
0010
0000
0010
0001
0000
0000
1000
0000
0000
1001
0000
0000
1000
0000
0000
0010
0000
0100
0001
0000
0000
1000
0000
0100
,  // measure 11
0100
0000
0000
1000
0000
0010
0010
0000
0000
1001
0000
0000
1000
0000
0000
0001
0000
0001
0100
0000
0000
0010
0000
0000
,  // measure 12
1000
0000
0000
0001
0000
0001
0020
0000
0000
0130
0000
0000
0021
0000
0000
0130
0000
0000
1200
0000
0000
0310
0000
0001
,  // measure 13
1000
0000
0001
1000
0000
0010
0100
0000
0000
0002
0000
0000
1003
0000
0000
0001
0000
0000
0101
0000
0000
0001
0000
1000
,  // measure 14
0100
1000
2010
3001
2000
0000
0000
0000
,  // measure 15
3020
0000
0230
0000
,  // measure 16
0302
2003
3001
0011
,  // measure 17
1000
1010
0001
0101
,  // measure 18
1000
0000
0000
1100
0000
0000
0010
0100
0010
0100
0010
0100
,  // measure 19
0010
0000
0000
0000
0100
0000
0000
0000
0010
0000
0000
0000
0100
0000
0000
0000
0100
0000
0000
0000
0100
0000
0000
0000
0001
0000
0000
0100
0000
0000
0100
0000
0000
0000
0000
0000
1000
0000
0000
0100
0000
0000
0100
0000
0000
0000
0000
0000
,  // measure 20
2001
0000
0000
3100
0000
0000
1002
0000
0000
0103
0000
0100
,  // measure 21
0020
0000
0000
1030
0000
1000
0200
0000
0000
0301
0000
0000
,  // measure 22
2100
0000
0000
3010
0000
0000
0102
0000
0000
0013
0000
0010
,  // measure 23
0100
0000
0000
0000
0100
0000
0000
0000
1000
0000
0000
0000
0001
0000
0000
1000
0000
0000
0001
0000
0000
1000
0000
0000
,  // measure 24
0020
0000
0000
0000
0000
0000
0130
0000
0000
0001
0000
0001
,  // measure 25
0020
0000
0000
0230
0000
1000
1300
0000
0000
1010
0000
0000
,  // measure 26
0102
0000
0000
1003
0000
1000
0100
0000
0000
0001
0000
0001
,  // measure 27
0100
0000
0010
0100
0020
0000
0100
0100
,  // measure 28
0100
0130
1001
2100
,  // measure 29
3010
0000
1000
0002
0000
0000
0013
0000
0001
0200
0000
0000
,  // measure 30
1300
0000
0000
0102
0000
0000
0013
0000
0001
2000
0000
0000
,  // measure 31
3010
0000
0000
0000
0010
0000
1000
0000
0000
0000
1000
0000
0000
0000
0100
0000
0000
0000
0010
0000
0000
0001
0000
0000
,  // measure 32
1000
0000
0000
0001
0000
0000
1000
0000
0000
0000
0100
0000
1000
0000
0000
0000
0000
0000
0010
0000
0000
0000
1000
0000
,  // measure 33
0010
0000
0000
0100
0000
0001
0100
0000
0000
1000
0000
0001
,  // measure 34
1000
0000
0000
0010
0000
0100
0001
0000
0000
0010
0000
0100
,  // measure 35
1000
0000
0000
0010
0000
0100
0000
0001
1000
0010
0100
0001
,  // measure 36
1000
0001
0100
0001
0000
1000
0000
0000
0000
1000
0000
0000
,  // measure 37
0000
0000
0000
0010
0000
0100
0000
0000
0000
0100
0000
0000
;

//---------------dance-single - jenro & BlindedVanguard573----------------
#NOTEDATA:;
#CHARTNAME:jenro & BlindedVanguard573;
#STEPSTYPE:dance-single;
#DESCRIPTION:jenro & BlindedVanguard573;
#CHARTSTYLE:;
#DIFFICULTY:Hard;
#METER:13;
#RADARVALUES:0.514071,0.740635,0.296685,0.363678,0.832632,376.000000,345.000000,31.000000,38.000000,21.000000,0.000000,5.000000,0.000000,0.000000,0.514071,0.740635,0.296685,0.363678,0.832632,376.000000,345.000000,31.000000,38.000000,21.000000,0.000000,5.000000,0.000000,0.000000;
#CREDIT:jenro & BlindedVanguard573;
#DISPLAYBPM:63.000000:126.000000;
#NOTES:
// measure 0
0000
0000
0000
0000
,  // measure 1
0000
0000
0000
0000
,  // measure 2
0001
0100
1000
0100
0001
0010
1000
0010
,  // measure 3
MM04
0000
0000
0000
0043
0000
0000
0000
0430
0000
0000
0000
4300
0000
0000
3000
,  // measure 4
0001
0000
0000
0100
0000
0000
0100
0000
0000
0000
0000
0000
1000
0000
0000
0100
0000
0000
0100
0000
0000
0001
0000
0000
1001
0000
0000
0000
0000
0000
0001
0000
0000
0000
1000
0000
1100
0000
0000
0000
0000
0000
1000
0000
0010
0M00
0010
0000
,  // measure 5
0001
0000
0000
0000
0000
0000
0000
0000
0000
0000
0000
0000
0000
0000
0000
0000
0000
0000
0000
0000
0000
0000
0000
0000
1000
0000
0000
0000
0000
0000
0000
0000
0000
0000
0000
0000
0000
0000
0000
0000
0001
0000
0000
0000
0000
0000
0000
0000
0100
0000
0000
0002
0000
0000
0000
0000
0000
0000
0000
0000
0000
0000
0000
0000
0000
0000
0000
0000
0000
0000
0000
0000
0010
0000
0000
0000
0000
0000
0000
0000
0000
0000
0000
0000
0000
0000
0000
0000
0000
0000
0000
0000
0000
0000
0000
0000
1003
0000
0000
0000
0000
0000
0000
0000
0000
0000
0000
0000
0000
0000
0000
0000
0000
0000
0000
0000
0000
0000
0000
0000
0010
0000
0000
0000
0000
0000
0000
0000
0000
0000
0000
0000
0000
0000
0000
0000
0100
0000
0000
0000
0000
0000
0000
0000
0101
0000
0000
0000
0000
0000
0000
0000
0000
0000
0000
0000
0000
0000
0000
0000
0000
0000
0000
0000
0000
0000
0000
0000
1000
0000
0000
0000
0000
0000
0000
0000
0100
0000
0000
0000
00M0
0000
0000
0000
0100
0000
0000
0000
0000
0000
0000
0000
,  // measure 6
0001
0000
0000
0000
0000
0000
0000
0000
0000
0000
0000
0000
0000
0000
0000
0000
0000
0000
0000
0000
0000
0000
0000
0000
1000
0000
0000
0000
0000
0000
0000
0000
0000
0000
0000
0000
0000
0000
0000
0000
0001
0000
0000
0000
0000
0000
0000
0000
0010
0000
0000
0002
0000
0000
0000
0000
0000
0000
0000
0000
0000
0000
0000
0000
0000
0000
0000
0000
0000
0000
0000
0000
1003
0000
0000
0000
0000
0000
0000
0000
0001
0000
0000
0000
0000
0000
0000
0000
1000
0000
0000
0000
0000
0000
0000
0000
0001
0000
0000
0000
0000
0000
0000
0000
0100
0000
0000
0000
0000
0000
0000
0000
0010
0000
0000
0000
0000
0000
0000
0000
0000
0000
0000
0000
0000
0000
0000
0000
1000
0000
0000
0000
0000
0000
0000
0000
0010
0000
0000
0000
0000
0000
0000
0000
0100
0000
0000
0000
0000
0000
0000
0000
0020
0000
0000
0000
0000
0000
0000
0000
0100
0000
0000
0000
0000
0000
0000
0000
0000
0000
0000
0000
0000
0000
0000
0000
1030
0000
0000
0000
0000
0000
0000
0000
0001
0000
0000
0000
0000
0000
0000
0000
,  // measure 7
1000
0200
0010
0000
1300
0010
0100
0000
0101
0000
1000
0001
1000
0100
1000
0000
0001
0100
0001
2000
0010
0000
3001
1000
,  // measure 8
0001
0200
0010
0000
0301
0010
0100
0000
1100
0000
0001
1000
0100
0010
0100
1000
0000
0100
0010
0001
1000
0100
0000
2000
,  // measure 9
0100
0000
0000
0000
3002
0000
0010
0000
0000
0000
1003
0000
0010
0M00
0010
0000
0001
0000
1000
0000
0000
0000
0000
0000
0110
0000
0000
0000
1000
0000
0001
0000
0000
0000
1000
0000
0010
0000
0100
0000
0001
0000
0100
0000
0001
0000
1000
0000
,  // measure 10
0010
0M00
0010
0000
0001
0000
0100
0000
0000
0000
0001
0000
0010
0M00
0010
0000
1000
0000
0100
0000
0000
0000
0000
0000
1000
0000
0000
0000
0010
0000
0100
0000
0000
0000
0001
0000
0010
0000
0000
0000
0100
0000
0010
0000
0000
0000
1000
0000
,  // measure 11
0010
0000
0001
0010
0000
1000
0020
0000
0000
0030
0000
0001
0010
0000
0100
0010
0000
0001
2000
0000
0000
3001
0000
1000
,  // measure 12
0010
0000
0100
0010
0000
0001
0020
0000
0000
1030
0100
0010
0001
0000
1000
0001
0000
0100
0002
0000
0000
1003
0000
0100
,  // measure 13
0001
0000
0100
1000
0000
0010
0100
0000
0000
1001
0000
0000
1000
0000
0000
0001
0000
0000
0101
0000
0000
0001
0010
0100
,  // measure 14
1000
0000
0000
0000
0010
0100
0010
0000
0000
0000
0000
0000
1000
0000
0000
0000
0001
0010
0001
0000
1000
0000
0001
0000
0200
0000
0000
0000
0000
0000
0000
0000
0000
0000
0000
0000
0000
0000
0000
0000
0000
0000
0000
0000
0000
0000
0000
0000
,  // measure 15
0320
0000
2030
0000
,  // measure 16
3002
0000
0000
0000
0000
0000
1MM3
0010
1000
0001
0100
0001
,  // measure 17
1000
0100
1000
0001
0010
0001
1000
0001
1000
0100
0010
0100
,  // measure 18
1000
0001
1000
0010
0100
0010
2000
0010
0010
3002
0100
0100
,  // measure 19
2003
0000
0000
0000
0100
0000
0000
0000
0100
0000
0000
0000
3002
0000
0000
0000
0010
0000
0000
0000
0013
0000
0000
0000
0001
0000
0000
0100
0000
0000
0100
0000
0000
0000
0000
0000
1000
0000
0000
0100
0000
0000
0100
0000
0000
0001
0000
0000
,  // measure 20
1001
0000
0000
0000
0000
0000
2000
0000
0000
0000
3000
0000
2100
0000
0000
0000
0000
0000
3002
0000
0000
0000
0103
00M0
,  // measure 21
2100
0000
3001
0200
0000
0301
2010
0000
0000
3002
0000
0003
,  // measure 22
1002
0000
0000
0000
0000
0000
2003
0000
0000
0000
3010
0M00
0012
0000
0000
0000
0000
0000
2003
0000
0000
0000
3010
0M00
,  // measure 23
0011
0000
0000
0000
0001
0000
1000
0000
0100
0000
0000
0000
1000
0000
0000
0010
0000
0000
0001
0000
0000
0010
0000
0000
,  // measure 24
4M00
0000
0000
0000
0000
0000
3001
0001
0001
0001
0000
1000
,  // measure 25
0100
0010
0000
0001
0000
1000
0100
0010
0000
0001
0000
0010
,  // measure 26
0001
0000
0000
0101
0000
1000
0001
0000
0000
0101
0000
1000
,  // measure 27
0001
0010
0001
0100
0100
0000
1000
0100
,  // measure 28
0100
0000
0001
0000
0001
1000
0100
0010
0001
1000
0100
0000
2010
0000
0000
0000
,  // measure 29
3100
0000
0000
0000
0100
00M0
0102
0000
0000
0000
0000
0000
0013
0000
0000
0000
0010
0M00
2010
0000
0000
0000
0000
0000
,  // measure 30
3001
0000
0000
0000
0000
0000
1002
0000
0000
0000
0000
0000
0103
0000
0000
0000
0100
00M0
2100
0000
0000
0000
0000
0000
,  // measure 31
3010
0000
0000
0000
0010
0M00
0011
0000
0000
0000
0010
0000
0001
0000
1000
0000
0001
0000
1000
0000
0000
0100
0000
0000
,  // measure 32
0001
0000
0000
0100
0000
0000
0010
0000
0100
0000
0000
0000
1100
0000
0000
0000
0000
0000
0010
0000
0100
0000
0000
0000
,  // measure 33
0101
0000
0000
0010
0100
0000
1010
0000
0010
0100
0000
0000
,  // measure 34
0011
0000
0000
0000
0000
0000
1000
0000
0100
0000
00M0
0000
0101
0000
0000
0000
1000
0000
0010
0000
0000
0M00
0000
0000
,  // measure 35
0011
0000
0000
0001
0000
0001
0000
1000
0010
0100
0001
1000
,  // measure 36
0010
1000
0001
1MM2
0000
0100
0000
0000
0000
0103
0000
0000
,  // measure 37
0000
0000
0000
2001
0000
0100
0000
0000
0000
3100
0000
0000
;
