#TITLE:Wild Frontier;
#SUBTITLE:;
#ARTIST:The Prodigy;
#TITLETRANSLIT:;
#SUBTITLETRANSLIT:;
#ARTISTTRANSLIT:;
#GENRE:;
#CREDIT:;
#BANNER:Wild Frontier-bn.png;
#BACKGROUND:Wild Frontier-bg.png;
#LYRICSPATH:;
#CDTITLE:;
#MUSIC:Wild Frontier.ogg;
#OFFSET:0.000000;
#SAMPLESTART:45.000000;
#SAMPLELENGTH:15.00000;
#SELECTABLE:YES;
#BPMS:0.000000=140.000000
;
#STOPS:267.000000=0.214000
;
#BGCHANGES:3.938=Wild Frontier.mp4=1.000=0=0=1=====,
99999=-nosongbg-=1.000=0=0=0 // don't automatically add -songbackground-
;
#KEYSOUNDS:;
#ATTACKS:;

//---------------dance-single - ----------------
#NOTES:
     dance-single:
     :
     Medium:
     10:
     0.340886,0.395781,0.098167,0.105718,0.071737,316.000000,303.000000,13.000000,14.000000,0.000000,0.000000,0.340886,0.395781,0.098167,0.105718,0.071737,316.000000,303.000000,13.000000,14.000000,0.000000,0.000000:
0000
0000
0000
0000
,
0000
0000
0000
0000
,
0000
0000
0000
0000
,
0000
0000
0000
0000
,
0000
0000
0000
0000
,
0002
0000
0000
0000
,
2003
0000
0000
0000
0000
0000
3200
0020
,
0000
0000
0000
0000
,
0000
0000
0000
0330
,
1001
0000
0001
0000
0100
0001
1000
0000
,
0100
0000
1000
0000
0100
0010
0001
0000
,
1000
0000
0010
0000
0100
0001
1000
0000
,
0100
0010
0001
0000
1000
0010
0100
0000
,
1001
0000
1000
0000
0100
1000
0001
0000
,
0100
0000
0001
0000
0100
0010
1000
0000
,
0001
0000
0010
0000
0100
1000
0001
0000
,
0100
0010
2000
0000
0002
0000
3003
0000
,
1001
0000
0000
0000
0000
0000
0000
0000
1000
0000
0000
0001
0000
0000
0000
0000
,
0100
0000
0010
0000
,
1001
0001
1000
0001
,
0100
0001
1000
0001
,
0100
0010
0100
0010
,
0100
0010
0100
0001
,
1000
0100
1000
0100
,
0010
0001
0100
0001
,
0010
0100
0010
0100
,
0010
0100
0010
0001
,
1001
0000
1000
0000
0010
0100
0001
0000
,
1000
0000
0100
0000
0010
0001
1000
0000
,
0010
0000
0100
0000
0001
1000
0100
0000
,
0010
0100
1000
0000
0001
0100
0010
0000
,
1001
0000
0001
0000
0010
0100
1000
0000
,
0001
0000
0100
0000
0010
1000
0001
0000
,
0010
0000
0100
0000
1000
0001
0100
0000
,
0010
0100
0001
0000
1000
0100
0010
0010
,
0110
0000
0000
0100
0000
0000
1000
0000
0000
0001
0000
0000
0100
0000
0000
0000
,
0001
0000
1000
0100
0000
0010
0001
0000
,
1000
0000
0010
0100
0001
0000
1000
0000
,
0001
0000
0010
0100
1000
0000
0010
0000
,
0110
0000
0000
0100
0000
0000
0001
0000
0000
1000
0000
0000
0100
0000
0000
0000
,
1000
0000
0001
0100
0000
0010
1000
0000
,
0001
0000
0000
0000
0010
0000
0100
0000
1000
0000
0000
0010
0000
0000
0100
0000
,
0001
0000
0010
0100
1000
0000
0010
0000
,
1001
0000
0000
0000
1000
0000
0100
0000
0010
0000
0001
0000
1000
0000
0000
0010
,
0000
0000
0000
0000
1000
0000
0001
0000
0010
0000
0100
0000
1000
0000
0000
0001
,
0000
0000
0000
0000
1000
0000
0010
0000
0100
0000
0001
0000
0010
0000
0000
0100
,
0000
0000
1000
0001
1000
0010
0100
0000
,
1001
0000
0000
0000
0001
0000
0100
0000
0010
0000
1000
0000
0001
0000
0000
0010
,
0000
0000
0000
0000
0001
0000
1000
0000
0010
0000
0100
0000
0001
0000
0000
1000
,
0000
0000
0000
0000
0001
0000
0010
0000
0100
0000
1000
0000
0010
0000
0000
0100
,
0000
0000
0001
1000
0001
0000
0010
0000
,
0002
0000
0000
0000
,
0203
0000
0000
0000
,
0020
0000
0000
0000
,
0330
0000
0000
0000
,
2000
0000
0000
0000
,
3002
0000
0000
0000
0000
0000
0023
0200
,
0000
0000
0000
0000
,
0000
0000
0000
0330
,
1001
0000
0001
0000
0010
0100
1000
0000
,
0010
0000
1000
0000
0100
0010
0001
0000
,
1000
0000
0010
0000
0100
0001
1000
0000
,
0100
0010
0001
0000
1000
0010
0100
0000
,
1001
0000
1000
0000
0010
0100
0001
0000
,
0010
0000
0001
0000
0100
0010
1000
0000
,
0001
0000
0010
0000
0100
1000
0001
0000
,
0100
0010
1000
0000
0001
0010
0100
1001
,
0000
0000
1000
0000
0001
0000
0100
0000
0000
0001
0000
0000
1000
0000
0000
0000
,
0000
0000
0100
0000
0010
0000
0001
0000
0000
1000
0000
0000
0010
0000
0000
0000
,
0000
0000
1000
0000
0001
0000
0100
0000
0000
0001
0000
0000
1000
0000
0000
0000
,
0000
0000
0100
0000
0010
0000
0001
0000
0000
1000
0000
0000
0010
0000
0000
0000
,
0000
0000
1000
0000
0001
0000
0100
0000
0000
0001
0000
0000
0010
0000
0000
0000
,
0000
0000
0001
0000
1000
0000
0100
0000
0000
1000
0000
0000
0010
0000
0000
0000
,
0000
0000
1000
0000
0001
0000
0100
0000
0000
0010
0000
0000
1000
0000
0000
0000
,
0000
0001
0010
0200
0000
1300
1000
0001
;

//---------------dance-single - ----------------
#NOTES:
     dance-single:
     :
     Hard:
     15:
     0.551243,0.621942,0.113269,0.241641,0.385115,511.000000,496.000000,15.000000,32.000000,0.000000,0.000000,0.551243,0.621942,0.113269,0.241641,0.385115,511.000000,496.000000,15.000000,32.000000,0.000000,0.000000:
// measure 0
0000
0000
0000
0000
,  // measure 1
0000
0000
0000
0000
,  // measure 2
0000
0000
0000
0000
,  // measure 3
0000
0000
0000
0000
,  // measure 4
0000
0000
0000
0000
,  // measure 5
2000
0000
0000
0000
,  // measure 6
0002
0000
0000
0000
3000
0000
0103
0001
,  // measure 7
1000
0100
1000
0100
0010
0100
0010
0001
,  // measure 8
0100
0001
0100
0001
0100
0010
1000
0000
,  // measure 9
1001
0000
0001
0000
0010
0000
0001
0100
0000
0010
0100
0000
0001
0000
0000
0000
,  // measure 10
0010
0001
0010
0000
0100
0000
1000
0010
1000
0000
0001
0000
1000
0000
0001
0100
,  // measure 11
0001
0000
1000
0000
0010
0000
1000
0100
0000
0010
0100
0000
1000
0000
0000
0000
,  // measure 12
0001
0000
0001
0000
1000
0000
0010
0001
0000
0010
0100
0000
0001
0000
1000
0100
,  // measure 13
1000
0000
0010
0000
0001
0000
0010
0100
0000
0001
0010
0000
0200
0000
0000
0000
,  // measure 14
1300
0100
1000
0000
0010
0000
0100
0001
0100
0000
0010
0000
1000
0000
0001
0010
,  // measure 15
0001
0000
0010
0000
1000
0000
0010
0100
0000
1000
0010
0000
0200
0000
0000
0000
,  // measure 16
0310
0000
0010
0000
1000
0000
0001
1000
0002
0000
0000
0000
1003
0000
0000
0000
,  // measure 17
1001
0000
0000
0000
0000
0000
0000
0000
0001
0000
0000
1000
0000
0000
0001
0000
,  // measure 18
0010
0000
0001
1000
,  // measure 19
2001
0100
0100
3100
,  // measure 20
2000
3010
2000
3001
,  // measure 21
0002
0100
0100
0100
,  // measure 22
1000
1000
1003
0002
,  // measure 23
0023
0100
0100
0100
,  // measure 24
0230
1300
2000
3020
,  // measure 25
0100
0100
0100
0130
,  // measure 26
0001
0000
0000
0000
1000
0000
0001
0000
1000
0000
0000
0001
0000
0000
1000
0000
,  // measure 27
1001
0000
0001
0000
0100
0000
1000
0100
0000
0010
1000
0000
0001
0000
0000
0000
,  // measure 28
1000
0000
1000
0000
0001
0000
0010
1000
0000
0010
0100
0000
1000
0000
0000
0000
,  // measure 29
1001
0000
1000
0000
0100
0000
0001
0100
0000
0010
0001
0000
1000
0000
0000
0000
,  // measure 30
0001
0000
0001
0000
1000
0000
0010
0001
0000
0010
0100
0000
0001
0000
0000
0000
,  // measure 31
1001
0000
1000
0000
0001
0000
0010
1000
0000
0010
0100
0000
1000
0000
0001
0000
,  // measure 32
0101
0000
0100
0000
1000
0000
0100
0010
0000
1000
0001
0000
0010
0000
0001
1000
,  // measure 33
0001
0000
0100
0000
0010
0000
1000
0000
0200
0000
0000
2300
0000
0000
3010
0000
,  // measure 34
1000
0100
0010
0001
0200
0000
0001
0301
,  // measure 35
1001
0000
1000
0100
0000
0001
0100
0000
1000
0010
0000
0100
0002
0000
0000
0000
,  // measure 36
1003
0000
0001
0000
0010
0000
0100
0010
0000
0100
1000
0000
0001
0000
0000
0000
,  // measure 37
1000
1000
0001
0100
2000
0000
3001
0010
,  // measure 38
1000
0000
1000
0000
0001
0000
0010
1000
0000
0001
0000
0100
1000
0000
0000
0000
,  // measure 39
1001
0000
0001
0100
0000
1000
0100
0000
0001
0010
0000
0100
2000
0000
0000
0000
,  // measure 40
3001
0000
1000
0000
0010
0000
0100
0010
0000
1000
0100
0000
1000
0000
0000
0000
,  // measure 41
0001
0000
0001
0000
1000
0000
0010
0000
0002
0000
0000
2003
0000
0000
3100
0000
,  // measure 42
0001
0000
0001
0000
1000
0000
0100
0001
0000
1000
0000
0010
0001
0000
0000
0000
,  // measure 43
1001
0000
1000
0000
0010
0000
0001
0000
0010
0000
0100
0000
0001
0000
0000
0001
,  // measure 44
1000
0000
0001
0000
0010
0000
1000
0000
0010
0000
0100
0000
1000
0000
0000
0001
,  // measure 45
1000
0100
0001
1000
0020
0000
0031
1000
,  // measure 46
0001
0100
1000
0001
0020
0000
0031
1000
,  // measure 47
1001
0000
0001
0000
0010
0000
0100
1000
0100
1000
0000
0010
1000
0000
0000
0001
,  // measure 48
1000
0000
0010
0000
0100
0000
0001
0100
0001
0100
0000
0001
0010
0000
0000
0001
,  // measure 49
1000
0000
0010
0000
0001
0000
0010
0000
0100
0000
0001
1000
0000
0100
1000
0000
,  // measure 50
0001
0000
0010
0000
1000
0000
0010
0100
0010
0100
0000
1000
0001
0000
1000
0000
,  // measure 51
2001
0000
0000
0000
,  // measure 52
3200
0000
0000
0000
,  // measure 53
0020
0000
0000
0000
,  // measure 54
0330
0000
0000
0000
,  // measure 55
0002
0000
0000
0000
,  // measure 56
2000
0000
0000
0000
0003
0000
3100
1000
,  // measure 57
0001
0100
0001
0100
0010
0100
0010
1000
,  // measure 58
0100
1000
0100
1000
0100
0010
0001
0000
,  // measure 59
1001
0000
1000
0000
0010
0000
0100
0001
0000
0010
0001
0000
1000
0000
0100
1000
,  // measure 60
0100
0000
1000
0000
0001
0000
0100
1000
0000
0100
0010
0000
1000
0000
0001
1000
,  // measure 61
0001
0000
0001
0000
0010
0000
0100
1000
0000
0010
1000
0000
0001
0000
0100
0001
,  // measure 62
0100
0000
0001
0000
1000
0000
0100
0001
0000
0100
0010
0000
0001
0000
1000
0001
,  // measure 63
1000
0000
0100
0000
0001
0000
1000
0000
0010
0000
0001
0100
0000
0001
0010
0000
,  // measure 64
0001
0000
0001
0000
1000
0000
0010
0100
0000
0100
0001
0000
0010
0000
0001
1000
,  // measure 65
0001
0000
0100
0000
1000
0000
0001
0000
0010
0000
1000
0100
0000
1000
0010
0000
,  // measure 66
1000
0000
0000
0000
0001
0000
0000
0000
0100
0000
0000
0000
0010
0000
0000
0000
2000
0000
0000
0000
0000
0000
0000
0000
0002
3003
0000
0000
1001
0000
0000
0000
,  // measure 67
1000
0000
0100
0000
0010
0000
0001
0000
0100
0001
0000
0001
1000
0000
0010
0000
,  // measure 68
0001
0000
0010
0000
0100
0000
0001
0000
1000
0100
0000
0001
0100
0000
0010
0000
,  // measure 69
0001
0000
0100
0000
0010
0000
1000
0000
0001
0010
0000
0010
0100
0000
1000
0000
,  // measure 70
0001
0000
0100
0000
0010
0000
1000
0000
0100
1000
0000
0001
1000
0000
1001
0000
,  // measure 71
0001
0000
0100
0000
0010
0000
1000
0000
0100
1000
0000
1000
0001
0000
0010
0000
,  // measure 72
1000
0000
0010
0000
0100
0000
1000
0000
0001
0100
0000
1000
0100
0000
0010
0000
,  // measure 73
1000
0000
0100
0000
0010
0000
0001
0000
1000
0010
0000
0010
0100
0000
0001
0000
,  // measure 74
1000
0100
0010
0002
0000
1000
1003
0001
;
