#TITLE:W.I.T.C.H.;
#SUBTITLE:;
#ARTIST:Devon Cole;
#TITLETRANSLIT:;
#SUBTITLETRANSLIT:;
#ARTISTTRANSLIT:;
#GENRE:;
#CREDIT:Bumble;
#BANNER:Witch banner.png;
#BACKGROUND:Witch bg.jpg;
#LYRICSPATH:;
#CDTITLE:cdtitle.png;
#MUSIC:W.I.T.C.H..ogg;
#OFFSET:1.476000;
#SAMPLESTART:51.632000;
#SAMPLELENGTH:15.742000;
#LASTBEATHINT:0.776733;
#SELECTABLE:YES;
#BPMS:0.000000=122.000000
;
#STOPS:
;
#BGCHANGES:3.322=Witch.mkv=1.000=0=0=0=StretchNoLoop====,
99999=-nosongbg-=1.000=0=0=0 // don't automatically add -songbackground-
;
#FGCHANGES:0.000=lua=1.000=0=0=1=====,
;
#KEYSOUNDS:;
#ATTACKS:;

//---------------dance-single - ----------------
#NOTES:
     dance-single:
     :
     Challenge:
     12:
     0.381876,0.401723,0.037650,0.557216,0.007530,355.000000,350.000000,5.000000,74.000000,0.000000,0.000000,0.381876,0.401723,0.037650,0.557216,0.007530,355.000000,350.000000,5.000000,74.000000,0.000000,0.000000:
// measure 0
0000
0000
0000
0000
,  // measure 1
0000
0000
0000
0000
,  // measure 2
0000
0000
0000
0000
,  // measure 3
0001
0100
0001
0010
0001
1000
0100
1000
,  // measure 4
0010
0000
1000
0000
0001
0000
0010
0000
1000
0000
0020
0000
0000
0030
0010
0000
,  // measure 5
0001
1000
0010
0100
0001
0100
1000
0100
,  // measure 6
0010
0100
0100
0001
0001
1000
0000
2000
,  // measure 7
0000
0010
3001
1000
0000
1000
0100
0010
,  // measure 8
0100
0000
0010
0000
0001
0000
0100
0000
2000
0000
0000
3000
1000
0000
0200
0000
,  // measure 9
0000
0300
0020
0000
0000
0030
0100
0000
0001
0000
1000
0000
0001
0000
0010
0000
,  // measure 10
0001
1000
0010
0100
0001
0000
0000
0000
,  // measure 11
0000
0000
0000
0000
1000
0000
0100
0000
0010
0000
0010
0000
0200
0000
0000
0300
,  // measure 12
1000
0000
0100
0000
0001
0000
0100
0000
2000
0000
0000
3000
0001
0000
0010
0000
,  // measure 13
0001
0000
0100
0000
2000
0000
0000
3000
1000
0000
0100
0000
0001
0000
0020
0000
,  // measure 14
0000
0030
1000
0000
0010
0000
0002
0000
0000
0003
0000
0000
0000
0000
0000
0000
,  // measure 15
0000
1000
0010
0100
0001
0100
1000
0100
,  // measure 16
0010
0001
0010
2000
0000
3000
0010
0010
,  // measure 17
1000
0000
0200
0000
0000
0300
0100
0000
0001
0000
0100
0000
1000
0000
0020
0000
,  // measure 18
0000
0031
0010
2000
0000
3000
0000
0000
,  // measure 19
1000
0100
1010
0000
0001
0100
0011
0000
,  // measure 20
1000
0000
0010
0000
0200
0000
0000
0300
0001
0000
0010
0000
0200
0000
0000
0000
,  // measure 21
1300
0000
0001
0000
0100
0000
1000
0000
0002
0000
0000
0023
0000
0030
2000
0000
,  // measure 22
0000
3000
0000
0000
0000
0001
0001
0000
,  // measure 23
1000
0000
1000
0000
0020
0000
0000
0030
0100
0000
1000
0000
0200
0000
0000
0300
,  // measure 24
0001
0000
0001
0000
0020
0000
0000
0030
0100
0000
0001
0000
0200
0000
0000
0300
,  // measure 25
1000
0000
1000
0000
0001
0000
0100
0000
0010
0000
0000
0200
0000
0000
0000
0000
,  // measure 26
0000
0300
0000
0011
0000
0000
0000
0000
,  // measure 27
0000
0000
0000
0000
1000
0000
0100
0000
0010
0000
0010
0000
0200
0000
0000
0300
,  // measure 28
1000
0000
0100
0000
0001
0000
0100
0000
2000
0000
0000
3000
0001
0000
0010
0000
,  // measure 29
0001
0000
0100
0000
2000
0000
0000
3000
1000
0000
0100
0000
0001
0000
0020
0000
,  // measure 30
0000
0030
1000
0000
0010
0000
0002
0000
0000
0003
0000
0000
0000
0000
0000
0000
,  // measure 31
0000
1000
0100
0010
0100
1000
0010
0100
,  // measure 32
0010
1000
0100
0020
0000
0030
0001
0100
,  // measure 33
1000
0000
0200
0000
0000
0300
0100
0000
0001
0000
0010
0000
1000
0000
0020
0000
,  // measure 34
0000
0030
0001
0000
1000
0000
0200
0000
0000
0000
0300
0000
0000
0000
0000
0000
,  // measure 35
0000
2000
0002
3003
,  // measure 36
0001
0000
0100
0000
0010
0000
0100
0000
0022
0033
0000
0000
0000
0000
0000
0000
,  // measure 37
1000
0001
0100
0000
0001
0100
0100
0020
,  // measure 38
0000
0030
1000
0000
0100
0000
2000
0000
0000
3000
0000
0000
0000
0000
0000
0000
,  // measure 39
1000
0002
0020
0033
,  // measure 40
0010
0000
0001
0000
0100
0000
0001
0000
2200
3300
0000
0000
0000
0000
0000
0000
,  // measure 41
0001
0010
0100
0000
0100
0010
0010
0002
,  // measure 42
0000
0003
1000
0000
0010
0000
0200
0000
0000
0300
0000
0000
0000
0000
0000
0000
,  // measure 43
0001
1000
0200
0000
0002
0303
0000
0100
,  // measure 44
0010
0010
0100
2000
0000
3000
0010
0010
,  // measure 45
1000
0001
0200
0000
2000
3300
0100
0010
,  // measure 46
1000
0010
0100
0002
0000
0003
0000
0000
,  // measure 47
1000
0001
0020
0000
2000
3030
0000
0010
,  // measure 48
0001
0000
1000
0000
0100
0000
0020
0000
0000
0000
0000
0030
0100
0000
1000
0000
,  // measure 49
0100
1000
0020
0000
0002
0033
0010
0100
,  // measure 50
0001
0000
0010
0000
0001
0000
2000
0000
0000
3000
0000
0000
0000
0000
0000
0000
,  // measure 51
0000
0000
0000
0000
1000
0000
0010
0000
1000
0000
1000
0000
0200
0000
0000
0300
,  // measure 52
0010
0000
0100
0000
1000
0000
0010
0000
0200
0000
0000
0300
0001
0000
1000
0000
,  // measure 53
0100
0000
0010
0000
0200
0000
0000
0300
1000
0000
0010
0000
0001
0000
0020
0000
,  // measure 54
0000
0030
0100
0000
0010
0000
2000
0000
0000
3000
0000
0000
0000
0000
0000
0000
,  // measure 55
0000
1000
0100
0010
0100
0001
0100
0010
,  // measure 56
1000
0010
0001
2000
0000
3000
0010
0010
,  // measure 57
1000
0000
0200
0000
0000
0000
0000
0000
0000
0300
0000
0000
0010
0000
0001
0000
,  // measure 58
0010
0000
0100
0000
0000
0000
0100
0000
1000
0000
0000
0000
2000
0000
0000
3000
,  // measure 59
0000
0000
0000
0000
0001
0000
0010
0000
1000
0000
0010
0000
0200
0000
0000
0300
,  // measure 60
1000
0000
0100
0000
0001
0000
0100
0000
2000
0000
0000
3000
0001
0000
0010
0000
,  // measure 61
0001
0000
0100
0000
2000
0000
0000
3000
1000
0000
0100
0000
0001
0000
0020
0000
,  // measure 62
0000
0030
1000
0000
0010
0000
0002
0000
0000
0003
0000
0000
0000
0000
0000
0000
,  // measure 63
0000
1000
0100
0010
1000
0010
0001
0100
,  // measure 64
0010
0001
0010
2000
0000
3000
0001
0100
,  // measure 65
1000
0000
0200
0000
0000
0300
0100
0000
0001
0000
0010
0000
1000
0000
0020
0000
,  // measure 66
0000
0030
0001
0000
1000
0000
0200
0000
0000
0000
0000
0300
0000
0000
0000
0000
;

//---------------dance-single - ----------------
#NOTES:
     dance-single:
     :
     Hard:
     10:
     0.348529,0.350849,0.007530,0.775585,0.007530,324.000000,323.000000,1.000000,103.000000,0.000000,0.000000,0.348529,0.350849,0.007530,0.775585,0.007530,324.000000,323.000000,1.000000,103.000000,0.000000,0.000000:
// measure 0
0000
0000
0000
0000
,  // measure 1
0000
0000
0000
0000
,  // measure 2
0000
0000
0000
0000
,  // measure 3
0002
0003
1000
0100
0020
0030
0010
0001
,  // measure 4
2000
3000
1000
0001
0100
0002
0003
0001
,  // measure 5
2000
3000
1000
0010
0200
0300
0100
0001
,  // measure 6
0020
0030
0010
0001
1000
0010
0000
1000
,  // measure 7
0000
0001
1000
0100
0000
1000
0100
1000
,  // measure 8
0200
0000
0000
0300
0020
0000
0000
0030
0002
0000
0000
0003
0010
0000
0002
0000
,  // measure 9
0000
0003
0100
0000
0000
0000
0100
0000
0010
0000
0100
0000
0010
0000
0000
0000
,  // measure 10
2000
0100
3001
0000
,  // measure 11
0000
0000
0000
0000
1000
0000
0100
0000
0020
0000
0000
0030
0200
0000
0000
0300
,  // measure 12
1000
0000
0100
0000
1000
0000
0001
0000
2000
0000
0000
3000
0001
0000
0010
0000
,  // measure 13
0002
0000
0000
0003
2000
0000
0000
3000
0010
0000
0100
0000
0010
0000
0200
0000
,  // measure 14
0300
0000
0001
0000
1000
0000
0002
0000
0000
0003
0000
0000
0000
0000
0000
0000
,  // measure 15
0000
1000
0001
0010
0002
0003
0010
0100
,  // measure 16
0020
0030
0001
1000
0002
0003
1000
0010
,  // measure 17
1000
0002
0003
0001
0100
0001
0100
0020
,  // measure 18
0030
1000
0001
2000
0000
3000
0000
0000
,  // measure 19
2000
3001
0002
0013
,  // measure 20
0001
0000
0100
0000
0002
0000
0000
0003
1000
0000
0010
0000
2000
0000
0000
3000
,  // measure 21
1000
0000
0001
0000
0100
0000
0010
0000
0100
0000
0000
0001
0000
0000
0020
0000
,  // measure 22
0000
0030
0000
0000
0000
0002
1003
0000
,  // measure 23
1000
0010
0200
0300
0100
0001
0020
0030
,  // measure 24
0010
0100
2000
3000
1000
0010
0200
0300
,  // measure 25
0100
0000
0001
0000
1000
0000
0001
0000
0010
0000
0000
0200
0000
0000
0300
0000
,  // measure 26
0000
0000
0000
0110
0000
0000
0000
0000
,  // measure 27
0000
0000
0000
0000
1000
0000
0100
0000
0020
0000
0000
0030
0002
0000
0000
0003
,  // measure 28
1000
0000
0001
0000
1000
0000
0010
0000
2000
0000
0000
3000
0001
0000
0100
0000
,  // measure 29
0020
0000
0000
0030
2000
0000
0000
3000
0001
0000
0010
0000
0001
0000
0020
0000
,  // measure 30
0030
0000
0100
0000
1000
0000
0200
0000
0000
0300
0000
0000
0000
0000
0000
0000
,  // measure 31
0000
1000
0001
0010
0002
0003
0010
0001
,  // measure 32
2000
3000
1000
0010
0200
0300
0100
0001
,  // measure 33
1000
0002
0003
0001
0010
0001
1000
0002
,  // measure 34
0003
0000
1000
0000
0100
0000
2000
0000
0000
3000
0000
0000
0000
0000
0000
0000
,  // measure 35
0000
2000
0002
3003
,  // measure 36
0001
0100
0002
1000
2000
3003
0000
0000
,  // measure 37
0001
1000
0200
0300
0100
0010
0100
2000
,  // measure 38
3000
0000
0010
0000
1000
0000
0002
0000
0000
0003
0000
0000
0000
0000
0000
0000
,  // measure 39
1000
0002
0200
0303
,  // measure 40
0001
0100
0002
1000
1003
0000
0000
0000
,  // measure 41
1000
0001
2000
3000
0001
0100
0010
0200
,  // measure 42
0300
0000
0100
0000
0001
0000
2000
0000
0000
3000
0000
0000
0000
0000
0000
0000
,  // measure 43
1000
0000
0001
0000
0200
0000
0000
0300
0020
0000
0000
0030
0000
0000
0010
0000
,  // measure 44
2000
3000
1000
0002
0003
0001
0010
0001
,  // measure 45
1000
0000
0000
0000
0200
0000
0000
0300
0020
0000
0030
0000
0010
0000
0001
0000
,  // measure 46
1000
0000
0100
0000
1000
0000
0002
0000
0000
0003
0000
0000
0000
0000
0000
0000
,  // measure 47
1000
0000
0001
0000
0020
0000
0000
0030
0002
0000
0000
0003
0000
0000
0001
0000
,  // measure 48
0200
0300
0100
0002
0003
0001
1000
0100
,  // measure 49
1000
0000
0100
0000
2000
0000
0000
3000
0020
0000
0000
0030
0100
0000
0001
0000
,  // measure 50
0100
0000
0010
0000
1000
0000
0002
0000
0000
0003
0000
0000
0000
0000
0000
0000
,  // measure 51
0000
0000
0000
0000
0001
0000
0010
0000
0002
0000
0000
0003
0200
0000
0000
0300
,  // measure 52
0001
0000
1000
0000
0001
0000
1000
0000
0002
0000
0000
0003
1000
0000
0010
0000
,  // measure 53
2000
0000
0000
3000
0002
0000
0000
0003
0010
0000
0001
0000
1000
0000
0002
0000
,  // measure 54
0003
0000
0100
0000
0010
0000
2000
0000
0000
3000
0000
0000
0000
0000
0000
0000
,  // measure 55
0000
1000
0001
1000
0200
0300
0100
1000
,  // measure 56
0020
0030
0010
2000
3000
0000
1000
0001
,  // measure 57
0010
0000
0002
0000
0000
0000
0000
0003
0000
0000
0000
0000
1000
0000
0100
0000
,  // measure 58
1000
0020
0030
0010
0200
0300
0200
0300
,  // measure 59
0000
0000
0000
0000
0001
0000
0100
0000
0020
0000
0000
0030
0200
0000
0000
0300
,  // measure 60
0001
0100
0001
1000
0002
0003
1000
0010
,  // measure 61
2000
0000
0000
3000
0002
0000
0000
0003
0010
0000
0100
0000
0010
0000
0200
0000
,  // measure 62
0300
0000
1000
0000
0001
0000
2000
0000
0000
3000
0000
0000
0000
0000
0000
0000
,  // measure 63
0000
0001
1000
0010
2000
3000
0010
0100
,  // measure 64
0020
0030
1000
0001
2000
3000
0001
0010
,  // measure 65
0001
2000
3000
1000
0100
1000
0100
0020
,  // measure 66
0030
0000
0001
0000
1000
0000
0002
0000
0000
0003
0000
0000
0000
0000
0000
0000
;

//---------------dance-single - ----------------
#NOTES:
     dance-single:
     :
     Medium:
     8:
     0.301198,0.326094,0.007530,0.376498,0.003765,280.000000,279.000000,1.000000,50.000000,0.000000,0.000000,0.301198,0.326094,0.007530,0.376498,0.003765,280.000000,279.000000,1.000000,50.000000,0.000000,0.000000:
// measure 0
0000
0000
0000
0000
,  // measure 1
0000
0000
0000
0000
,  // measure 2
0000
0000
0000
0000
,  // measure 3
0001
1000
0010
0010
,  // measure 4
1000
0000
1000
0000
0100
0010
0000
0010
,  // measure 5
0001
0001
0010
0010
,  // measure 6
0001
0000
1000
0000
1000
0100
0000
1000
,  // measure 7
0000
1000
0001
1000
0000
0001
0010
0000
,  // measure 8
0020
0030
0200
0300
2000
3000
0001
0100
,  // measure 9
0000
0100
0000
0001
1000
0001
1000
0000
,  // measure 10
0002
0100
0103
0000
,  // measure 11
0000
0000
2000
3000
0020
0030
0200
0300
,  // measure 12
0001
0100
0001
0000
0100
0000
0001
1000
,  // measure 13
0001
0000
0100
0000
0001
0100
0001
0100
,  // measure 14
0000
0100
0001
1000
0000
0000
0000
0000
,  // measure 15
0000
1000
0001
0000
1000
0000
0010
1000
,  // measure 16
0010
0000
0010
2000
0000
3000
0001
1000
,  // measure 17
0001
0100
0000
0001
0100
0000
0100
0001
,  // measure 18
0000
1000
0100
2000
0000
3000
0000
0000
,  // measure 19
2000
3001
0002
0013
,  // measure 20
0001
0000
0100
0000
0002
0000
0000
0003
1000
0000
0010
0000
1000
0000
0000
0000
,  // measure 21
1000
0000
0001
0000
0100
0000
0010
0000
0100
0000
0000
0001
0000
0000
0020
0000
,  // measure 22
0000
0030
0000
0000
0000
0001
1000
0000
,  // measure 23
1000
0010
0100
0000
0100
0000
0001
0000
,  // measure 24
0001
1000
0001
0000
0010
0000
0010
0000
,  // measure 25
0001
1000
0001
1000
0002
0000
0103
0000
,  // measure 26
0000
0000
0000
0101
0000
0000
0000
0000
,  // measure 27
0000
0000
2000
3000
0200
0300
0020
0030
,  // measure 28
0001
0010
0001
0000
1000
0000
0001
1000
,  // measure 29
0001
0000
0100
0000
0001
0100
0001
0100
,  // measure 30
0000
0100
0001
1000
0000
0000
0000
0000
,  // measure 31
0000
1000
0001
0000
1000
0000
0010
1000
,  // measure 32
0010
0000
0010
2000
0000
3000
0001
1000
,  // measure 33
0001
0100
0000
0001
0100
0000
0100
0001
,  // measure 34
0000
1000
0100
2000
0000
3000
0000
0000
,  // measure 35
0000
2000
0002
3003
,  // measure 36
0001
1000
0002
0000
2000
3003
0000
0000
,  // measure 37
0001
0000
0100
0000
0010
0000
0010
1000
,  // measure 38
0000
1000
0001
1000
0000
0000
0000
0000
,  // measure 39
1000
0002
0020
0033
,  // measure 40
0001
0010
0002
0000
0013
0000
0000
0000
,  // measure 41
0001
0000
1000
0000
0001
0000
0001
1000
,  // measure 42
0000
1000
0010
1000
0000
0000
0000
0000
,  // measure 43
2000
3000
0200
0300
0020
0030
0000
0010
,  // measure 44
0001
0000
0001
1000
0000
1000
0010
0000
,  // measure 45
2000
3000
0002
0003
0200
0300
0001
0000
,  // measure 46
1000
0000
0001
0000
1000
0000
0002
0000
0000
0003
0000
0000
0000
0000
0000
0000
,  // measure 47
0002
0003
0020
0030
0200
0300
0000
0100
,  // measure 48
1000
0000
1000
0010
0000
0010
1000
0000
,  // measure 49
2000
3000
0002
0003
0200
0300
0001
0000
,  // measure 50
1000
0001
1000
0002
0000
0003
0000
0000
,  // measure 51
0000
0001
1000
0100
,  // measure 52
1000
0100
1000
0000
0001
0000
1000
0000
,  // measure 53
0010
0000
0010
0000
1000
0000
1000
0001
,  // measure 54
0000
0001
0100
0002
0000
0003
0000
0000
,  // measure 55
0000
1000
0001
0000
1000
0000
1000
0000
,  // measure 56
0010
0000
0010
1000
0000
0000
1000
0001
,  // measure 57
1000
0000
0002
0000
0000
0000
0000
0003
0000
0000
0000
0000
0001
0000
1000
0000
,  // measure 58
0001
0000
2000
0000
0000
3000
0010
0000
1000
0000
0000
0000
2000
0000
0000
0000
,  // measure 59
3000
0000
0000
0000
0002
0000
0003
0000
2000
0000
3000
0000
0200
0000
0000
0300
,  // measure 60
1000
0100
1000
0000
0001
0000
1000
0001
,  // measure 61
1000
0000
0010
0000
1000
0000
1000
0010
,  // measure 62
0000
0010
1000
0010
0000
0000
0000
0000
,  // measure 63
0000
1000
0002
0003
2000
3000
0010
0100
,  // measure 64
0010
0000
0010
1000
0000
0000
1000
0001
,  // measure 65
1000
0001
0000
0001
0100
0000
0100
0010
,  // measure 66
0000
0010
1000
0020
0000
0030
0000
0000
;

//---------------dance-single - ----------------
#NOTES:
     dance-single:
     :
     Easy:
     5:
     0.202233,0.201050,0.007530,0.203309,0.000000,188.000000,187.000000,1.000000,27.000000,0.000000,0.000000,0.202233,0.201050,0.007530,0.203309,0.000000,188.000000,187.000000,1.000000,27.000000,0.000000,0.000000:
// measure 0
0000
0000
0000
0000
,  // measure 1
0000
0000
0000
0000
,  // measure 2
0000
0000
0000
0000
,  // measure 3
0001
1000
0010
0000
,  // measure 4
1000
1000
0100
0000
,  // measure 5
0010
0001
0010
0000
,  // measure 6
0001
1000
1001
0000
,  // measure 7
1000
0001
0001
0000
,  // measure 8
0010
0100
0010
0000
,  // measure 9
0100
0100
0100
0000
,  // measure 10
2000
0001
3001
0000
,  // measure 11
0000
1000
0010
1000
,  // measure 12
0001
0100
0001
0000
,  // measure 13
1000
0000
1000
0010
,  // measure 14
0100
0001
1000
0000
,  // measure 15
0000
0001
1000
0001
,  // measure 16
0100
0001
1000
0000
,  // measure 17
0001
0000
0100
0001
,  // measure 18
0100
0001
2000
3000
,  // measure 19
2000
3001
0002
0003
,  // measure 20
0020
0130
0100
0000
,  // measure 21
1000
0001
0100
0100
,  // measure 22
0002
0003
0000
0000
,  // measure 23
1000
1000
0020
0030
,  // measure 24
0100
0100
0002
0003
,  // measure 25
1000
0100
1000
0100
,  // measure 26
0000
0000
0000
0000
,  // measure 27
0000
1000
0001
1000
,  // measure 28
0001
0001
0001
0000
,  // measure 29
1000
0000
1000
0010
,  // measure 30
1000
0010
0100
0000
,  // measure 31
0001
0001
1000
0000
,  // measure 32
0010
0010
2000
3000
,  // measure 33
0001
0000
1000
0100
,  // measure 34
1000
0100
0020
0030
,  // measure 35
0000
0002
2000
3003
,  // measure 36
0001
0002
2000
3003
,  // measure 37
0001
0100
0010
0000
,  // measure 38
0100
0100
0100
0000
,  // measure 39
0001
2000
0002
3003
,  // measure 40
1000
0100
1000
0000
,  // measure 41
0001
0001
0001
0000
,  // measure 42
1000
0001
1000
0000
,  // measure 43
1000
0100
2000
3000
,  // measure 44
0001
0000
1000
0001
,  // measure 45
1000
0001
2000
3000
,  // measure 46
0001
0001
0002
0003
,  // measure 47
0001
0010
0002
0003
,  // measure 48
1000
0000
0010
1000
,  // measure 49
1000
0001
0200
0300
,  // measure 50
0001
0001
0002
0003
,  // measure 51
1000
1000
1000
0000
,  // measure 52
0001
0010
0001
0000
,  // measure 53
0001
0000
1000
0000
,  // measure 54
0001
1000
0200
0300
,  // measure 55
0000
1000
0010
0010
,  // measure 56
1000
1000
1000
0000
,  // measure 57
0002
0003
0000
0001
,  // measure 58
1000
2000
3010
0020
,  // measure 59
0030
1000
0010
1000
,  // measure 60
0001
0001
0001
0000
,  // measure 61
1000
0000
0001
0000
,  // measure 62
0100
0100
0100
0000
,  // measure 63
0001
1000
0001
1000
,  // measure 64
0010
0010
0010
0000
,  // measure 65
1000
0000
0100
0010
,  // measure 66
0100
0010
0200
0300
;

//---------------dance-single - ----------------
#NOTES:
     dance-single:
     :
     Beginner:
     2:
     0.149523,0.175918,0.000000,0.052710,0.000000,139.000000,139.000000,0.000000,7.000000,0.000000,0.000000,0.149523,0.175918,0.000000,0.052710,0.000000,139.000000,139.000000,0.000000,7.000000,0.000000,0.000000:
// measure 0
0000
0000
0000
0000
,  // measure 1
0000
0000
0000
0000
,  // measure 2
0000
0000
0000
0000
,  // measure 3
0001
0000
0001
0000
,  // measure 4
1000
0000
1000
0000
,  // measure 5
0010
0000
0010
0000
,  // measure 6
0100
0000
0100
0000
,  // measure 7
0001
0000
1000
0000
,  // measure 8
0001
0000
0001
0000
,  // measure 9
1000
0000
0100
0000
,  // measure 10
1000
0001
1000
0000
,  // measure 11
1000
0000
0010
0000
,  // measure 12
0100
0000
0010
0000
,  // measure 13
1000
0000
1000
0000
,  // measure 14
0001
0001
0001
0000
,  // measure 15
1000
0000
1000
0000
,  // measure 16
0001
0000
1000
0000
,  // measure 17
0010
0000
0010
0000
,  // measure 18
1000
0001
1000
0000
,  // measure 19
1000
0000
0001
0000
,  // measure 20
1000
0000
0001
0000
,  // measure 21
0100
0000
0100
0000
,  // measure 22
0020
0030
0000
0000
,  // measure 23
1000
1000
2000
3000
,  // measure 24
0001
0001
0002
0003
,  // measure 25
1000
1000
2000
0000
,  // measure 26
3000
0000
0001
0000
,  // measure 27
0000
0000
0010
0000
,  // measure 28
0100
0000
0100
0000
,  // measure 29
0001
0000
1000
0000
,  // measure 30
0001
0001
0001
0000
,  // measure 31
0001
0000
0010
0000
,  // measure 32
0100
0000
0010
0000
,  // measure 33
0001
0000
1000
0000
,  // measure 34
1000
0001
1000
0000
,  // measure 35
0001
0000
0001
0000
,  // measure 36
0100
0000
0100
0000
,  // measure 37
0001
0000
0100
0000
,  // measure 38
0010
0100
0010
0000
,  // measure 39
1000
0000
0001
0000
,  // measure 40
1000
0000
0010
0000
,  // measure 41
1000
0000
0100
0000
,  // measure 42
1000
0001
1000
0000
,  // measure 43
1000
1000
0001
0000
,  // measure 44
0001
0000
1000
0000
,  // measure 45
0010
0000
0100
0000
,  // measure 46
0010
0000
1000
0000
,  // measure 47
1000
1000
0001
0000
,  // measure 48
1000
0000
0010
0000
,  // measure 49
0100
0000
0100
0000
,  // measure 50
0001
1000
0002
0003
,  // measure 51
1000
0000
1000
0000
,  // measure 52
0001
0001
0001
0000
,  // measure 53
1000
0000
0010
0000
,  // measure 54
0010
0000
1000
0000
,  // measure 55
0000
0000
0010
0000
,  // measure 56
1000
0000
1000
0000
,  // measure 57
0002
0003
0000
0000
,  // measure 58
0100
0000
0100
0000
,  // measure 59
0001
0000
1000
0000
,  // measure 60
0001
0000
0001
0000
,  // measure 61
1000
0000
0001
0000
,  // measure 62
1000
0001
1000
0000
,  // measure 63
0100
0000
1000
0000
,  // measure 64
0100
0000
1000
0000
,  // measure 65
1000
0000
0001
0000
,  // measure 66
1000
0001
2000
3000
;
