#TITLE:Vile Requiem;
#SUBTITLE:;
#ARTIST:GOTH;
#TITLETRANSLIT:;
#SUBTITLETRANSLIT:;
#ARTISTTRANSLIT:;
#GENRE:;
#CREDIT:;
#MUSIC:03. GOTH - Vile Requiem.mp3;
#BANNER:Vile Requiem-bn.png;
#BACKGROUND:Vile Requiem-bg.png;
#CDTITLE:;
#SAMPLESTART:33.066;
#SAMPLELENGTH:13.600;
#SELECTABLE:YES;
#OFFSET:-0.266;
#BPMS:0.000=150.000
,313.000=149.000
,316.000=140.000
,318.000=130.000
,320.000=120.000
,321.000=110.000
,322.000=100.000
,323.000=66.000
;
#STOPS:;
#BGCHANGES:;
#FGCHANGES:;

//--------------- dance-single - Highflyer ----------------
#NOTES:
     dance-single:
     Highflyer:
     Easy:
     5:
     0,0,0,0,0:
0000
0000
0000
0000
,
0000
0000
0000
0000
,
2000
0000
0000
0000
,
3020
0000
0230
0000
,
0302
0000
0000
0000
,
0023
0000
0230
0000
,
0320
0000
0000
0000
,
0032
0000
0203
0000
,
0320
0000
2030
0000
,
3002
0000
0000
0000
,
0023
0000
0000
0000
,
0000
0000
0000
0000
,
0030
0000
0000
0000
,
1001
0000
1000
1000
,
1010
0000
1000
0001
,
0011
0000
1000
1000
,
1100
0000
0100
0010
,
1001
0000
0001
0001
,
0101
0000
0100
0010
,
1010
0000
0010
0010
,
0110
0000
0000
0000
,
1000
1000
0100
0010
,
0001
0001
1000
0010
,
0100
0100
0010
1000
,
0001
0001
0010
0000
,
0100
1000
0001
1000
,
0010
0100
0001
0010
,
0100
1000
0010
0100
,
0002
0000
2000
3003
,
0110
0000
2000
0000
,
3001
0010
0200
0000
,
0310
0010
0002
0103
,
0020
1030
0002
0023
,
0130
0002
0203
0000
,
1300
0010
0200
0000
,
0301
0001
1000
1000
,
0100
0100
0010
0010
,
0200
0301
0200
1300
,
1000
0010
0200
0302
,
2003
0100
3001
0200
,
0310
2000
3100
0100
,
1002
0003
1000
0020
,
0130
0200
0301
0002
,
0023
0000
0000
0000
,
0000
0000
0000
0000
,
0230
0000
1000
0000
,
0320
0000
0100
0000
,
0032
0000
0100
0000
,
2003
0000
0010
0000
,
3002
0000
0010
0000
,
0203
0000
0320
2030
,
3200
0000
1000
0000
,
0320
0000
0001
0001
,
0032
0000
0100
0000
,
2003
0000
0010
0000
,
3002
0000
0100
1000
,
0023
0000
0100
0000
,
0031
1000
0010
0100
,
0010
1000
0100
0010
,
0001
1000
0010
0100
,
0010
0010
0010
0010
,
1001
0000
2000
0000
,
0000
0000
3200
0000
,
0310
0010
0002
0100
,
0003
0100
0020
2030
,
3200
0010
2300
0000
,
3020
0000
0230
0010
,
0301
0001
1000
1000
,
0100
0100
0020
0000
,
0230
0302
0103
1000
,
1000
0010
0200
0302
,
0023
2030
3010
0020
,
0230
2300
3020
0000
,
0230
2300
3100
0001
,
0001
0020
0130
0020
,
0031
0001
1000
1000
,
0010
0000
0000
0000
,
0100
0000
0000
0000
,
0010
0000
0000
0000
,
1000
0000
0000
0000
,
0001
0000
0000
0000
,
0010
0000
0000
0000
;

//--------------- dance-single - Highflyer ----------------
#NOTES:
     dance-single:
     Highflyer:
     Hard:
     14:
     0,0,0,0,0:
0000
0000
0000
0000
,
0000
0000
0000
0000
,
1000
0100
0010
0001
0010
0100
1000
0010
,
0001
0010
0100
0010
0001
0010
1000
0100
,
0001
0100
0010
0001
1000
0001
0010
0100
,
0001
0100
1000
0010
0001
0010
1000
0100
,
0001
0100
0010
0001
1000
0001
0100
0010
,
0001
0010
0100
0010
0001
0010
1000
0100
,
0001
1000
0010
0001
1000
0001
0010
1000
,
0001
0100
1000
0001
0100
0010
1000
0010
,
0200
0000
0000
0010
,
0001
0000
0000
0000
,
0300
0000
0000
0000
,
1001
0000
0000
0001
0000
0000
0010
0000
0001
0000
0100
0000
1000
0000
0100
0000
,
0001
0000
0000
0001
0000
0000
1000
0000
0001
0000
0010
0000
0100
0000
0001
0000
,
0100
0000
0000
0100
0000
0000
1000
0000
0001
0000
0010
0000
1000
0000
0010
0000
,
0001
0000
0000
0001
0000
0000
1000
0000
0010
0000
0100
0000
1000
0000
0100
0000
,
0001
0000
1000
0001
0000
1000
0001
0000
0010
0000
0100
0000
0001
0000
0100
0000
,
1000
0000
0010
0100
0000
0010
0100
0000
0010
0000
1000
0000
0010
0000
0001
0000
,
0010
0000
0100
0001
0000
0100
0001
0000
1000
0000
0100
0000
0010
0000
1000
0000
,
0010
0000
0001
1000
0000
0001
1000
0000
0000
0000
0000
0000
0000
0000
0000
0000
,
0001
0000
0100
0010
0000
0100
1000
0000
0100
0000
0001
0000
0010
0000
0100
0000
,
1000
0000
0100
0010
0000
0100
0001
0000
0100
0000
1000
0001
1000
0000
0010
0000
,
1000
0000
0010
0100
0000
0010
0001
0000
0010
0000
1000
0000
0100
0000
0010
0000
,
0001
0000
0010
0100
0000
0010
1000
0000
0010
0000
0001
1000
0000
0000
0000
0000
,
0001
0000
0100
0010
0000
1000
0100
0000
1000
0000
0010
0100
0000
0001
0010
0000
,
0001
0000
0100
0010
0000
1000
0100
0000
1000
0000
0010
0100
0000
0001
0010
0000
,
0100
0000
1000
0000
0001
0000
0100
0000
0010
1000
0010
1000
0001
0010
0001
0010
,
0200
0000
0000
0300
,
0010
0001
0100
0000
0020
0000
0000
0000
,
1030
0100
1000
0001
0100
0010
2000
0000
0000
0001
0000
0000
,
3100
0000
0000
0010
0000
0000
0100
0000
0000
0000
1000
0000
0010
0000
0100
0000
0001
0000
0010
0000
0200
0000
0300
0000
,
0010
0001
1000
0010
0200
0300
0002
0000
0000
2003
0000
0000
,
3001
0000
0000
0010
0000
0000
0001
0000
0000
0000
0000
0000
2000
0000
0000
0000
0000
0000
3010
0000
0100
0000
0001
0000
,
0010
0001
0100
0010
1000
0100
0020
0000
0000
0100
0000
0000
,
0032
0000
0000
0000
0203
0000
0000
0000
0320
0000
0000
0000
2030
0000
0000
3000
,
1100
1001
0101
0110
,
2010
0000
0000
3200
0000
0000
0320
0000
0000
0130
1000
0001
,
0100
0010
1000
0100
0010
0001
0100
0010
0100
0001
0010
0100
,
2000
0000
0000
3002
0000
0000
0103
0010
1000
0001
0010
0001
,
0100
0010
1000
0001
0100
0001
0010
0100
1000
0010
0100
1000
,
0200
0000
0000
0302
0000
0000
0023
0000
0000
0031
0100
1000
,
0100
0010
0100
0001
0010
1000
0010
0001
1000
0020
0000
0000
,
0230
0000
0000
0000
,
0000
0000
0000
0000
0310
1000
0001
0010
,
0200
0000
0010
0000
1000
0000
0310
0001
,
0200
0000
0010
0000
0001
0301
0000
1000
,
0020
0000
0100
0000
1000
0000
0130
0001
,
2000
0000
3100
1000
0002
0000
0100
0000
,
2003
0000
0100
0000
0001
0000
3010
0100
,
0002
0000
0010
0000
0203
0000
0310
1000
,
0002
0000
0100
0000
0010
0000
1003
0001
,
0020
0000
0130
1000
0001
0100
0001
0000
,
1001
0000
0001
0000
0100
0000
0010
0000
1000
0000
0002
0000
0000
0010
0000
0000
,
1003
0010
0100
0001
1000
0100
0010
0100
,
1000
0000
0001
0000
0100
0000
0010
0000
1000
0000
0002
0000
0000
0100
0000
0000
,
1003
0100
1000
0001
0200
0000
0310
1000
,
0100
0010
0100
1000
0001
0100
0001
1000
,
0200
0000
0310
0100
1000
0001
0100
0010
,
1000
0100
1000
0001
0100
0010
1000
0001
,
0010
0100
0010
0001
1000
0010
0100
0010
1000
0001
0010
0100
,
2000
0000
0000
0010
0000
0000
3002
0000
0000
0003
0000
0000
2000
0000
0000
0000
0000
0000
3000
0000
0100
0000
0000
0000
,
0010
0000
0100
0000
1000
0010
0200
0000
0000
0000
0000
0000
,
0310
0000
0000
1000
0000
0000
0001
0000
0000
0000
0010
0000
0100
0000
1000
0000
0001
0000
1000
0000
0020
0000
0030
0000
,
0100
0001
1000
0001
0020
0130
2000
0000
0000
3002
0000
0000
,
0203
0000
0000
0010
0000
0000
0302
0000
0000
0000
0000
0000
0023
0000
0000
0000
0000
0000
0130
0000
1000
0000
0100
0000
,
0010
0000
0000
0000
0000
0000
0000
0000
0001
0000
0000
0000
0000
0000
0000
0000
1000
0000
0000
0000
0000
0000
0000
0000
0010
0000
0000
0000
0000
0000
0000
0000
0100
0000
0000
0000
0000
0000
0000
0000
0001
0000
0000
0000
0000
0000
0000
0000
0020
0000
0000
0000
0000
0000
0000
0000
0000
0000
0000
0000
0000
0000
0000
0000
0000
0000
0000
0000
0000
0000
0000
0000
0230
0000
0000
0000
0000
0000
0000
0000
0000
0000
0000
0000
0000
0000
0000
0000
0000
0000
0000
0300
0000
0000
0000
0000
,
1100
1001
0101
0110
,
1010
0000
0000
1001
0000
0000
0001
0010
0001
0100
0010
1000
,
0200
0000
0000
0010
0000
0000
1300
0000
0000
0000
0000
0000
1001
0000
0000
0000
0000
0000
0001
0000
0100
0000
0001
0000
,
0100
0010
1000
0100
0010
0100
0010
0001
0100
0001
0010
0100
,
0002
0000
0000
0203
0000
0000
1300
0001
1000
0010
0100
0001
,
0010
0100
1000
0100
0010
0001
1000
0001
0100
1000
0100
0001
,
2000
0000
0000
3200
0000
0000
0310
0000
0000
0100
1000
0001
,
0200
0000
0300
0000
0010
0000
0100
0000
0001
0000
0010
0000
0200
0000
0300
0000
1000
0000
0002
0000
0000
0000
0000
0003
,
0101
0011
1010
1100
,
2002
0000
0000
3003
,
1000
0100
0010
0001
,
1000
0010
0100
0001
,
1000
0100
1000
0001
,
0100
0010
1000
0100
,
0020
0030
0000
0000
;

//--------------- dance-single - Highflyer ----------------
#NOTES:
     dance-single:
     Highflyer:
     Challenge:
     17:
     0,0,0,0,0:
0000
0000
0000
0000
,
0000
0000
MMMM
0000
,
1002
1000
0013
0100
1000
0001
0100
0010
,
2000
0100
3001
0100
0020
0100
1030
0001
,
0020
0100
0031
1000
0001
0100
0010
1000
,
0200
0010
1300
0001
0200
0010
0301
1000
,
0002
0010
1003
0010
0100
0001
0010
0100
,
2000
0000
0010
0000
3001
0000
0010
0000
0100
1000
0100
0000
1000
0000
0010
0000
,
0100
0000
0001
0000
0100
0000
0001
0000
0100
0000
0001
0000
0100
0000
0001
0000
0100
0000
0001
0000
0100
0000
0001
0000
1000
0000
0000
0100
0000
0000
1000
0000
0000
0001
0000
0000
0100
0000
0000
0010
0000
0000
1000
0000
0000
0100
0000
0000
,
0010
0001
1000
0001
0100
0010
1000
0100
,
0020
0000
0000
0000
0000
0000
0000
0000
0000
0000
0000
0000
0000
0000
0000
0000
0000
0000
0000
0000
0000
0000
0000
0000
0000
0000
0000
0000
0000
0000
0000
0000
0000
0000
0000
0000
0130
0000
0000
1000
0000
0000
0001
0000
0100
0000
0001
0000
,
0200
0000
0000
0000
,
0000
0000
0300
0M00
0000
0000
0000
0000
0000
0000
0000
0000
,
1001
0000
1000
0100
0000
1000
0100
0000
1000
0000
0010
0000
0001
0000
0010
0000
,
1000
0000
0001
0010
0000
0001
0010
0000
0100
0000
1000
0010
1000
0100
0010
0000
,
0001
0000
0100
0010
0000
0100
0010
0000
1000
0000
0010
0000
0001
0000
0010
0000
,
1000
0000
0100
0010
0000
0100
0010
0000
0001
0000
1000
0010
0100
0010
1000
0000
,
1001
0000
1000
0100
0000
1000
0100
0000
0010
0000
0100
0000
0001
0000
0100
0000
,
1000
0000
0001
0100
0000
0001
0100
0000
0010
0000
0100
0001
1000
0001
0100
0000
,
0010
0000
1000
0001
0000
1000
0001
0000
0100
0000
0010
0000
0001
0000
0010
0000
,
1000
0000
0010
0100
0000
0010
0100
0000
MMMM
0000
0000
0000
MMMM
0000
0000
0000
,
1001
0000
1000
0100
0000
1000
0002
0000
0100
0000
2003
0000
0100
0000
3001
0000
,
0101
0000
0100
0010
0000
1000
0001
0000
0010
0000
0100
1000
0001
0100
0010
0000
,
0110
0000
0100
0010
0000
0100
0002
0000
0010
0000
2003
0000
0010
0000
3001
0000
,
1001
0000
1000
0100
0000
0010
0100
0000
1000
0000
0001
0100
MMMM
0000
0000
0000
,
1001
0000
0001
0100
0000
0001
0010
0100
1000
0000
0001
0010
0000
0001
0100
0010
,
1000
0000
0010
0100
0000
0010
1000
0001
0010
0000
0100
0010
0000
0100
1000
0001
,
0100
0000
0000
0010
0000
0000
0100
0000
0000
0001
0000
0000
1000
0000
0000
0100
0000
0000
0010
0000
0000
0001
0000
0000
1000
0000
0000
0001
0000
0000
0100
0000
0000
0010
0000
0000
1000
0000
0001
0000
0010
0000
0001
0000
1000
0000
0010
0000
,
0200
0000
0000
0000
0000
0000
0000
0000
0000
0000
0310
1000
0001
0000
0010
0000
0100
0000
1000
0000
0010
0000
1000
0000
,
1001
0001
MMMM
0000
0002
0000
0000
0000
,
1003
0100
0010
0001
0010
0100
2000
0000
0000
3020
0000
0000
,
0130
0000
0000
0000
0000
0000
0000
0000
0000
0000
0000
0000
0001
0000
0000
0000
0000
0000
0000
0000
0000
0000
0000
0000
0010
0000
0000
0000
0000
0000
0000
0000
0000
0000
0000
0000
0000
0000
0000
0100
0000
0000
0000
0000
1000
0000
0000
0000
0001
0000
0000
0000
0000
0000
0000
0000
0100
0000
0000
0000
0000
0000
0000
0000
0010
0000
0000
0000
0000
0000
0000
0000
1000
0000
0000
0000
0000
0000
0000
0000
0100
0000
0000
0000
0000
0000
0000
0000
0002
0000
0000
0000
0000
0000
0000
0000
,
0003
0100
1000
0010
0100
2000
3100
0000
0001
2000
0000
0000
,
3100
0000
0010
0001
0100
0000
0020
0000
0000
0130
0001
1000
,
0001
0000
0010
0000
1000
0000
0010
0000
0001
0000
1000
0010
0200
0000
0000
0000
0000
0000
0302
0000
0000
0003
0000
0000
,
2001
0000
0000
0000
0000
0000
3200
0000
0000
0000
0000
0000
0320
0000
0000
0000
0000
0000
0032
0000
0000
0000
0000
0003
,
2002
0000
0000
0000
0000
3003
2020
0000
0000
0000
0000
3030
0220
0000
0000
0000
0000
0330
0202
0000
0000
0000
0000
0303
,
2001
0000
0000
3200
0000
0000
0310
0000
0000
0100
1000
0001
,
0100
0000
0010
0100
0010
1000
0001
0000
0010
0000
0100
0000
1000
0000
0001
0100
0001
1000
0100
0000
1000
0000
0100
0000
,
0002
0000
0000
0000
0000
0000
0203
0000
0000
0000
0000
0000
0310
0000
0001
0000
1000
0000
0010
0000
0100
0001
0100
0010
,
1000
0000
0001
0000
0010
0000
0100
0000
1000
0001
0100
0001
1000
0000
0010
0000
0001
0000
0010
0000
0100
0000
1000
0000
,
0200
0000
0000
0000
0000
0000
0302
0000
0000
0000
0000
0000
2003
0000
0000
0000
0000
0000
3100
0010
0100
0010
0001
1000
,
0001
0000
0100
0000
0010
0000
1000
0100
1000
0100
0010
0001
1000
0000
0010
0000
0100
0000
0002
0000
0000
0000
0000
0000
,
0023
0000
0000
0000
,
0000
0000
0000
0000
0000
0000
0130
1000
0001
0100
0010
0100
,
0002
0000
0010
0000
0103
0000
0010
1000
,
0002
0000
0010
0000
1003
0100
0000
0010
,
0200
0000
0010
0000
1300
0000
0001
0100
,
0010
0000
1000
0100
0010
0000
0010
0000
,
0200
0000
0010
0000
1300
0000
0001
1000
,
0020
0000
0100
0000
2030
0000
3001
0010
,
0200
0000
0000
0000
0010
0000
0000
0000
1300
0000
0000
0001
0000
0000
0100
0000
,
0010
0000
0000
1000
0100
0100
0010
0000
,
0001
1000
0010
0000
0100
0010
1000
0000
,
0001
0010
0100
0000
0010
0001
1000
0000
,
0010
0100
0001
0000
1000
0100
0010
0000
,
0100
1000
0001
0000
0100
0010
1000
0000
,
0001
0010
0001
1000
0010
0100
0010
1000
,
0001
0010
0001
1000
0001
0100
1000
0100
,
0001
0010
0100
1000
0001
0100
0010
1000
,
0100
0010
0001
1000
0010
0100
0010
1000
0001
0010
0100
1000
,
0001
0000
0000
0100
0000
0000
1000
0000
0000
0000
0000
0000
0200
0000
0000
0000
0000
0000
0000
0000
0310
0000
0000
0000
,
1000
0000
0000
0000
0001
0000
0000
0000
0010
0000
0100
1000
0002
0000
0000
0000
0000
0000
0000
0000
0000
0000
0000
0000
,
0103
0000
0000
0010
0000
0000
1000
0000
0000
0000
0001
0000
0010
0000
0000
0000
0001
0000
0100
0000
2000
0000
3000
0000
,
0200
0301
1000
0100
0001
0100
2000
0000
3010
0200
0000
0000
,
0301
0000
0000
0100
0000
0000
0020
0000
0000
0000
0000
0000
2030
0000
0000
0000
0000
0000
3001
0000
0100
0000
0010
0000
,
1000
0000
0100
0000
1000
0000
0010
0000
0100
0000
0001
1000
0002
0000
0000
0000
0000
0000
0023
0000
0000
0000
0000
0030
,
0220
0000
0000
0000
0000
0330
2200
0000
0000
0000
0000
3300
2002
0000
0000
0000
0000
3003
0202
0000
0000
0000
0000
0303
,
0220
0000
0000
0000
0000
0330
2020
0000
0000
0000
0000
3030
1000
0100
1000
0100
1000
0001
1000
0001
0100
0001
0100
0010
,
0200
0000
0000
0302
0000
0000
0013
0000
0000
0100
1000
0001
,
0100
0000
0010
1000
0010
0100
0001
0000
1000
0000
0100
0000
0010
0000
0100
1000
0100
1000
0001
0000
0010
0000
1000
0000
,
0020
0000
0000
0000
0000
0000
0230
0000
0000
0000
0000
0000
1300
0000
0001
0000
0100
0000
0010
0000
1000
0001
1000
0001
,
0010
0000
0100
0000
0010
0000
0001
0000
1000
0010
1000
0010
0100
0000
0001
0000
1000
0000
0100
0000
0001
0000
1000
0000
,
0020
0000
0000
0230
0000
0000
2300
0000
0000
3001
0100
0010
,
1000
0000
0000
0000
0000
0000
0000
0000
0000
0000
0000
0000
0000
0000
0000
0000
0001
0000
0000
0000
0000
0000
0000
0000
0010
0000
0000
0000
0100
0000
0000
0000
0010
0000
0000
0000
0001
0000
0000
0000
1000
0000
0000
0000
0010
0000
0000
0000
0100
0000
0000
0000
0000
0000
0000
0000
0000
0000
0000
0000
0000
0000
0000
0000
0010
0000
0000
0000
0000
0000
0000
0000
2000
0000
0000
0000
0000
0000
0000
0000
0000
0000
0000
0000
0000
0000
0000
0000
0000
0000
0000
3000
0000
0000
0000
0000
,
1001
0000
0000
0011
0000
0000
0001
0100
0010
1010
0000
0000
,
MMMM
0000
0000
0000
,
1001
1000
0010
0100
,
0001
0010
0100
1000
,
0001
0100
0010
1000
,
0001
0010
0001
1000
,
0020
0000
0000
0030
;

//--------------- dance-single - ----------------
#NOTES:
     dance-single:
     :
     Edit:
     1:
     0,0,0,0,0:
0000
0000
0000
0000
;
