#VERSION:0.83;
#TITLE:Undertale the Musical;
#SUBTITLE:;
#ARTIST:LHUGUENY;
#TITLETRANSLIT:;
#SUBTITLETRANSLIT:;
#ARTISTTRANSLIT:;
#GENRE:;
#ORIGIN:;
#CREDIT:;
#BANNER:Undertale the Musical.png;
#BACKGROUND:Undertale the Musical-bg.png;
#PREVIEWVID:;
#JACKET:Undertale the Musical-jacket.png;
#CDIMAGE:;
#DISCIMAGE:;
#LYRICSPATH:;
#CDTITLE:;
#MUSIC:Undertale the Musical.ogg;
#OFFSET:0.001000;
#SAMPLESTART:55.678001;
#SAMPLELENGTH:15.360000;
#SELECTABLE:YES;
#BPMS:0.000=125.000;
#STOPS:;
#DELAYS:;
#WARPS:;
#TIMESIGNATURES:0.000=4=4;
#TICKCOUNTS:0.000=4;
#COMBOS:0.000=1;
#SPEEDS:0.000=1.000=0.000=0;
#SCROLLS:0.000=1.000;
#FAKES:;
#LABELS:0.000=Song Start;
#BGCHANGES:0.000=Undertale the Musical.mp4=1.000=0=0=0=StretchNoLoop====,
99999=-nosongbg-=1.000=0=0=0 // don't automatically add -songbackground-
;
#KEYSOUNDS:;
#ATTACKS:
;

//---------------dance-single - ----------------
#NOTEDATA:;
#CHARTNAME:;
#STEPSTYPE:dance-single;
#DESCRIPTION:;
#CHARTSTYLE:;
#DIFFICULTY:Beginner;
#METER:1;
#RADARVALUES:0.040797,0.074335,0.000000,0.033598,0.000000,34.000000,34.000000,0.000000,4.000000,0.000000,0.000000,0.000000,0.000000,0.000000,0.040797,0.074335,0.000000,0.033598,0.000000,34.000000,34.000000,0.000000,4.000000,0.000000,0.000000,0.000000,0.000000,0.000000;
#CREDIT:chrononical;
#NOTES:
// measure 0
0000
0000
0000
0000
,  // measure 1
0000
0000
0000
0000
,  // measure 2
0000
0000
0000
0000
,  // measure 3
0000
0000
0000
0000
,  // measure 4
0000
0000
0000
0000
,  // measure 5
1000
0000
0000
0000
,  // measure 6
0000
0000
0000
0000
,  // measure 7
0001
0000
0000
0000
,  // measure 8
0000
0000
0000
0000
,  // measure 9
1000
0000
0000
0000
,  // measure 10
1000
0000
0000
0000
,  // measure 11
0001
0000
0000
0000
,  // measure 12
0001
0000
0000
0000
,  // measure 13
0200
0000
0000
0000
,  // measure 14
0300
0000
0000
0000
,  // measure 15
0020
0000
0000
0000
,  // measure 16
0030
0000
0000
0000
,  // measure 17
1000
0000
0000
0000
,  // measure 18
1000
0000
0000
0000
,  // measure 19
0001
0000
0000
0000
,  // measure 20
0001
0000
0000
0000
,  // measure 21
0020
0000
0000
0000
,  // measure 22
0030
0000
0000
0000
,  // measure 23
0200
0000
0000
0000
,  // measure 24
0300
0000
0000
0000
,  // measure 25
1000
0000
0000
0000
,  // measure 26
0000
0000
0000
0000
,  // measure 27
0000
0000
0000
0000
,  // measure 28
0000
0000
0000
0000
,  // measure 29
0001
0000
0000
0000
,  // measure 30
0100
0000
0000
0000
,  // measure 31
0001
0000
0000
0000
,  // measure 32
0000
0000
0000
0000
,  // measure 33
1000
0000
0000
0000
,  // measure 34
0100
0000
0000
0000
,  // measure 35
1000
0000
0000
0000
,  // measure 36
0000
0000
0000
0000
,  // measure 37
0100
0000
0000
0000
,  // measure 38
0100
0000
0000
0000
,  // measure 39
0100
0000
0000
0000
,  // measure 40
0100
0000
0000
0000
,  // measure 41
1000
0000
0000
0000
,  // measure 42
0000
0000
0000
0000
,  // measure 43
0000
0000
0000
0000
,  // measure 44
0000
0000
0000
0000
,  // measure 45
0001
0000
0000
0000
,  // measure 46
0000
0000
0000
0000
,  // measure 47
0000
0000
0000
0000
,  // measure 48
0000
0000
0000
0000
,  // measure 49
1000
0000
0000
0000
,  // measure 50
0000
0000
0000
0000
,  // measure 51
0000
0000
0000
0000
,  // measure 52
0000
0000
0000
0000
,  // measure 53
0001
0000
0000
0000
,  // measure 54
0010
0000
0000
0000
,  // measure 55
0001
0000
0000
0000
,  // measure 56
0000
0000
0000
0000
,  // measure 57
1000
0000
0000
0000
,  // measure 58
0010
0000
0000
0000
,  // measure 59
1000
0000
0000
0000
;

//---------------dance-single - ----------------
#NOTEDATA:;
#CHARTNAME:;
#STEPSTYPE:dance-single;
#DESCRIPTION:;
#CHARTSTYLE:;
#DIFFICULTY:Easy;
#METER:3;
#RADARVALUES:0.117593,0.178594,0.008399,0.033598,0.000000,98.000000,97.000000,1.000000,4.000000,0.000000,0.000000,0.000000,0.000000,0.000000,0.117593,0.178594,0.008399,0.033598,0.000000,98.000000,97.000000,1.000000,4.000000,0.000000,0.000000,0.000000,0.000000,0.000000;
#CREDIT:chrononical;
#NOTES:
// measure 0
0000
0000
0000
0000
,  // measure 1
0000
0000
0000
0000
,  // measure 2
0000
0000
0000
0000
,  // measure 3
0000
0000
0000
0000
,  // measure 4
0000
0000
0000
0000
,  // measure 5
0001
0000
0010
0000
,  // measure 6
0001
0000
0100
0000
,  // measure 7
0001
0000
0010
0000
,  // measure 8
0001
0000
0000
0000
,  // measure 9
1000
0000
1000
0000
,  // measure 10
1000
0000
0000
0000
,  // measure 11
0010
0000
0010
0000
,  // measure 12
0010
0000
0000
0000
,  // measure 13
2000
0000
0000
3000
,  // measure 14
0001
0000
1000
0000
,  // measure 15
0002
0000
0000
0003
,  // measure 16
1000
0000
0000
0000
,  // measure 17
0001
0000
0001
0000
,  // measure 18
0001
0000
0000
0000
,  // measure 19
0010
0000
0010
0000
,  // measure 20
0010
0000
0000
0000
,  // measure 21
0002
0000
0000
0003
,  // measure 22
1000
0000
0001
0000
,  // measure 23
2000
0000
0000
3000
,  // measure 24
0001
0000
0000
0000
,  // measure 25
1000
0000
0001
0000
,  // measure 26
1000
0000
0001
0000
,  // measure 27
1000
0000
0001
0000
,  // measure 28
1000
0000
0000
0000
,  // measure 29
0001
0000
0010
0000
,  // measure 30
0001
0000
0010
0000
,  // measure 31
0100
0000
1000
0000
,  // measure 32
0100
0000
1000
0000
,  // measure 33
1000
0000
0010
0000
,  // measure 34
1000
0000
0010
0000
,  // measure 35
0100
0000
0001
0000
,  // measure 36
0100
0000
0001
0000
,  // measure 37
1000
0001
0000
0001
,  // measure 38
1000
0001
0000
0001
,  // measure 39
1000
0001
0000
0001
,  // measure 40
1000
0001
0000
0001
,  // measure 41
1000
0000
0001
0000
,  // measure 42
1000
0000
0001
0000
,  // measure 43
1000
0000
0001
0000
,  // measure 44
1000
0000
0001
0000
,  // measure 45
1000
0000
0000
0000
,  // measure 46
0100
0000
0000
0000
,  // measure 47
0010
0000
0000
0000
,  // measure 48
0001
0000
0000
0000
,  // measure 49
1000
0000
0000
0000
,  // measure 50
0010
0000
0000
0000
,  // measure 51
0100
0000
0000
0000
,  // measure 52
1001
0000
0000
0000
,  // measure 53
1000
0000
0100
0000
,  // measure 54
1000
0000
0100
0000
,  // measure 55
0010
0000
0001
0000
,  // measure 56
0010
0000
0001
0000
,  // measure 57
0001
0000
0100
0000
,  // measure 58
0001
0000
0100
0000
,  // measure 59
0010
0000
1000
0000
,  // measure 60
0010
0000
1000
0001
;

//---------------dance-single - ----------------
#NOTEDATA:;
#CHARTNAME:;
#STEPSTYPE:dance-single;
#DESCRIPTION:;
#CHARTSTYLE:;
#DIFFICULTY:Medium;
#METER:6;
#RADARVALUES:0.244785,0.280648,0.008399,0.117593,0.000000,204.000000,203.000000,1.000000,14.000000,0.000000,0.000000,0.000000,0.000000,0.000000,0.244785,0.280648,0.008399,0.117593,0.000000,204.000000,203.000000,1.000000,14.000000,0.000000,0.000000,0.000000,0.000000,0.000000;
#CREDIT:chrononical;
#NOTES:
// measure 0
0000
0000
0000
0000
,  // measure 1
0000
0000
0000
0000
,  // measure 2
0000
0000
0000
0000
,  // measure 3
0000
0000
0000
0000
,  // measure 4
0000
0000
0000
0000
,  // measure 5
1000
0010
1000
0000
,  // measure 6
0001
0010
0001
0000
,  // measure 7
1000
0100
1000
0000
,  // measure 8
0001
1000
0001
0000
,  // measure 9
1000
0100
0010
0100
,  // measure 10
0001
0100
0010
0000
,  // measure 11
0001
0100
0010
0100
,  // measure 12
1000
0100
0010
1000
,  // measure 13
0002
1000
0100
0013
,  // measure 14
0001
0010
0100
0000
,  // measure 15
2000
0001
0100
3010
,  // measure 16
1000
0010
0100
0000
,  // measure 17
0001
0100
0010
0100
,  // measure 18
1000
0100
0010
0000
,  // measure 19
1000
0100
0010
0100
,  // measure 20
0001
0100
0010
0001
,  // measure 21
2000
0001
0100
3010
,  // measure 22
1000
0010
0100
0000
,  // measure 23
0002
1000
0100
0013
,  // measure 24
0001
0010
0100
0000
,  // measure 25
1000
0001
1000
0001
,  // measure 26
1000
0001
1000
0001
,  // measure 27
1000
0001
1000
0001
,  // measure 28
1000
0001
1000
0000
,  // measure 29
0001
0010
1000
0010
,  // measure 30
0001
0100
1000
0100
,  // measure 31
0010
1000
0100
0010
,  // measure 32
0001
0000
1000
0000
0001
1000
0001
1000
,  // measure 33
0001
0100
1000
0100
,  // measure 34
0001
0010
1000
0010
,  // measure 35
0100
1000
0010
0100
,  // measure 36
0001
0000
1000
0000
0001
1000
0001
0000
,  // measure 37
1000
0010
1000
0001
,  // measure 38
1000
0100
1000
0001
,  // measure 39
1000
0010
1000
0001
,  // measure 40
1000
0100
0010
0001
,  // measure 41
1000
0001
1000
0001
,  // measure 42
1000
0001
1000
0001
,  // measure 43
1000
0001
1000
0001
,  // measure 44
1000
0001
1000
0000
,  // measure 45
0002
0000
0000
0000
,  // measure 46
0203
0000
0000
0000
,  // measure 47
0320
0000
0000
0000
,  // measure 48
2030
0000
0000
0000
,  // measure 49
3002
0013
0020
0130
,  // measure 50
0200
1300
2000
3001
,  // measure 51
2000
3010
0020
0130
,  // measure 52
1001
0000
0000
0000
,  // measure 53
1000
0010
0001
0010
,  // measure 54
1000
0100
0001
0100
,  // measure 55
0010
0001
0100
0010
,  // measure 56
1000
0000
0001
0000
1000
0001
1000
0001
,  // measure 57
1000
0100
0001
0100
,  // measure 58
1000
0010
0001
0010
,  // measure 59
0100
0001
0010
0100
,  // measure 60
1000
0000
0001
0000
1000
0001
1000
0000
;

//---------------dance-single - ----------------
#NOTEDATA:;
#CHARTNAME:;
#STEPSTYPE:dance-single;
#DESCRIPTION:;
#CHARTSTYLE:;
#DIFFICULTY:Hard;
#METER:11;
#RADARVALUES:0.416374,0.433728,0.075595,0.545966,0.000000,347.000000,338.000000,9.000000,65.000000,0.000000,0.000000,0.000000,0.000000,0.000000,0.416374,0.433728,0.075595,0.545966,0.000000,347.000000,338.000000,9.000000,65.000000,0.000000,0.000000,0.000000,0.000000,0.000000;
#CREDIT:chrononical;
#NOTES:
// measure 0
0000
0000
0000
0000
,  // measure 1
0000
0000
0000
0000
,  // measure 2
0000
0000
0000
0000
,  // measure 3
0000
0000
0000
0000
,  // measure 4
0000
0000
0000
0000
,  // measure 5
0001
0000
0100
0000
1000
0100
0001
1000
,  // measure 6
0000
1000
0000
0100
0001
0100
1000
0001
,  // measure 7
1000
0000
0010
0000
0001
0010
1000
0001
,  // measure 8
0000
0001
0010
0200
0010
0000
1300
0000
,  // measure 9
0100
1000
0100
0010
0001
0200
0000
0310
,  // measure 10
0001
0010
0100
0010
1000
0000
0001
1000
,  // measure 11
0100
1000
0100
0010
0001
0100
0010
0100
,  // measure 12
1000
0100
0010
0100
0001
0020
0230
2300
,  // measure 13
3002
0000
1000
0000
0010
0000
0103
0001
,  // measure 14
2000
0000
3020
0000
0130
0001
0010
0001
,  // measure 15
2000
0000
0001
0000
0100
0000
3010
1000
,  // measure 16
0001
0000
1000
0001
0010
0000
0100
0000
,  // measure 17
1000
0100
0010
0100
1000
0001
1000
0010
,  // measure 18
0100
0010
1000
0200
0000
0000
0310
0000
,  // measure 19
0001
0010
0100
0010
0001
1000
0001
0100
,  // measure 20
0010
0100
0001
0020
0130
2000
3020
0230
,  // measure 21
0302
0000
0100
0000
1000
1000
0010
0010
,  // measure 22
0023
0000
0230
0000
1300
0001
1000
0010
,  // measure 23
2000
0000
0010
0000
0001
0001
0100
0100
,  // measure 24
3100
0010
0001
0000
0100
0010
1000
0000
,  // measure 25
0001
0100
0010
0100
,  // measure 26
0001
1000
0100
0010
,  // measure 27
0100
1000
0010
0100
,  // measure 28
0001
1000
0001
1000
,  // measure 29
0001
1000
0100
0010
1000
0010
0001
1000
,  // measure 30
0001
0100
0010
1000
0100
0010
0001
1000
,  // measure 31
0001
0100
0010
0100
1000
0001
0010
0100
,  // measure 32
0001
1000
0100
0010
2000
3020
0032
0203
,  // measure 33
0320
0000
0130
0010
0001
0010
1000
0001
,  // measure 34
1000
0100
0010
0001
0100
0010
1000
0001
,  // measure 35
1000
0100
0010
0100
0001
1000
0010
0100
,  // measure 36
1000
0001
0100
0010
1000
0001
2000
0000
,  // measure 37
3001
1010
1000
0011
,  // measure 38
0001
1100
1000
0101
,  // measure 39
0001
1010
1000
0011
,  // measure 40
0001
0000
1100
0000
1000
0001
1001
0000
,  // measure 41
2000
0010
3002
0010
,  // measure 42
2003
0100
3002
0100
,  // measure 43
0023
0001
0230
1000
,  // measure 44
0320
0100
0032
1000
,  // measure 45
0203
0300
0200
0300
0200
0300
0200
0300
,  // measure 46
0020
0030
0020
0030
0020
0030
0020
0030
,  // measure 47
2000
3000
2000
3000
2000
3000
2000
3000
,  // measure 48
0002
0003
0002
0003
0002
0003
0002
0003
,  // measure 49
0020
0031
0020
0130
0020
0031
0020
0030
,  // measure 50
0200
1300
0200
0310
0200
1300
0200
0300
,  // measure 51
2000
3100
2000
3001
2000
3010
2000
3000
,  // measure 52
1001
0000
0000
0000
,  // measure 53
0001
0100
0010
0100
1000
0100
0010
0100
,  // measure 54
0001
0010
0100
1000
0010
0100
0001
1000
,  // measure 55
0100
0010
0001
0100
1000
0001
0010
1000
,  // measure 56
0001
0010
0100
0010
2000
3002
0203
2300
,  // measure 57
3020
0000
0130
0010
0001
0010
0100
0010
,  // measure 58
1000
0100
0010
0001
0100
0010
1000
0001
,  // measure 59
0010
0100
1000
0010
0001
1000
0100
0001
,  // measure 60
1000
0100
0010
0100
1000
0001
1000
0000
;
